<?xml version="1.0" standalone="no"?>
<!DOCTYPE svg PUBLIC "-//W3C//DTD SVG 1.1//EN" "http://www.w3.org/Graphics/SVG/1.1/DTD/svg11.dtd" >
<svg xmlns="http://www.w3.org/2000/svg" xmlns:xlink="http://www.w3.org/1999/xlink" version="1.1">
<metadata>
Created by FontForge 20170731 at Wed Dec  4 13:10:47 2019
 By Aleksey,,,
(c) Bayerische Motoren Werke AG (BMW AG) 2019. The font is subject to copyright protection and other intellectual property rights. All rights reserved.
</metadata>
<defs>
<font id="BMWTypeNextLatinTT-Thin" horiz-adv-x="570" >
  <font-face 
    font-family="BMWTypeNext Latin TT Thin"
    font-weight="250"
    font-stretch="normal"
    units-per-em="1000"
    panose-1="0 0 0 0 0 0 0 0 0 0"
    ascent="800"
    descent="-200"
    x-height="528"
    cap-height="754"
    bbox="-127 -280 1321 1055"
    underline-thickness="50"
    underline-position="-276"
    unicode-range="U+000D-FB02"
  />
<missing-glyph horiz-adv-x="600" 
d="M50 754h500v-754h-500v754zM515 63v627l-194 -313zM85 690v-627l194 314zM491 720h-382l191 -309zM109 34h382l-191 309z" />
    <glyph glyph-name=".notdef" horiz-adv-x="600" 
d="M50 754h500v-754h-500v754zM515 63v627l-194 -313zM85 690v-627l194 314zM491 720h-382l191 -309zM109 34h382l-191 309z" />
    <glyph glyph-name=".null" horiz-adv-x="0" 
 />
    <glyph glyph-name=".null" horiz-adv-x="0" 
 />
    <glyph glyph-name="uni000D" unicode="&#xd;" horiz-adv-x="254" 
 />
    <glyph glyph-name="space" unicode=" " horiz-adv-x="259" 
 />
    <glyph glyph-name="exclam" unicode="!" horiz-adv-x="263" 
d="M121 634v120h42v-120v-131.5v-120t-0.5 -93t-0.5 -49.5h-40q0 11 -0.5 49.5t-0.5 93v120v131.5zM113 0v125h58v-125h-58z" />
    <glyph glyph-name="quotedbl" unicode="&#x22;" horiz-adv-x="372" 
d="M229 754h49v-74q0 -18 -0.5 -49.5t-1 -65t-1.5 -62.5t-1 -40h-41q0 11 -1 39.5t-1.5 61.5t-1 65t-0.5 51v74zM94 680v74h49v-74q0 -18 -0.5 -49.5t-1 -65t-1.5 -62.5t-1 -40h-41q0 11 -1 39.5t-1.5 61.5t-1 65t-0.5 51z" />
    <glyph glyph-name="numbersign" unicode="#" horiz-adv-x="650" 
d="M41 206v39h126l41 267h-121v39h127l31 203h40l-31 -203h195l31 203h40l-31 -203h120v-39h-126l-41 -267h121v-39h-127l-32 -206h-40l32 206h-195l-32 -206h-40l32 206h-120zM207 245h195l41 267h-195z" />
    <glyph glyph-name="dollar" unicode="$" horiz-adv-x="662" 
d="M136 697q27 27 68.5 40.5t109.5 15.5v104h40v-105q23 -2 50 -6.5t54 -10t51 -11t42 -10.5v-42q-48 13 -110 27t-119 14q-106 0 -148 -38q-26 -23 -35 -50t-9 -58q0 -29 3.5 -49.5t19.5 -37.5q12 -13 40.5 -25.5t63.5 -24.5l166 -57q54 -19 81.5 -36.5t45.5 -43.5
q14 -21 19 -45.5t5 -54.5q0 -84 -53 -135q-31 -29 -70.5 -42.5t-96.5 -16.5v-112h-40v112q-59 2 -116.5 13t-102.5 21v41q46 -11 109.5 -23t123.5 -12q57 0 88.5 8t58.5 27q57 41 57 119q0 26 -4 47t-21 40q-16 18 -40.5 30t-62.5 26l-164 57q-42 15 -75.5 30.5t-50.5 38.5
t-21.5 46.5t-4.5 58.5q0 32 10 67t38 63z" />
    <glyph glyph-name="percent" unicode="%" horiz-adv-x="1008" 
d="M635 205q0 66 4 106t24 68q17 23 46.5 37t71.5 14q81 0 118 -56q20 -31 24.5 -72.5t4.5 -96.5q0 -54 -6 -93.5t-24 -66.5q-17 -26 -45.5 -41t-71.5 -15q-41 0 -67.5 10.5t-43.5 31.5q-19 23 -27 61.5t-8 112.5zM675 205q0 -49 3.5 -85.5t18.5 -58.5q13 -19 32.5 -26
t51.5 -7q29 0 51 10t36 35q14 24 17 57t3 75q0 55 -3.5 90t-19.5 58q-26 38 -86 38q-25 0 -46 -7.5t-34 -23.5q-18 -23 -21 -58t-3 -97zM311 0l356 754h44l-356 -754h-44zM80 540q0 66 4 106t24 68q17 23 46.5 37t71.5 14q81 0 118 -56q20 -31 24.5 -72.5t4.5 -96.5
q0 -54 -6 -93.5t-24 -66.5q-17 -26 -45.5 -41t-71.5 -15q-41 0 -67.5 10.5t-43.5 31.5q-19 23 -27 61.5t-8 112.5zM120 540q0 -49 3.5 -85.5t18.5 -58.5q13 -19 32.5 -26t51.5 -7q29 0 51 10t36 35q14 24 17 57t3 75q0 55 -3.5 90t-19.5 58q-26 38 -86 38q-25 0 -46 -7.5
t-34 -23.5q-18 -23 -21 -58t-3 -97z" />
    <glyph glyph-name="ampersand" unicode="&#x26;" horiz-adv-x="709" 
d="M138 341q17 20 40 40.5t50 43.5q-16 16 -36 43q-19 26 -33.5 59t-14.5 78q0 35 10.5 68.5t41.5 59.5q27 23 61 30.5t69 7.5q18 0 41 -3t45.5 -7.5t42 -9.5t31.5 -8v-41q-35 9 -81.5 19t-78.5 10q-34 0 -58.5 -6t-42.5 -21q-24 -20 -31.5 -43t-7.5 -54q0 -40 11.5 -64.5
t25.5 -45.5q10 -14 30.5 -37.5t46.5 -51t54 -56t52 -52.5h-57l-92 94q-26 -20 -48.5 -41t-46.5 -48q-31 -35 -41 -67.5t-10 -69.5q0 -77 38 -112q35 -33 97 -33q29 0 54.5 7t51.5 24q27 17 53 43t53 58l119 145h55l-107 -130l157 -170h-57l-127 137q-13 -16 -24 -28.5
t-21 -23t-21 -21t-25 -22.5q-35 -29 -72.5 -44t-88.5 -15q-85 0 -130 46q-47 48 -47 142q0 47 14.5 85t54.5 85z" />
    <glyph glyph-name="quotesingle" unicode="'" horiz-adv-x="237" 
d="M94 754h49v-74q0 -18 -0.5 -49.5t-1 -65t-1.5 -62.5t-1 -40h-41q0 11 -1 39.5t-1.5 61.5t-1 65t-0.5 51v74z" />
    <glyph glyph-name="parenleft" unicode="(" horiz-adv-x="306" 
d="M97 515q0 43 4 85t29 79q23 35 58.5 58.5t81.5 37.5v-42q-36 -15 -62 -33.5t-45 -47.5q-19 -30 -22 -66t-3 -78v-452q0 -42 3 -78.5t22 -66.5q20 -31 45.5 -48.5t61.5 -31.5v-42q-46 14 -81.5 37t-58.5 58q-25 37 -29 79.5t-4 85.5v466z" />
    <glyph glyph-name="parenright" unicode=")" horiz-adv-x="306" 
d="M36 -211v42q36 14 61.5 31.5t45.5 48.5q19 30 22 66.5t3 78.5v452q0 42 -3 78t-22 66q-19 29 -45 47.5t-62 33.5v42q46 -14 81.5 -37.5t58.5 -58.5q25 -37 29 -79t4 -85v-466q0 -43 -4 -85.5t-29 -79.5q-23 -35 -58.5 -58t-81.5 -37z" />
    <glyph glyph-name="asterisk" unicode="*" horiz-adv-x="533" 
d="M99 637v43l150 -84l-1 158h37l-1 -158l150 84v-43l-137 -75l137 -75v-43l-150 84l1 -158h-37l1 158l-150 -84v43l137 75z" />
    <glyph glyph-name="plus" unicode="+" horiz-adv-x="700" 
d="M329 397v245h41v-245h241v-40h-241v-245h-41v245h-240v40h240z" />
    <glyph glyph-name="comma" unicode="," horiz-adv-x="239" 
d="M71 -169q6 26 10 49t7 49t4.5 57.5t1.5 75.5v63h55v-100q0 -55 -11 -102t-28 -92h-39z" />
    <glyph glyph-name="hyphen" unicode="-" horiz-adv-x="398" 
d="M75 243v42h248v-42h-248z" />
    <glyph glyph-name="period" unicode="." horiz-adv-x="239" 
d="M90 0v125h59v-125h-59z" />
    <glyph glyph-name="slash" unicode="/" horiz-adv-x="356" 
d="M15 0l281 754h45l-281 -754h-45z" />
    <glyph glyph-name="zero" unicode="0" horiz-adv-x="652" 
d="M96 377q0 101 8 175.5t39 130.5q23 42 69.5 65t111.5 23q132 0 183 -94q27 -51 38 -127t11 -165q0 -95 -9.5 -174.5t-35.5 -129.5q-25 -48 -69.5 -73t-116.5 -25q-128 0 -177 77q-29 46 -40.5 128t-11.5 189zM138 378q0 -100 9 -178t37 -120q21 -32 56.5 -44.5
t85.5 -12.5t89 17.5t61 62.5t30 116t8 163q0 97 -12 171t-35 112q-20 33 -57.5 49.5t-86.5 16.5q-42 0 -77.5 -13t-56.5 -40q-32 -40 -41.5 -113.5t-9.5 -186.5z" />
    <glyph glyph-name="one" unicode="1" horiz-adv-x="340" 
d="M182 0v717l-180 -59v43l221 73v-774h-41z" />
    <glyph glyph-name="two" unicode="2" horiz-adv-x="540" 
d="M22 45q41 47 88 101.5t90 105t76.5 90.5t47.5 58q21 27 38.5 51t30 47t19 47t6.5 52t-5.5 53t-25.5 43q-20 19 -48.5 28.5t-78.5 9.5q-23 0 -52 -4.5t-57.5 -11t-53.5 -13t-39 -10.5v41q15 5 39 11.5t52 12.5t57 10t54 4q58 0 98.5 -13t66.5 -45q20 -25 27.5 -52t7.5 -64
q0 -57 -24.5 -106t-69.5 -105q-42 -52 -87 -105.5t-85.5 -101t-73 -84.5t-49.5 -55h419v-40h-468v45z" />
    <glyph glyph-name="three" unicode="3" 
d="M48 5v41q19 -3 42.5 -7t48.5 -7.5t49.5 -6t45.5 -2.5q41 0 77 7t60 26q32 24 46.5 61t14.5 79q0 58 -20 96t-58 61q-20 12 -42 14.5t-58 2.5h-130v40h208l50 68q26 35 35.5 64t9.5 60q0 25 -7 48.5t-25 40.5q-20 20 -52 30t-86 10q-27 0 -56.5 -4t-57.5 -9.5t-51.5 -11
t-37.5 -9.5v41q17 5 42 10.5t52.5 10.5t56 8.5t52.5 3.5q62 0 102 -12.5t69 -41.5q22 -22 31.5 -53.5t9.5 -62.5q0 -32 -11 -66t-36 -71q-14 -21 -28.5 -40.5t-24.5 -32.5q12 -7 28.5 -19t31.5 -30q20 -25 32.5 -60.5t12.5 -83.5q0 -45 -14 -86.5t-43 -70.5q-33 -32 -77 -45
t-107 -13q-48 0 -100 8t-85 14z" />
    <glyph glyph-name="four" unicode="4" horiz-adv-x="601" 
d="M408 753h50l-354 -538h358v199h41v-414h-41v175h-409v39z" />
    <glyph glyph-name="five" unicode="5" horiz-adv-x="575" 
d="M93 44q42 -8 85 -14.5t90 -6.5q46 0 83.5 11.5t63.5 40.5q23 26 34 61t11 83q0 45 -12.5 80.5t-41.5 57.5q-14 11 -31 18.5t-41 12t-57.5 6.5t-80.5 2h-92v358h374v-40h-333v-278h86q63 0 106 -8t72 -24q52 -29 72.5 -79t20.5 -105q0 -49 -13 -93.5t-40 -75.5
q-36 -41 -81 -54.5t-103 -13.5q-50 0 -93 6.5t-79 13.5v41z" />
    <glyph glyph-name="six" unicode="6" horiz-adv-x="616" 
d="M200 639q60 55 139 84t156 43v-41q-88 -17 -156.5 -45.5t-111.5 -70.5q-38 -36 -56.5 -84.5t-24.5 -92.5q17 1 57 2t82 1q76 0 126 -14t82 -49q26 -28 37 -67.5t11 -81.5q0 -41 -7 -81t-33 -77t-68.5 -59.5t-117.5 -22.5q-71 0 -115 22.5t-70 67.5q-23 39 -29.5 92
t-6.5 105q0 39 2 88t12.5 99.5t31.5 98t60 83.5zM136 270q0 -57 6.5 -101.5t23.5 -75.5q38 -70 149 -70q54 0 90 14t59 47q20 28 27.5 64.5t7.5 74.5q0 32 -8.5 65.5t-28.5 56.5q-28 31 -72.5 40.5t-105.5 9.5q-40 0 -80 -1t-63 -2q-2 -22 -3.5 -50.5t-1.5 -71.5z" />
    <glyph glyph-name="seven" unicode="7" horiz-adv-x="505" 
d="M71 0l357 714h-409v40h455v-42l-356 -712h-47z" />
    <glyph glyph-name="eight" unicode="8" horiz-adv-x="684" 
d="M149 333q15 17 34.5 33.5t36.5 29.5q-42 18 -66 53q-32 48 -32 128q0 45 14.5 83.5t51.5 67.5q26 20 65 31.5t93 11.5q57 0 101.5 -16t76.5 -54q20 -25 29 -57.5t9 -66.5q0 -39 -10.5 -69.5t-32.5 -60.5q-12 -17 -28.5 -35.5t-31.5 -33.5q22 -8 44 -21t38 -29
q26 -27 37 -61.5t11 -74.5q0 -45 -13.5 -82.5t-44.5 -67.5q-34 -32 -80 -45.5t-109 -13.5q-66 0 -110.5 12t-75.5 37q-30 24 -45.5 60.5t-15.5 97.5q0 36 12.5 73t41.5 70zM181 65q29 -23 67.5 -32.5t93.5 -9.5q98 0 147 37q58 45 58 131q0 42 -15 78.5t-57 56.5
q-35 17 -89 29.5t-121 26.5q-17 -12 -43.5 -34t-43.5 -42q-23 -28 -32 -58t-9 -58q0 -42 9 -72.5t35 -52.5zM217 444q12 -7 34 -14.5t49.5 -14.5t57.5 -13t57 -12q17 17 35 36t35 43q19 26 27 52t8 56q0 31 -8 59t-28 48q-46 47 -138 47q-95 0 -143 -45q-21 -20 -30 -48.5
t-9 -60.5q0 -54 12 -85t41 -48z" />
    <glyph glyph-name="nine" unicode="9" horiz-adv-x="616" 
d="M76 526q0 38 5.5 79.5t25.5 76.5q23 38 67.5 63.5t119.5 25.5q66 0 110 -24t69 -66q29 -50 39 -129.5t10 -178.5q0 -31 -0.5 -55t-2 -44.5t-4.5 -40t-8 -41.5q-9 -41 -27.5 -79.5t-44.5 -64.5q-32 -32 -75 -48.5t-104 -16.5q-44 0 -83.5 6t-73.5 13v41q35 -8 76 -14
t83 -6q40 0 73 10.5t58 28.5q29 21 48.5 58.5t28.5 77.5q8 38 11 75.5t3 55.5q-18 -3 -40.5 -5.5t-46.5 -4.5t-48.5 -3.5t-45.5 -1.5q-77 0 -122.5 17t-69.5 55q-20 32 -25.5 65t-5.5 75zM118 526q0 -38 4.5 -67.5t20.5 -52.5q22 -32 62.5 -42t86.5 -10t99 5t89 10
q0 40 -1 80t-5 77t-12 70t-21 58q-21 41 -59 59t-89 18q-102 0 -142 -58q-21 -31 -27 -65t-6 -82z" />
    <glyph glyph-name="colon" unicode=":" horiz-adv-x="239" 
d="M90 403v125h59v-125h-59zM149 125v-125h-59v125h59z" />
    <glyph glyph-name="semicolon" unicode=";" horiz-adv-x="239" 
d="M71 -169q6 26 10 49t7 49t4.5 57.5t1.5 75.5v63h55v-100q0 -55 -11 -102t-28 -92h-39zM90 528h59v-125h-59v125z" />
    <glyph glyph-name="less" unicode="&#x3c;" horiz-adv-x="700" 
d="M611 647v-46l-472 -224l472 -224v-46l-522 249v42z" />
    <glyph glyph-name="equal" unicode="=" horiz-adv-x="700" 
d="M89 252v40h522v-40h-522zM611 502v-40h-522v40h522z" />
    <glyph glyph-name="greater" unicode="&#x3e;" horiz-adv-x="700" 
d="M611 398v-42l-522 -249v46l472 224l-472 224v46z" />
    <glyph glyph-name="question" unicode="?" horiz-adv-x="495" 
d="M242 771q87 0 133 -40q26 -23 37.5 -55t11.5 -71q0 -45 -13 -81t-34 -65q-18 -26 -36.5 -48t-51.5 -58q-43 -46 -58 -71t-21 -42h-46q7 17 13.5 31.5t16 29.5t23.5 32.5t35 40.5q30 32 50 54.5t37 48.5q23 33 33 61.5t10 66.5q0 26 -6 50.5t-29 45.5q-33 30 -102 30
q-36 0 -82.5 -10.5t-86.5 -21.5v41q19 5 40.5 10.5t43.5 10t43 7.5t39 3zM157 0v125h58v-125h-58z" />
    <glyph glyph-name="at" unicode="@" horiz-adv-x="922" 
d="M182 550q20 23 46 40t60 28.5t78 17.5t101 6q44 0 94 -9.5t97.5 -22t88 -26.5t65.5 -23v-310q0 -44 -3.5 -85.5t-26.5 -78.5t-64.5 -59.5t-87.5 -33.5q-9 -2 -21 -3.5t-16 -1.5v91q-8 -8 -22.5 -19t-31.5 -25q-28 -22 -57 -35.5t-62 -13.5q-54 0 -80 19.5t-40 48.5
q-16 32 -21 79t-5 91q0 47 8 97.5t28 79.5q26 37 63 50t88 13q38 0 82.5 -12.5t89.5 -26.5v-391q37 11 66 28t48 46q19 30 22 60.5t3 74.5v289q-23 8 -59.5 19.5t-78.5 22.5t-85.5 19t-81.5 8q-91 0 -148.5 -16t-96.5 -54q-25 -24 -42.5 -58t-27.5 -74.5t-14.5 -85
t-4.5 -89.5q0 -144 31 -228t104 -122q27 -14 58 -23t61 -17v-42q-31 7 -69 18t-73 30q-49 27 -79 68.5t-46.5 92.5t-22 108.5t-5.5 114.5q0 45 4 91t14.5 88t27.5 79.5t44 66.5zM315 225q0 -42 4.5 -82.5t15.5 -65.5q13 -28 32 -39.5t53 -11.5q26 0 50 12.5t47 30.5
q20 15 39.5 30.5t36.5 29.5v268q-34 11 -67 20t-67 9q-40 0 -66.5 -9.5t-46.5 -37.5q-17 -25 -24 -69.5t-7 -84.5z" />
    <glyph glyph-name="A" unicode="A" horiz-adv-x="673" 
d="M21 0l288 754h53l290 -754h-45l-83 215h-377l-82 -215h-44zM162 255h347l-174 455z" />
    <glyph glyph-name="B" unicode="B" horiz-adv-x="718" 
d="M110 0v754h279q53 0 93 -4t72 -21q35 -18 54 -51.5t19 -85.5q0 -35 -13.5 -65.5t-31.5 -64.5q-9 -17 -21.5 -38t-17.5 -29q18 -12 34.5 -25.5t30.5 -33.5q16 -22 26.5 -52.5t10.5 -75.5q0 -54 -16.5 -92t-45.5 -64q-58 -52 -183 -52h-290zM151 369v-329h248q98 0 147 35
q29 21 43 55.5t14 77.5q0 44 -13.5 76t-45.5 58q-20 17 -41.5 22t-53.5 5h-298zM151 409h353q11 19 21 37t19 35q18 33 29.5 59t11.5 55q0 69 -53 98q-26 14 -61 17.5t-79 3.5h-241v-305z" />
    <glyph glyph-name="C" unicode="C" horiz-adv-x="658" 
d="M95 375q0 81 11 158.5t40 128.5q17 29 37 49.5t46 34t61 19.5t82 6q38 0 68.5 -4.5t56.5 -9.5q27 -5 57 -13t44 -12v-41q-59 16 -118 28q-26 5 -52.5 8.5t-55.5 3.5q-76 0 -121 -21.5t-74 -79.5q-10 -21 -18 -50t-12.5 -62.5t-7 -70.5t-2.5 -73q0 -72 8 -132.5t22 -97.5
q23 -61 70.5 -91t128.5 -30q58 0 115 9.5t117 23.5v-42q-60 -13 -114 -22t-112 -9q-101 0 -157 34t-87 111q-8 21 -14.5 49t-10.5 60.5t-6 68t-2 69.5z" />
    <glyph glyph-name="D" unicode="D" horiz-adv-x="752" 
d="M361 754q77 0 122 -12.5t82 -47.5q24 -22 41.5 -56t29 -75.5t16.5 -88.5t5 -94t-5 -92t-15.5 -85t-27 -73.5t-39.5 -57.5q-39 -40 -90.5 -56t-126.5 -16h-243v754h251zM352 40q74 0 116.5 16.5t73.5 47.5q34 35 53.5 107.5t19.5 168.5q0 88 -18 162.5t-54 114.5
q-32 35 -76 46t-106 11h-210v-674h201z" />
    <glyph glyph-name="E" unicode="E" horiz-adv-x="651" 
d="M594 754v-40h-443v-308h421v-40h-421v-326h459v-40h-500v754h484z" />
    <glyph glyph-name="F" unicode="F" horiz-adv-x="632" 
d="M598 754v-40h-447v-320h416v-40h-416v-354h-41v754h488z" />
    <glyph glyph-name="G" unicode="G" horiz-adv-x="740" 
d="M95 375q0 39 2.5 79.5t8.5 78t15.5 71t24.5 58.5q33 57 83.5 83t142.5 26q37 0 68.5 -4.5t58.5 -9.5q29 -6 57.5 -13t50.5 -13v-41q-29 8 -60 14.5t-64 13.5q-26 5 -53.5 9t-57.5 4q-76 0 -121.5 -21.5t-74.5 -79.5q-20 -42 -29.5 -113t-9.5 -143q0 -75 8.5 -134.5
t23.5 -96.5q15 -36 36.5 -59.5t49 -37t61 -18.5t71.5 -5q51 0 107 7t98 13v358h41v-393q-63 -9 -129.5 -17t-131.5 -8q-53 0 -92 10t-67.5 28.5t-48 45t-33.5 58.5q-18 41 -27 107.5t-9 142.5z" />
    <glyph glyph-name="H" unicode="H" horiz-adv-x="769" 
d="M151 754v-333h467v333h41v-754h-41v381h-467v-381h-41v754h41z" />
    <glyph glyph-name="I" unicode="I" horiz-adv-x="261" 
d="M110 0v754h41v-754h-41z" />
    <glyph glyph-name="J" unicode="J" horiz-adv-x="364" 
d="M-6 -42q13 4 33.5 11t43 15.5t43.5 18t36 17.5q22 12 35.5 24.5t20.5 31.5q8 22 9 58t1 76v544h41v-539q0 -53 -1.5 -88t-9.5 -62q-12 -39 -51 -65q-20 -13 -46.5 -25.5t-54.5 -23.5t-54.5 -20t-45.5 -15v42z" />
    <glyph glyph-name="K" unicode="K" horiz-adv-x="622" 
d="M151 754v-365l380 365h61l-391 -374l422 -380h-63l-409 369v-369h-41v754h41z" />
    <glyph glyph-name="L" unicode="L" horiz-adv-x="615" 
d="M110 0v754h41v-714h425v-40h-466z" />
    <glyph glyph-name="M" unicode="M" horiz-adv-x="870" 
d="M176 754l259 -561l259 561h66v-754h-41v710l-259 -560h-51l-258 558v-708h-41v754h66z" />
    <glyph glyph-name="N" unicode="N" horiz-adv-x="756" 
d="M172 754l433 -709v709h41v-754h-62l-433 709v-709h-41v754h62z" />
    <glyph glyph-name="O" unicode="O" horiz-adv-x="801" 
d="M136 640q34 63 98.5 97t165.5 34q88 0 146 -24t96 -78q18 -25 30 -60t19.5 -74t11 -80t3.5 -77q0 -28 -2.5 -65.5t-9 -76.5t-18 -76t-29.5 -65q-42 -63 -104 -87.5t-143 -24.5q-99 0 -161 27t-94 82q-15 26 -25 60.5t-15.5 73t-7.5 77.5t-2 75q0 31 2 67.5t6.5 72
t12.5 67.5t20 55zM178 119q35 -60 93 -78t129 -18q64 0 113 15.5t87 62.5q18 22 30.5 54t20 69.5t10.5 77t3 76.5q0 34 -2.5 70t-8.5 70.5t-16 65.5t-24 53q-33 53 -87 73.5t-126 20.5q-74 0 -134.5 -24.5t-92.5 -86.5q-10 -21 -17 -50t-11.5 -61.5t-6 -66.5t-1.5 -64
q0 -29 2 -65t6.5 -72t12.5 -68t20 -54z" />
    <glyph glyph-name="P" unicode="P" horiz-adv-x="657" 
d="M110 0v754h270q65 0 103.5 -14t65.5 -43q24 -26 37.5 -68.5t13.5 -86.5q0 -47 -7.5 -89t-33.5 -78q-23 -32 -58 -47.5t-84 -20.5q-16 -1 -44.5 -2t-64 -2t-76 -1h-81.5v-302h-41zM414 348q41 4 70.5 17.5t47.5 44.5q15 26 20.5 59.5t5.5 72.5q0 41 -12.5 76.5t-35.5 58.5
q-22 22 -54.5 29.5t-77.5 7.5h-227v-372h76t72.5 0.5t64 2t50.5 3.5z" />
    <glyph glyph-name="Q" unicode="Q" horiz-adv-x="801" 
d="M136 640q34 63 98.5 97t165.5 34q88 0 146 -24t96 -78q18 -25 30 -60t19.5 -74t11 -80t3.5 -77q0 -42 -3 -84.5t-11.5 -82.5t-24 -76.5t-40.5 -65.5t-62.5 -50.5t-88.5 -29.5l228 -55v-41l-363 89q-37 9 -67 18t-54 21.5t-42.5 29.5t-32.5 41q-15 26 -25 60.5t-15.5 73
t-7.5 77.5t-2 75q0 31 2 67.5t6.5 72t12.5 67.5t20 55zM137 378q0 -29 2 -65t6.5 -72t12.5 -68t20 -54q17 -30 42 -49t54.5 -29.5t62 -14.5t63.5 -4q64 0 113 16t87 63q18 22 30.5 54t20 69.5t10.5 77t3 76.5q0 34 -2.5 70t-8.5 70.5t-16 65.5t-24 53q-33 53 -87 73.5
t-126 20.5q-74 0 -134.5 -24.5t-92.5 -86.5q-10 -21 -17 -50t-11.5 -61.5t-6 -66.5t-1.5 -64z" />
    <glyph glyph-name="R" unicode="R" horiz-adv-x="682" 
d="M110 0v754h240q78 0 122 -8t75 -30q34 -23 49.5 -60.5t15.5 -82.5q0 -49 -21 -86.5t-48 -67.5q-22 -25 -46.5 -49.5t-41.5 -40.5l197 -329h-50l-195 326h-256v-326h-41zM151 714v-348h282q23 22 42.5 42t35.5 38q23 27 41 57.5t18 68.5t-13.5 68.5t-47.5 50.5
q-25 14 -61.5 18.5t-98.5 4.5h-198z" />
    <glyph glyph-name="S" unicode="S" horiz-adv-x="640" 
d="M69 574q0 32 9.5 71.5t39.5 69.5q32 32 75 44t112 12q63 0 122 -13.5t125 -31.5v-41q-26 7 -57.5 15t-64 15t-64.5 11.5t-61 4.5q-51 0 -87 -7.5t-62 -30.5q-25 -22 -35 -52.5t-10 -66.5q0 -30 5.5 -52t21.5 -39q13 -14 42 -26.5t64 -24.5l170 -59q55 -19 83.5 -36.5
t46.5 -43.5q15 -21 21 -48t6 -59q0 -40 -14.5 -77.5t-40.5 -63.5q-34 -35 -80.5 -48.5t-111.5 -13.5q-32 0 -66.5 4t-67.5 10t-63 13t-52 12v42q25 -6 57 -13t65.5 -13.5t65.5 -10.5t58 -4q53 0 88 8.5t64 31.5q27 21 41.5 54.5t14.5 70.5q0 26 -5.5 48t-19.5 40t-39.5 31.5
t-69.5 28.5l-171 60q-42 14 -71.5 27t-49.5 36q-19 22 -26.5 50t-7.5 65z" />
    <glyph glyph-name="T" unicode="T" horiz-adv-x="661" 
d="M28 754h605v-40h-282v-714h-41v714h-282v40z" />
    <glyph glyph-name="U" unicode="U" horiz-adv-x="739" 
d="M147 754v-473q0 -82 10 -132.5t47 -82.5q29 -26 70 -34.5t97 -8.5t96 8.5t70 34.5q37 32 46 83t9 132v473h41v-474q0 -91 -12 -150.5t-60 -97.5q-34 -27 -79.5 -38t-110.5 -11t-111 11t-81 39q-44 35 -58.5 94t-14.5 153v474h41z" />
    <glyph glyph-name="V" unicode="V" horiz-adv-x="643" 
d="M3 754h45l274 -702l274 702h44l-295 -754h-47z" />
    <glyph glyph-name="W" unicode="W" horiz-adv-x="884" 
d="M38 754h42l151 -718l181 604h60l181 -604l151 718h42l-159 -754h-66l-179 599l-179 -599h-66z" />
    <glyph glyph-name="X" unicode="X" horiz-adv-x="598" 
d="M4 0l260 383l-242 371h50l227 -347l225 347h50l-240 -370l260 -384h-51l-244 360l-244 -360h-51z" />
    <glyph glyph-name="Y" unicode="Y" horiz-adv-x="592" 
d="M43 754l253 -417l253 417h49l-281 -464v-290h-42v290l-281 464h49z" />
    <glyph glyph-name="Z" unicode="Z" horiz-adv-x="633" 
d="M53 0v45l472 669h-457v40h505v-45l-472 -669h479v-40h-527z" />
    <glyph glyph-name="bracketleft" unicode="[" horiz-adv-x="301" 
d="M260 754v-40h-119v-866h119v-40h-160v946h160z" />
    <glyph glyph-name="backslash" unicode="\" horiz-adv-x="356" 
d="M296 0l-281 754h45l281 -754h-45z" />
    <glyph glyph-name="bracketright" unicode="]" horiz-adv-x="301" 
d="M201 754v-946h-160v40h119v866h-119v40h160z" />
    <glyph glyph-name="asciicircum" unicode="^" horiz-adv-x="788" 
d="M370 754h48l308 -419h-53l-279 379l-279 -379h-53z" />
    <glyph glyph-name="underscore" unicode="_" horiz-adv-x="500" 
d="M0 -96v40h500v-40h-500z" />
    <glyph glyph-name="grave" unicode="`" horiz-adv-x="375" 
d="M207 622l-111 132h56l110 -132h-55z" />
    <glyph glyph-name="a" unicode="a" 
d="M108 463q33 51 77 66.5t100 15.5q44 0 93 -16t104 -37v-492h-40v97q-16 -14 -31 -27t-34 -28q-35 -28 -66.5 -43.5t-72.5 -15.5q-61 0 -91 23.5t-49 60.5q-16 32 -23.5 87t-7.5 115q0 57 9 108t32 86zM132 91q17 -35 40.5 -52t65.5 -17q49 0 106 45q26 20 52 41.5
t46 40.5v316q-42 16 -81 28.5t-79 12.5q-51 0 -85.5 -15.5t-56.5 -53.5q-17 -29 -24.5 -75t-7.5 -93q0 -56 6 -104t18 -74z" />
    <glyph glyph-name="b" unicode="b" horiz-adv-x="577" 
d="M88 21v733h40v-282q10 5 36 18.5t49 24.5q23 10 52.5 20t62.5 10q57 0 91.5 -22t57.5 -67q18 -36 25.5 -84.5t7.5 -105.5q0 -60 -9.5 -107.5t-33.5 -85.5q-27 -43 -66.5 -66.5t-106.5 -23.5q-29 0 -56.5 3.5t-50.5 8.5q-19 5 -45 11.5t-54 14.5zM199 33q24 -5 45 -8
t50 -3q50 0 82.5 17.5t54.5 52.5q20 32 29 74.5t9 100.5q0 51 -6.5 92.5t-20.5 75.5q-17 38 -45 54.5t-61 16.5q-29 0 -50 -6t-49 -18q-32 -14 -58.5 -27.5t-50.5 -26.5v-377q14 -4 31 -8.5t40 -9.5z" />
    <glyph glyph-name="c" unicode="c" horiz-adv-x="480" 
d="M67 261q0 45 4.5 92.5t16.5 81.5q20 56 62.5 83t129.5 27q19 0 40 -3t41.5 -8t39 -10t32.5 -10v-40q-13 4 -32 9.5t-40 10.5t-42 8.5t-39 3.5q-63 0 -98 -16t-54 -64q-11 -28 -15.5 -73.5t-4.5 -91.5q0 -50 8 -98.5t25 -77.5q22 -38 56.5 -50.5t82.5 -12.5q34 0 77 9
t76 17v-40q-32 -8 -75 -16.5t-78 -8.5q-71 0 -110.5 19t-64.5 64q-22 40 -30 93.5t-8 101.5z" />
    <glyph glyph-name="d" unicode="d" horiz-adv-x="577" 
d="M104 464q25 47 66.5 64t97.5 17q24 0 49.5 -4t49.5 -9.5t45.5 -12t36.5 -11.5v246h40v-754h-40v77l-33 -24t-46 -30q-28 -17 -59.5 -28.5t-68.5 -11.5q-63 0 -93 22.5t-49 62.5q-18 38 -25.5 91t-7.5 107q0 52 7 104t30 94zM108 266q0 -52 6 -96t20 -78
q15 -36 39.5 -53.5t68.5 -17.5q30 0 54.5 10t47.5 23q31 18 57 37t48 36v340q-55 18 -98.5 28.5t-82.5 10.5q-45 0 -78.5 -14.5t-52.5 -52.5q-17 -33 -23 -78.5t-6 -94.5z" />
    <glyph glyph-name="e" unicode="e" horiz-adv-x="554" 
d="M67 263q0 51 5.5 97.5t26.5 88.5q20 40 63.5 68t124.5 28q77 0 119 -27.5t62 -66.5q14 -26 18 -53.5t4 -52.5q0 -18 -2.5 -44.5t-7.5 -55.5h-373q0 -39 5.5 -78t20.5 -68q21 -41 59 -59t106 -18q43 0 88.5 7.5t76.5 13.5v-40q-14 -3 -35 -6.5t-44 -6.5t-45.5 -5t-40.5 -2
q-85 0 -129 22.5t-68 66.5q-19 34 -26.5 78t-7.5 113zM107 284h337q5 28 5 61q0 23 -4 47.5t-15 44.5q-39 69 -143 69q-57 0 -96 -19t-59 -61q-14 -28 -19.5 -69t-5.5 -73z" />
    <glyph glyph-name="f" unicode="f" horiz-adv-x="285" 
d="M88 0v519q0 25 0.5 53.5t4.5 58.5q6 50 42 81q32 27 69 40t73 23v-41q-32 -9 -66.5 -22t-54.5 -36q-14 -17 -18.5 -33.5t-6.5 -36.5q-2 -26 -2.5 -47t-0.5 -38h152v-39h-152v-482h-40z" />
    <glyph glyph-name="g" unicode="g" horiz-adv-x="574" 
d="M68 270q0 59 7.5 106.5t27.5 83.5q28 51 71 68t101 17q23 0 51 -5.5t57.5 -13t56.5 -16t46 -14.5v-466q0 -65 -17 -107.5t-43 -69.5q-29 -29 -74.5 -45.5t-101.5 -16.5q-42 0 -85.5 4.5t-78.5 9.5v41q14 -2 34 -5t42 -5.5t45 -4t43 -1.5q49 0 87.5 14.5t64.5 44.5
q23 27 33.5 65.5t10.5 78.5v29q-11 -5 -30.5 -14t-48.5 -21q-30 -12 -61.5 -19.5t-63.5 -7.5q-66 0 -96 22t-47 56q-16 31 -23.5 82t-7.5 110zM135 97q15 -32 40 -45t67 -13q26 0 51 6t53 17q32 12 54 22.5t46 22.5v360q-11 4 -31.5 10.5t-45 13t-50 11t-46.5 4.5
q-53 0 -84.5 -15t-51.5 -53q-15 -29 -21.5 -74t-6.5 -94q0 -116 26 -173z" />
    <glyph glyph-name="h" unicode="h" horiz-adv-x="572" 
d="M88 0v754h40v-265q56 25 104 40.5t95 15.5q45 0 75.5 -9.5t52.5 -37.5q20 -25 25.5 -63t5.5 -84v-351h-40v352q0 38 -5 69.5t-19 50.5q-16 20 -39.5 27t-55.5 7q-51 0 -101 -19t-98 -41v-446h-40z" />
    <glyph glyph-name="i" unicode="i" horiz-adv-x="216" 
d="M88 0v528h40v-528h-40zM86 628v126h44v-126h-44z" />
    <glyph glyph-name="j" unicode="j" horiz-adv-x="227" 
d="M-37 -211v44l21 10.5t27 14t27 15.5t21 15q14 12 20.5 23t11.5 25t6.5 40.5t1.5 49.5v502h40v-496q0 -29 -1 -59t-6 -47q-7 -24 -20 -42t-38 -36q-21 -16 -55 -32.5t-56 -26.5zM97 754h44v-126h-44v126z" />
    <glyph glyph-name="k" unicode="k" horiz-adv-x="475" 
d="M128 754v-457l254 231h60l-266 -242l291 -286h-58l-281 277v-277h-40v754h40z" />
    <glyph glyph-name="l" unicode="l" horiz-adv-x="216" 
d="M88 0v754h40v-754h-40z" />
    <glyph glyph-name="m" unicode="m" horiz-adv-x="890" 
d="M128 528v-45q53 26 98.5 44t95.5 18q39 0 64 -7.5t44 -24.5q11 -11 17.5 -22t8.5 -16q20 11 43.5 23t49 22.5t52.5 17.5t53 7q41 0 71 -10t50 -37q20 -26 24.5 -64.5t4.5 -84.5v-349h-40v349q0 38 -3 68.5t-17 52.5t-37.5 29t-52.5 7q-24 0 -49 -7t-49.5 -17.5t-47 -23
t-42.5 -23.5v-435h-40v385q0 27 -2 48.5t-13 38.5t-34 25.5t-55 8.5q-46 0 -97 -22t-97 -45v-439h-40v528h40z" />
    <glyph glyph-name="n" unicode="n" horiz-adv-x="575" 
d="M88 0v528h40v-43q57 26 104 43t98 17q45 0 76.5 -10.5t52.5 -37.5t25.5 -65.5t4.5 -80.5v-351h-40v353q0 38 -4 68t-19 50t-39 27.5t-57 7.5q-48 0 -101 -21t-101 -43v-442h-40z" />
    <glyph glyph-name="o" unicode="o" 
d="M89 426q21 55 65.5 87t130.5 32q60 0 100 -15.5t69 -53.5q32 -43 40.5 -99t8.5 -111q0 -58 -9.5 -108t-23.5 -79q-23 -46 -67.5 -71t-117.5 -25q-68 0 -109 18t-67 60q-21 33 -31.5 88t-10.5 112q0 44 4.5 88.5t17.5 76.5zM140 89q23 -40 57.5 -53.5t87.5 -13.5
q52 0 87.5 15t55.5 50q17 30 25.5 78.5t8.5 101.5q0 48 -5 88.5t-22 74.5q-23 45 -59.5 60.5t-90.5 15.5q-60 0 -96.5 -19.5t-56.5 -63.5q-14 -29 -19 -73.5t-5 -87.5q0 -51 8 -98t24 -75z" />
    <glyph glyph-name="p" unicode="p" horiz-adv-x="577" 
d="M88 -192v720h40v-68q38 30 73 51q25 15 54.5 24.5t64.5 9.5q57 0 93.5 -20.5t62.5 -68.5q17 -31 25.5 -83t8.5 -110q0 -126 -39 -194q-25 -43 -62.5 -64.5t-100.5 -21.5q-45 0 -88.5 14t-91.5 37v-226h-40zM128 78q45 -22 88.5 -39t91.5 -17t78 16.5t50 51.5
q17 29 25 75.5t8 98.5q0 50 -6.5 95t-20.5 74q-18 39 -48 56t-74 17q-31 0 -55 -8t-50 -24q-23 -14 -44 -30t-43 -33v-333z" />
    <glyph glyph-name="q" unicode="q" horiz-adv-x="577" 
d="M67 262q0 57 9.5 110.5t31.5 91.5q29 49 72 65t98 16q26 0 55 -5t57.5 -12.5t54 -16t44.5 -14.5v-689h-40v247q-17 -10 -43 -24t-57 -27q-25 -11 -53 -16t-51 -5q-61 0 -93.5 20.5t-52.5 61.5q-17 36 -24.5 89.5t-7.5 107.5zM108 262q0 -52 6.5 -97.5t17.5 -73.5
q14 -35 39.5 -52t73.5 -17q29 0 55 7.5t52 19.5q25 12 49 26l48 28v366q-45 14 -88 25.5t-83 11.5q-49 0 -82.5 -14t-54.5 -52q-17 -30 -25 -78.5t-8 -99.5z" />
    <glyph glyph-name="r" unicode="r" horiz-adv-x="330" 
d="M88 528h40v-67q18 13 34.5 23t37.5 20q23 11 53 20t63 16v-41q-26 -5 -49.5 -12t-46.5 -18q-24 -11 -47 -25.5t-45 -30.5v-413h-40v528z" />
    <glyph glyph-name="s" unicode="s" horiz-adv-x="503" 
d="M62 406q0 31 10 59t39 48q27 19 58 25.5t76 6.5q21 0 46.5 -3.5t49.5 -8.5t45.5 -10t34.5 -9v-40q-15 4 -37 9.5t-47 10.5t-49.5 8.5t-42.5 3.5q-41 0 -65.5 -5.5t-42.5 -18.5q-20 -14 -27 -34t-7 -42q0 -23 4.5 -38.5t17.5 -26.5q14 -11 32.5 -18.5t49.5 -17.5l101 -33
q37 -12 59 -22.5t39 -26.5q17 -17 26 -40.5t9 -50.5q0 -34 -14.5 -65.5t-44.5 -50.5q-29 -18 -62.5 -25.5t-81.5 -7.5t-91.5 8.5t-78.5 16.5v40q42 -10 84 -18t86 -8q35 0 63.5 5t51.5 19q47 29 47 83q0 17 -4.5 33.5t-16.5 28.5q-14 14 -33.5 22.5t-50.5 19.5l-93 31
q-39 13 -62 21.5t-40 21.5q-23 17 -30.5 42t-7.5 57z" />
    <glyph glyph-name="t" unicode="t" horiz-adv-x="299" 
d="M87 193v467h40v-139h159v-39h-159v-290q0 -35 0.5 -55t2.5 -40q4 -39 35 -50q17 -6 43.5 -9t55.5 -5v-40q-31 2 -61 5.5t-51 10.5q-22 7 -35.5 18.5t-20.5 31.5q-7 21 -8 49.5t-1 84.5z" />
    <glyph glyph-name="u" unicode="u" horiz-adv-x="564" 
d="M87 195v333h40v-334q0 -42 3 -77.5t19 -57.5q15 -21 38.5 -29t65.5 -8q58 0 101.5 10.5t81.5 21.5v474h40v-504q-33 -9 -60.5 -17t-53.5 -13t-51.5 -8t-54.5 -3q-51 0 -84.5 10t-55.5 39q-20 26 -24.5 69t-4.5 94z" />
    <glyph glyph-name="v" unicode="v" horiz-adv-x="483" 
d="M15 528h44l182 -500l183 500h44l-194 -528h-66z" />
    <glyph glyph-name="w" unicode="w" horiz-adv-x="752" 
d="M20 528h42l138 -484l146 484h60l146 -484l138 484h42l-151 -528h-57l-148 491l-148 -491h-57z" />
    <glyph glyph-name="x" unicode="x" horiz-adv-x="472" 
d="M204 270l-183 258h50l165 -233l167 233h49l-184 -258l194 -270h-50l-176 245l-177 -245h-49z" />
    <glyph glyph-name="y" unicode="y" horiz-adv-x="487" 
d="M58 528l185 -463l187 463h43l-290 -720h-44l82 202l-207 518h44z" />
    <glyph glyph-name="z" unicode="z" horiz-adv-x="516" 
d="M45 0v35l366 454h-350v39h406v-35l-366 -454h374v-39h-430z" />
    <glyph glyph-name="braceleft" unicode="{" horiz-adv-x="319" 
d="M37 262v37q11 5 21 9t24 10q20 9 31.5 23t11.5 45v264q0 66 32 87q14 9 41.5 13t59.5 4h21v-40h-33q-19 0 -38 -3t-28 -13q-10 -11 -12 -28.5t-2 -47.5v-231q0 -31 -8 -51.5t-24 -34.5q-9 -8 -20 -13.5t-22 -10.5q15 -6 28 -13t24 -19q22 -26 22 -80v-229q0 -30 2 -47.5
t12 -28.5q9 -10 28 -13t38 -3h33v-40h-21q-32 0 -59.5 4t-41.5 13q-32 21 -32 87v261q0 32 -8.5 45.5t-30.5 23.5q-14 6 -23.5 10t-25.5 10z" />
    <glyph glyph-name="bar" unicode="|" horiz-adv-x="250" 
d="M105 -192v946h40v-946h-40z" />
    <glyph glyph-name="braceright" unicode="}" horiz-adv-x="319" 
d="M39 714v40h21q32 0 59.5 -4t41.5 -13q32 -21 32 -87v-264q0 -31 11.5 -45t31.5 -23q14 -6 24 -10t21 -9v-37q-16 -6 -25.5 -9.5t-23.5 -10.5q-22 -11 -30.5 -24t-8.5 -45v-261q0 -66 -32 -87q-14 -9 -41.5 -13t-59.5 -4h-21v40h33q19 0 38 3t28 13q10 11 12 28.5t2 47.5
v229q0 54 22 80q11 12 24 19t28 13q-11 5 -22 10.5t-20 13.5q-16 14 -24 34.5t-8 51.5v231q0 30 -2 47.5t-12 28.5q-9 10 -28 13t-38 3h-33z" />
    <glyph glyph-name="asciitilde" unicode="~" horiz-adv-x="788" 
d="M54 198q8 69 21 116.5t33 77.5q20 31 51 46t69 15q45 0 81.5 -19t72.5 -67l42 -55q23 -30 56 -58t83 -28q39 0 63 22.5t40 66.5q8 23 15 56t12 69h42q-8 -59 -19.5 -105t-30.5 -78q-24 -41 -54.5 -56t-68.5 -15q-50 0 -91.5 24t-79.5 75l-33 44q-11 15 -23.5 30t-28.5 27
t-35.5 19.5t-44.5 7.5q-42 0 -65.5 -24t-36.5 -59q-11 -30 -17 -62t-11 -70h-42z" />
    <glyph glyph-name="uni00A0" unicode="&#xa0;" horiz-adv-x="259" 
 />
    <glyph glyph-name="exclamdown" unicode="&#xa1;" horiz-adv-x="263" 
d="M101 322h40q0 -11 0.5 -49.5t0.5 -93v-120v-131.5v-120h-42v120v131.5v120t0.5 93t0.5 49.5zM92 562h58v-125h-58v125z" />
    <glyph glyph-name="cent" unicode="&#xa2;" horiz-adv-x="517" 
d="M102 413q17 52 56 83.5t114 36.5v105h40v-106q35 -2 73 -11.5t64 -17.5v-41q-37 11 -77.5 21.5t-77.5 10.5q-25 0 -47 -2.5t-41 -10.5t-34.5 -24.5t-26.5 -43.5q-11 -28 -13.5 -67.5t-2.5 -84.5t5.5 -88t22.5 -71q24 -41 60 -52.5t77 -11.5q37 0 77 8t78 18v-40
q-27 -7 -65 -15t-72 -10v-112h-40v112q-54 4 -89 23.5t-56 51.5q-25 38 -32 89.5t-7 95.5q0 40 1.5 81t12.5 73z" />
    <glyph glyph-name="sterling" unicode="&#xa3;" horiz-adv-x="616" 
d="M120 572q0 42 5.5 81.5t28.5 65.5q27 32 62 42t89 10q40 0 97 -10t110 -21v-41q-49 11 -106 21.5t-101 10.5q-47 0 -73.5 -8.5t-44.5 -28.5q-18 -21 -22 -52.5t-4 -67.5v-114h231v-40h-231v-380h388v-40h-429v572z" />
    <glyph glyph-name="currency" unicode="&#xa4;" horiz-adv-x="723" 
d="M98 651h54l87 -103q22 14 55.5 22.5t69.5 8.5q32 0 65.5 -9t53.5 -23l88 104h54l-113 -133q20 -23 31.5 -59t11.5 -80q0 -45 -10.5 -82.5t-30.5 -62.5l111 -131h-54l-88 104q-21 -15 -52.5 -23t-66.5 -8q-36 0 -69 7.5t-56 21.5l-87 -102h-54l111 130q-19 23 -28 60.5
t-9 82.5q0 96 38 142zM253 246q35 -30 110 -30q39 0 68 11t46 28q17 18 27 47.5t10 77.5q0 46 -12.5 76.5t-30.5 47.5q-17 16 -45 25.5t-64 9.5q-32 0 -60.5 -8t-44.5 -21q-44 -36 -44 -133q0 -50 9 -81t31 -50z" />
    <glyph glyph-name="yen" unicode="&#xa5;" horiz-adv-x="640" 
d="M18 754h49l252 -418l254 418h49l-178 -294h148v-40h-173l-79 -131v-289h-41v288l-80 132h-172v40h148z" />
    <glyph glyph-name="brokenbar" unicode="&#xa6;" horiz-adv-x="250" 
d="M105 336v418h40v-418h-40zM145 226v-418h-40v418h40z" />
    <glyph glyph-name="section" unicode="&#xa7;" horiz-adv-x="637" 
d="M129 468q14 19 25.5 33t22.5 25q-14 11 -21.5 19.5t-13.5 19.5q-8 15 -11.5 34.5t-3.5 40.5q0 26 11.5 53.5t37.5 44.5q32 20 68 26.5t81 6.5q17 0 43.5 -3t54 -7t53.5 -8.5t43 -7.5v-42q-16 3 -41 8t-52 9.5t-54 7.5t-47 3q-43 0 -72 -5t-49 -19q-19 -13 -27 -30.5
t-8 -36.5q0 -26 5 -41t16 -26q13 -14 33.5 -26.5t52.5 -29.5l125 -66q35 -19 59 -32.5t42 -29.5q36 -31 36 -85q0 -19 -6 -40t-23 -44q-14 -18 -27.5 -33t-24.5 -26q14 -10 24.5 -20.5t18.5 -24.5q16 -29 16 -76q0 -27 -14.5 -57t-40.5 -50q-28 -20 -66 -29t-93 -9
q-22 0 -49 3t-53.5 6.5t-49.5 7.5t-37 7v41q21 -4 46.5 -8.5t51 -8t49 -6t41.5 -2.5q48 0 78 6.5t53 21.5q21 14 31.5 34.5t10.5 42.5q0 18 -3 34t-12 28q-10 13 -29.5 25t-48.5 28l-138 74q-36 20 -63.5 36t-46.5 33q-16 14 -25 34t-9 50q0 14 5.5 37t24.5 49zM141 382
q0 -39 27 -60q26 -21 82 -50l170 -91q14 14 24.5 25t23.5 27q17 21 22.5 38.5t5.5 31.5q0 16 -5 30.5t-22 28.5t-36 25t-40 22l-181 96q-7 -7 -21 -22.5t-29 -37.5q-13 -19 -17 -34t-4 -29z" />
    <glyph glyph-name="dieresis" unicode="&#xa8;" horiz-adv-x="375" 
d="M247 754h43v-126h-43v126zM128 754v-126h-43v126h43z" />
    <glyph glyph-name="copyright" unicode="&#xa9;" horiz-adv-x="943" 
d="M85 377q0 88 27.5 160.5t78.5 124.5t122.5 80.5t158.5 28.5t158.5 -28.5t122 -80.5t78 -124.5t27.5 -160.5t-27.5 -160.5t-78 -124.5t-122 -80.5t-158.5 -28.5t-158.5 28.5t-122.5 80.5t-78.5 124.5t-27.5 160.5zM472 23q80 0 144 26t108.5 73t68.5 112t24 143t-24 143
t-68.5 112t-108.5 73t-144 26t-144 -26t-109 -73t-69 -112t-24 -143t24 -143t69 -112t109 -73t144 -26zM319 538q23 32 56.5 49.5t97.5 17.5q23 0 43 -2.5t37 -5.5t36 -7t35 -9v-41q-17 5 -38 9.5t-44 8.5q-18 3 -33.5 5t-35.5 2q-47 0 -75 -12.5t-48 -44.5q-16 -26 -21 -59
t-5 -71q0 -34 4.5 -63.5t15.5 -52.5q15 -33 44.5 -50.5t84.5 -17.5q39 0 75 5t76 13v-41q-39 -7 -75.5 -12t-75.5 -5q-71 0 -107 22.5t-58 63.5q-13 24 -19 62.5t-6 75.5q0 45 8 88t28 72z" />
    <glyph glyph-name="ordfeminine" unicode="&#xaa;" horiz-adv-x="460" 
d="M60 568q0 42 5.5 77.5t25.5 64.5q24 36 60 48.5t81 12.5q32 0 72 -11t82 -26v-368h-39v73l-47 -38q-25 -20 -53 -33t-57 -13q-48 0 -70 17t-36 43q-14 27 -19 63t-5 90zM118 439q11 -24 26.5 -34.5t45.5 -10.5q23 0 44.5 10.5t42.5 27.5q33 26 70 58v216
q-27 9 -57.5 17.5t-59.5 8.5q-42 0 -66 -10t-41 -37q-14 -23 -18 -53t-4 -64q0 -43 3.5 -74.5t13.5 -54.5z" />
    <glyph glyph-name="guillemotleft" unicode="&#xab;" horiz-adv-x="486" 
d="M407 470h55l-167 -206l167 -206h-55l-167 206zM69 264l168 206h55l-168 -206l168 -206h-55z" />
    <glyph glyph-name="logicalnot" unicode="&#xac;" horiz-adv-x="700" 
d="M570 235v253h-481v40h522v-293h-41z" />
    <glyph glyph-name="registered" unicode="&#xae;" horiz-adv-x="943" 
d="M85 377q0 88 27.5 160.5t78.5 124.5t122.5 80.5t158.5 28.5t158.5 -28.5t122 -80.5t78 -124.5t27.5 -160.5t-27.5 -160.5t-78 -124.5t-122 -80.5t-158.5 -28.5t-158.5 28.5t-122.5 80.5t-78.5 124.5t-27.5 160.5zM126 377q0 -78 24 -143t69 -112t109 -73t144 -26t144 26
t108.5 73t68.5 112t24 143t-24 143t-68.5 112t-108.5 73t-144 26t-144 -26t-109 -73t-69 -112t-24 -143zM325 164v431h165q37 0 63 -4t47 -18q41 -28 41 -83q0 -29 -9 -50t-25 -41q-11 -14 -24.5 -28.5t-24.5 -25.5l103 -181h-48l-99 174h-148v-174h-41zM366 555v-177h169
q8 9 15 17t18 21q15 17 23 35t8 38q0 39 -29 55q-15 8 -34 9.5t-43 1.5h-127z" />
    <glyph glyph-name="macron" unicode="&#xaf;" horiz-adv-x="375" 
d="M54 650v40h267v-40h-267z" />
    <glyph glyph-name="degree" unicode="&#xb0;" horiz-adv-x="459" 
d="M65 608q0 77 44 120t119 43q76 0 121 -43t45 -120t-45 -121t-121 -44q-75 0 -119 44t-44 121zM106 608q0 -59 32 -92t92 -33q59 0 91 33t32 92q0 60 -32 91.5t-91 31.5q-60 0 -92 -31.5t-32 -91.5z" />
    <glyph glyph-name="plusminus" unicode="&#xb1;" horiz-adv-x="700" 
d="M329 397v245h41v-245h241v-40h-241v-260h-41v260h-240v40h240zM89 40h522v-40h-522v40z" />
    <glyph glyph-name="twosuperior" unicode="&#xb2;" horiz-adv-x="379" 
d="M40 497q20 20 46 45.5t53 52.5t52 53t42 45q23 26 30 44.5t7 36.5q0 14 -3 25.5t-12 20.5q-9 10 -25 15.5t-35 5.5q-21 0 -42 -2.5t-40.5 -6t-34.5 -7.5t-24 -6v40q18 5 58 13t79 8q62 0 94 -33q25 -26 25 -74q0 -32 -11 -56.5t-39 -54.5q-24 -26 -49 -52t-48.5 -48.5
t-43 -41t-32.5 -30.5h245v-40h-292v47z" />
    <glyph glyph-name="threesuperior" unicode="&#xb3;" horiz-adv-x="410" 
d="M57 454v40q25 -5 61.5 -10.5t65.5 -5.5t47 5t29 13q14 9 22.5 26t8.5 39q0 24 -8.5 40.5t-29.5 28.5q-11 6 -28 8.5t-35 2.5h-92v39h143l18 24q12 17 20 33t8 36q0 34 -20 49q-11 8 -27.5 13.5t-44.5 5.5q-19 0 -39 -2.5t-38.5 -6t-33.5 -7t-24 -5.5v40q10 2 25.5 5.5
t34 6.5t38 5.5t37.5 2.5q67 0 101 -30q14 -11 23 -31t9 -45q0 -20 -7 -36.5t-18 -33.5q-7 -10 -15.5 -22t-13.5 -18q30 -18 44 -40.5t14 -59.5q0 -54 -34 -88q-37 -37 -114 -37q-32 0 -69 5.5t-58 9.5z" />
    <glyph glyph-name="acute" unicode="&#xb4;" horiz-adv-x="375" 
d="M108 622l114 132h57l-115 -132h-56z" />
    <glyph glyph-name="uni00B5" unicode="&#xb5;" horiz-adv-x="559" 
d="M88 528h40v-190q0 -42 1 -87t6 -93q3 -26 12 -50.5t25 -43.5t39.5 -30.5t55.5 -11.5q50 0 91.5 10.5t73.5 21.5v474h40v-504q-31 -10 -56.5 -17.5t-49.5 -13t-47.5 -8t-51.5 -2.5q-48 0 -84.5 19t-54.5 58v-252h-40v720z" />
    <glyph glyph-name="paragraph" unicode="&#xb6;" horiz-adv-x="642" 
d="M114 697q31 35 73 46t105 11h236v-946h-41v906h-101v-906h-41v467q-49 0 -84 3t-61.5 9.5t-45 17t-34.5 26.5q-33 33 -46 81t-13 103q0 54 12 102t41 80z" />
    <glyph glyph-name="periodcentered" unicode="&#xb7;" horiz-adv-x="239" 
d="M90 201v125h59v-125h-59z" />
    <glyph glyph-name="cedilla" unicode="&#xb8;" horiz-adv-x="375" 
d="M120 -191l80 131h53l-81 -131h-52z" />
    <glyph glyph-name="onesuperior" unicode="&#xb9;" horiz-adv-x="270" 
d="M146 450v377l-117 -37v42l157 50v-432h-40z" />
    <glyph glyph-name="ordmasculine" unicode="&#xba;" horiz-adv-x="454" 
d="M76 682q16 40 50.5 64.5t101.5 24.5q47 0 76.5 -12.5t50.5 -39.5q25 -32 32.5 -73t7.5 -83t-8 -79.5t-23 -61.5q-20 -31 -52 -49t-84 -18t-84.5 14.5t-52.5 45.5q-16 25 -24 65.5t-8 78.5q0 33 3.5 66.5t13.5 56.5zM100 560q0 -35 5.5 -67.5t17.5 -52.5q15 -26 41.5 -36
t63.5 -10t61 12t38 34q14 21 20.5 53t6.5 70q0 33 -4 62.5t-17 54.5q-14 29 -39.5 40.5t-65.5 11.5q-42 0 -68.5 -12t-41.5 -43q-10 -20 -14 -52.5t-4 -64.5z" />
    <glyph glyph-name="guillemotright" unicode="&#xbb;" horiz-adv-x="486" 
d="M249 470l168 -206l-168 -206h-55l168 206l-168 206h55zM24 470h55l167 -206l-167 -206h-55l167 206z" />
    <glyph glyph-name="onequarter" unicode="&#xbc;" horiz-adv-x="795" 
d="M645 419h51l-208 -281h185v97h40v-235h-40v98h-235v42zM143 0l356 754h44l-356 -754h-44zM146 335v377l-117 -37v42l157 50v-432h-40z" />
    <glyph glyph-name="onehalf" unicode="&#xbd;" horiz-adv-x="786" 
d="M447 47q20 20 46 45.5t53 52.5t52 53t42 45q23 26 30 44.5t7 36.5q0 14 -3 25.5t-12 20.5q-9 10 -25 15.5t-35 5.5q-21 0 -42 -2.5t-40.5 -6t-34.5 -7.5t-24 -6v40q18 5 58 13t79 8q62 0 94 -33q25 -26 25 -74q0 -32 -11 -56.5t-39 -54.5q-24 -26 -49 -52t-48.5 -48.5
t-43 -41t-32.5 -30.5h245v-40h-292v47zM143 0l356 754h44l-356 -754h-44zM146 335v377l-117 -37v42l157 50v-432h-40z" />
    <glyph glyph-name="threequarters" unicode="&#xbe;" horiz-adv-x="934" 
d="M785 419h51l-208 -281h185v97h40v-235h-40v98h-235v42zM283 0l356 754h44l-356 -754h-44zM57 339v40q25 -5 61.5 -10.5t65.5 -5.5t47 5t29 13q14 9 22.5 26t8.5 39q0 24 -8.5 40.5t-29.5 28.5q-11 6 -28 8.5t-35 2.5h-92v39h143l18 24q12 17 20 33t8 36q0 34 -20 49
q-11 8 -27.5 13.5t-44.5 5.5q-19 0 -39 -2.5t-38.5 -6t-33.5 -7t-24 -5.5v40q10 2 25.5 5.5t34 6.5t38 5.5t37.5 2.5q67 0 101 -30q14 -11 23 -31t9 -45q0 -20 -7 -36.5t-18 -33.5q-7 -10 -15.5 -22t-13.5 -18q30 -18 44 -40.5t14 -59.5q0 -54 -34 -88q-37 -37 -114 -37
q-32 0 -69 5.5t-58 9.5z" />
    <glyph glyph-name="questiondown" unicode="&#xbf;" horiz-adv-x="495" 
d="M71 -43q0 45 13 81t34 65q18 26 36.5 48t51.5 58q21 23 35 40.5t23 30.5t13.5 23t7.5 19h46q-7 -17 -13.5 -31.5t-16 -29.5t-23.5 -32.5t-35 -40.5q-30 -32 -50 -54.5t-37 -48.5q-23 -33 -33 -61.5t-10 -66.5q0 -26 6 -50.5t29 -45.5q33 -30 102 -30q36 0 82.5 10.5
t86.5 21.5v-41q-37 -11 -84 -21t-82 -10q-87 0 -133 40q-26 23 -37.5 55t-11.5 71zM280 562h58v-125h-58v125z" />
    <glyph glyph-name="Agrave" unicode="&#xc0;" horiz-adv-x="673" 
d="M21 0l288 754h53l290 -754h-45l-83 215h-377l-82 -215h-44zM162 255h347l-174 455zM308 818l-111 132h56l110 -132h-55z" />
    <glyph glyph-name="Aacute" unicode="&#xc1;" horiz-adv-x="673" 
d="M21 0l288 754h53l290 -754h-45l-83 215h-377l-82 -215h-44zM162 255h347l-174 455zM306 818l114 132h57l-115 -132h-56z" />
    <glyph glyph-name="Acircumflex" unicode="&#xc2;" horiz-adv-x="673" 
d="M21 0l288 754h53l290 -754h-45l-83 215h-377l-82 -215h-44zM162 255h347l-174 455zM313 950h46l120 -132h-56l-87 94l-88 -94h-56z" />
    <glyph glyph-name="Atilde" unicode="&#xc3;" horiz-adv-x="673" 
d="M21 0l288 754h53l290 -754h-45l-83 215h-377l-82 -215h-44zM162 255h347l-174 455zM167 822q23 61 45 83t57 22q19 0 35.5 -7t41.5 -28q20 -17 33.5 -26t30.5 -9q26 0 37.5 17t22.5 46h44q-9 -22 -18 -41t-20.5 -32.5t-27.5 -21t-39 -7.5q-20 0 -35.5 5.5t-34.5 22.5
q-23 21 -38.5 31.5t-31.5 10.5q-25 0 -37 -20.5t-22 -45.5h-43z" />
    <glyph glyph-name="Adieresis" unicode="&#xc4;" horiz-adv-x="673" 
d="M309 754h53l290 -754h-45l-83 215h-377l-82 -215h-44zM162 255h347l-174 455zM399 950h44v-126h-44v126zM230 950h44v-126h-44v126z" />
    <glyph glyph-name="Aring" unicode="&#xc5;" horiz-adv-x="673" 
d="M296 720q-14 5 -25 12.5t-19 17.5q-22 26 -22 65q0 46 25 72q13 14 32.5 23t48.5 9t48.5 -9t32.5 -23q25 -26 25 -72q0 -39 -22 -65q-18 -22 -45 -30l277 -720h-45l-83 215h-377l-82 -215h-44zM162 255h347l-174 455zM282 772q8 -9 21 -15t33 -6t33 6t21 15q7 8 10.5 20
t3.5 23t-2.5 23t-11.5 23q-18 21 -54 21t-54 -21q-9 -11 -11.5 -23t-2.5 -23t3.5 -23t10.5 -20z" />
    <glyph glyph-name="AE" unicode="&#xc6;" horiz-adv-x="1068" 
d="M2 0l503 754h506v-40h-443v-308h421v-40h-421v-326h459v-40h-500v215h-332l-144 -215h-49zM222 255h305v460z" />
    <glyph glyph-name="Ccedilla" unicode="&#xc7;" horiz-adv-x="658" 
d="M95 375q0 81 11 158.5t40 128.5q17 29 37 49.5t46 34t61 19.5t82 6q38 0 68.5 -4.5t56.5 -9.5q27 -5 57 -13t44 -12v-41q-59 16 -118 28q-26 5 -52.5 8.5t-55.5 3.5q-76 0 -121 -21.5t-74 -79.5q-10 -21 -18 -50t-12.5 -62.5t-7 -70.5t-2.5 -73q0 -72 8 -132.5t22 -97.5
q23 -61 70.5 -91t128.5 -30q58 0 115 9.5t117 23.5v-42q-60 -13 -114 -22t-112 -9q-101 0 -157 34t-87 111q-8 21 -14.5 49t-10.5 60.5t-6 68t-2 69.5zM271 -191l80 131h53l-81 -131h-52z" />
    <glyph glyph-name="Egrave" unicode="&#xc8;" horiz-adv-x="651" 
d="M594 754v-40h-443v-308h421v-40h-421v-326h459v-40h-500v754h484zM348 818l-111 132h56l110 -132h-55z" />
    <glyph glyph-name="Eacute" unicode="&#xc9;" horiz-adv-x="651" 
d="M594 754v-40h-443v-308h421v-40h-421v-326h459v-40h-500v754h484zM290 818l114 132h57l-115 -132h-56z" />
    <glyph glyph-name="Ecircumflex" unicode="&#xca;" horiz-adv-x="651" 
d="M594 754v-40h-443v-308h421v-40h-421v-326h459v-40h-500v754h484zM331 950h46l120 -132h-56l-87 94l-88 -94h-56z" />
    <glyph glyph-name="Edieresis" unicode="&#xcb;" horiz-adv-x="651" 
d="M594 754v-40h-443v-308h421v-40h-421v-326h459v-40h-500v754h484zM424 824v126h44v-126h-44zM238 950h44v-126h-44v126z" />
    <glyph glyph-name="Igrave" unicode="&#xcc;" horiz-adv-x="261" 
d="M110 0v754h41v-754h-41zM110 818l-111 132h56l110 -132h-55z" />
    <glyph glyph-name="Iacute" unicode="&#xcd;" horiz-adv-x="261" 
d="M110 0v754h41v-754h-41zM99 818l114 132h57l-115 -132h-56z" />
    <glyph glyph-name="Icircumflex" unicode="&#xce;" horiz-adv-x="261" 
d="M110 0v754h41v-754h-41zM106 950h46l120 -132h-56l-87 94l-88 -94h-56z" />
    <glyph glyph-name="Idieresis" unicode="&#xcf;" horiz-adv-x="261" 
d="M110 754h41v-754h-41v754zM206 950v-126h-44v126h44zM99 950v-126h-44v126h44z" />
    <glyph glyph-name="Eth" unicode="&#xd0;" horiz-adv-x="759" 
d="M46 371v40h71v343h251q77 0 122 -12.5t82 -47.5q24 -22 41.5 -56t29 -75.5t16.5 -88.5t5 -94t-5 -92t-15.5 -85t-27 -73.5t-39.5 -57.5q-39 -40 -90.5 -56t-126.5 -16h-243v371h-71zM387 411v-40h-229v-331h201q74 0 116.5 16.5t73.5 47.5q34 35 53.5 107.5t19.5 168.5
q0 88 -18 162.5t-54 114.5q-32 35 -76 46t-106 11h-210v-303h229z" />
    <glyph glyph-name="Ntilde" unicode="&#xd1;" horiz-adv-x="756" 
d="M172 754l433 -709v709h41v-754h-62l-433 709v-709h-41v754h62zM211 822q23 61 45 83t57 22q19 0 35.5 -7t41.5 -28q20 -17 33.5 -26t30.5 -9q26 0 37.5 17t22.5 46h44q-9 -22 -18 -41t-20.5 -32.5t-27.5 -21t-39 -7.5q-20 0 -35.5 5.5t-34.5 22.5q-23 21 -38.5 31.5
t-31.5 10.5q-25 0 -37 -20.5t-22 -45.5h-43z" />
    <glyph glyph-name="Ograve" unicode="&#xd2;" horiz-adv-x="801" 
d="M136 640q34 63 98.5 97t165.5 34q88 0 146 -24t96 -78q18 -25 30 -60t19.5 -74t11 -80t3.5 -77q0 -28 -2.5 -65.5t-9 -76.5t-18 -76t-29.5 -65q-42 -63 -104 -87.5t-143 -24.5q-99 0 -161 27t-94 82q-15 26 -25 60.5t-15.5 73t-7.5 77.5t-2 75q0 31 2 67.5t6.5 72
t12.5 67.5t20 55zM178 119q35 -60 93 -78t129 -18q64 0 113 15.5t87 62.5q18 22 30.5 54t20 69.5t10.5 77t3 76.5q0 34 -2.5 70t-8.5 70.5t-16 65.5t-24 53q-33 53 -87 73.5t-126 20.5q-74 0 -134.5 -24.5t-92.5 -86.5q-10 -21 -17 -50t-11.5 -61.5t-6 -66.5t-1.5 -64
q0 -29 2 -65t6.5 -72t12.5 -68t20 -54zM384 818l-111 132h56l110 -132h-55z" />
    <glyph glyph-name="Oacute" unicode="&#xd3;" horiz-adv-x="801" 
d="M136 640q34 63 98.5 97t165.5 34q88 0 146 -24t96 -78q18 -25 30 -60t19.5 -74t11 -80t3.5 -77q0 -28 -2.5 -65.5t-9 -76.5t-18 -76t-29.5 -65q-42 -63 -104 -87.5t-143 -24.5q-99 0 -161 27t-94 82q-15 26 -25 60.5t-15.5 73t-7.5 77.5t-2 75q0 31 2 67.5t6.5 72
t12.5 67.5t20 55zM178 119q35 -60 93 -78t129 -18q64 0 113 15.5t87 62.5q18 22 30.5 54t20 69.5t10.5 77t3 76.5q0 34 -2.5 70t-8.5 70.5t-16 65.5t-24 53q-33 53 -87 73.5t-126 20.5q-74 0 -134.5 -24.5t-92.5 -86.5q-10 -21 -17 -50t-11.5 -61.5t-6 -66.5t-1.5 -64
q0 -29 2 -65t6.5 -72t12.5 -68t20 -54zM344 818l114 132h57l-115 -132h-56z" />
    <glyph glyph-name="Ocircumflex" unicode="&#xd4;" horiz-adv-x="801" 
d="M136 640q34 63 98.5 97t165.5 34q88 0 146 -24t96 -78q18 -25 30 -60t19.5 -74t11 -80t3.5 -77q0 -28 -2.5 -65.5t-9 -76.5t-18 -76t-29.5 -65q-42 -63 -104 -87.5t-143 -24.5q-99 0 -161 27t-94 82q-15 26 -25 60.5t-15.5 73t-7.5 77.5t-2 75q0 31 2 67.5t6.5 72
t12.5 67.5t20 55zM178 119q35 -60 93 -78t129 -18q64 0 113 15.5t87 62.5q18 22 30.5 54t20 69.5t10.5 77t3 76.5q0 34 -2.5 70t-8.5 70.5t-16 65.5t-24 53q-33 53 -87 73.5t-126 20.5q-74 0 -134.5 -24.5t-92.5 -86.5q-10 -21 -17 -50t-11.5 -61.5t-6 -66.5t-1.5 -64
q0 -29 2 -65t6.5 -72t12.5 -68t20 -54zM378 950h46l120 -132h-56l-87 94l-88 -94h-56z" />
    <glyph glyph-name="Otilde" unicode="&#xd5;" horiz-adv-x="801" 
d="M136 640q34 63 98.5 97t165.5 34q88 0 146 -24t96 -78q18 -25 30 -60t19.5 -74t11 -80t3.5 -77q0 -28 -2.5 -65.5t-9 -76.5t-18 -76t-29.5 -65q-42 -63 -104 -87.5t-143 -24.5q-99 0 -161 27t-94 82q-15 26 -25 60.5t-15.5 73t-7.5 77.5t-2 75q0 31 2 67.5t6.5 72
t12.5 67.5t20 55zM178 119q35 -60 93 -78t129 -18q64 0 113 15.5t87 62.5q18 22 30.5 54t20 69.5t10.5 77t3 76.5q0 34 -2.5 70t-8.5 70.5t-16 65.5t-24 53q-33 53 -87 73.5t-126 20.5q-74 0 -134.5 -24.5t-92.5 -86.5q-10 -21 -17 -50t-11.5 -61.5t-6 -66.5t-1.5 -64
q0 -29 2 -65t6.5 -72t12.5 -68t20 -54zM228 822q23 61 45 83t57 22q19 0 35.5 -7t41.5 -28q20 -17 33.5 -26t30.5 -9q26 0 37.5 17t22.5 46h44q-9 -22 -18 -41t-20.5 -32.5t-27.5 -21t-39 -7.5q-20 0 -35.5 5.5t-34.5 22.5q-23 21 -38.5 31.5t-31.5 10.5q-25 0 -37 -20.5
t-22 -45.5h-43z" />
    <glyph glyph-name="Odieresis" unicode="&#xd6;" horiz-adv-x="801" 
d="M136 640q34 63 98.5 97t165.5 34q88 0 146 -24t96 -78q18 -25 30 -60t19.5 -74t11 -80t3.5 -77q0 -28 -2.5 -65.5t-9 -76.5t-18 -76t-29.5 -65q-42 -63 -104 -87.5t-143 -24.5q-99 0 -161 27t-94 82q-15 26 -25 60.5t-15.5 73t-7.5 77.5t-2 75q0 31 2 67.5t6.5 72
t12.5 67.5t20 55zM178 119q35 -60 93 -78t129 -18q64 0 113 15.5t87 62.5q18 22 30.5 54t20 69.5t10.5 77t3 76.5q0 34 -2.5 70t-8.5 70.5t-16 65.5t-24 53q-33 53 -87 73.5t-126 20.5q-74 0 -134.5 -24.5t-92.5 -86.5q-10 -21 -17 -50t-11.5 -61.5t-6 -66.5t-1.5 -64
q0 -29 2 -65t6.5 -72t12.5 -68t20 -54zM519 950v-126h-44v126h44zM281 824v126h44v-126h-44z" />
    <glyph glyph-name="multiply" unicode="&#xd7;" horiz-adv-x="700" 
d="M127 140l198 238l-198 236h53l170 -204l170 204h53l-197 -235l197 -239h-53l-169 207l-171 -207h-53z" />
    <glyph glyph-name="Oslash" unicode="&#xd8;" horiz-adv-x="801" 
d="M136 640q34 63 98.5 97t165.5 34q88 0 146 -24t96 -78q18 -25 30 -60t19.5 -74t11 -80t3.5 -77q0 -28 -2.5 -65.5t-9 -76.5t-18 -76t-29.5 -65q-42 -63 -104 -87.5t-143 -24.5q-99 0 -161 27t-94 82q-15 26 -25 60.5t-15.5 73t-7.5 77.5t-2 75q0 31 2 67.5t6.5 72
t12.5 67.5t20 55zM400 23q64 0 113 15.5t87 62.5q18 22 30.5 54t20 69.5t10.5 77t3 76.5q0 31 -2.5 69.5t-10 77.5t-20.5 74.5t-34 59.5l-371 -594q35 -26 79 -34t95 -8zM196 93l371 594q-32 25 -73.5 34.5t-93.5 9.5q-74 0 -134.5 -24.5t-92.5 -86.5q-10 -21 -17 -50
t-11.5 -61.5t-6 -66.5t-1.5 -64t1.5 -69.5t7.5 -79.5t18 -76t32 -60z" />
    <glyph glyph-name="Ugrave" unicode="&#xd9;" horiz-adv-x="739" 
d="M147 754v-473q0 -82 10 -132.5t47 -82.5q29 -26 70 -34.5t97 -8.5t96 8.5t70 34.5q37 32 46 83t9 132v473h41v-474q0 -91 -12 -150.5t-60 -97.5q-34 -27 -79.5 -38t-110.5 -11t-111 11t-81 39q-44 35 -58.5 94t-14.5 153v474h41zM369 818l-111 132h56l110 -132h-55z" />
    <glyph glyph-name="Uacute" unicode="&#xda;" horiz-adv-x="739" 
d="M147 754v-473q0 -82 10 -132.5t47 -82.5q29 -26 70 -34.5t97 -8.5t96 8.5t70 34.5q37 32 46 83t9 132v473h41v-474q0 -91 -12 -150.5t-60 -97.5q-34 -27 -79.5 -38t-110.5 -11t-111 11t-81 39q-44 35 -58.5 94t-14.5 153v474h41zM306 818l114 132h57l-115 -132h-56z" />
    <glyph glyph-name="Ucircumflex" unicode="&#xdb;" horiz-adv-x="739" 
d="M147 754v-473q0 -82 10 -132.5t47 -82.5q29 -26 70 -34.5t97 -8.5t96 8.5t70 34.5q37 32 46 83t9 132v473h41v-474q0 -91 -12 -150.5t-60 -97.5q-34 -27 -79.5 -38t-110.5 -11t-111 11t-81 39q-44 35 -58.5 94t-14.5 153v474h41zM349 950h46l120 -132h-56l-87 94l-88 -94
h-56z" />
    <glyph glyph-name="Udieresis" unicode="&#xdc;" horiz-adv-x="739" 
d="M147 754v-473q0 -82 10 -132.5t47 -82.5q29 -26 70 -34.5t97 -8.5t96 8.5t70 34.5q37 32 46 83t9 132v473h41v-474q0 -91 -12 -150.5t-60 -97.5q-34 -27 -79.5 -38t-110.5 -11t-111 11t-81 39q-44 35 -58.5 94t-14.5 153v474h41zM437 824v126h44v-126h-44zM302 950v-126
h-44v126h44z" />
    <glyph glyph-name="Yacute" unicode="&#xdd;" horiz-adv-x="592" 
d="M43 754l253 -417l253 417h49l-281 -464v-290h-42v290l-281 464h49zM233 818l114 132h57l-115 -132h-56z" />
    <glyph glyph-name="Thorn" unicode="&#xde;" horiz-adv-x="653" 
d="M110 0v754h41v-143h222q69 0 108 -14t65 -44q23 -26 34 -64t11 -79q0 -46 -8.5 -85t-31.5 -71t-55 -48t-83 -22q-16 -2 -44 -3t-62.5 -1.5t-74.5 -0.5h-81v-179h-41zM151 219h75t71 1t62.5 2t49.5 3q41 4 67.5 16.5t44.5 43.5q15 26 21.5 56.5t6.5 68.5q0 35 -9.5 68.5
t-31.5 55.5q-23 23 -56 30t-78 7h-223v-352z" />
    <glyph glyph-name="germandbls" unicode="&#xdf;" 
d="M88 511q0 25 0.5 53t5.5 59q4 21 11.5 42t24.5 39q26 29 65.5 44.5t73.5 15.5q74 0 114 -31q49 -39 49 -115q0 -38 -15 -68.5t-39 -58.5q-21 -24 -37.5 -42t-33.5 -35l116 -102q18 -16 36 -35t30 -38q14 -21 21 -43.5t7 -51.5q0 -72 -60 -116q-25 -18 -61 -27.5t-78 -9.5
q-26 0 -53 2.5t-53 6.5v40q29 -5 56.5 -7.5t53.5 -2.5q32 0 61.5 8t49.5 22q20 15 31.5 35.5t11.5 48.5q0 20 -2.5 33.5t-10.5 27.5q-7 13 -23 33t-40 41l-151 133q14 14 41 41.5t51 56.5q31 36 40.5 59t9.5 48t-6 45t-25 37q-16 14 -39 20t-52 6q-32 0 -65.5 -16t-51.5 -42
q-13 -19 -16 -36t-5 -34q-2 -26 -2.5 -47t-0.5 -38v-512h-40v511z" />
    <glyph glyph-name="agrave" unicode="&#xe0;" 
d="M108 463q33 51 77 66.5t100 15.5q44 0 93 -16t104 -37v-492h-40v97q-16 -14 -31 -27t-34 -28q-35 -28 -66.5 -43.5t-72.5 -15.5q-61 0 -91 23.5t-49 60.5q-16 32 -23.5 87t-7.5 115q0 57 9 108t32 86zM132 91q17 -35 40.5 -52t65.5 -17q49 0 106 45q26 20 52 41.5
t46 40.5v316q-42 16 -81 28.5t-79 12.5q-51 0 -85.5 -15.5t-56.5 -53.5q-17 -29 -24.5 -75t-7.5 -93q0 -56 6 -104t18 -74zM290 622l-111 132h56l110 -132h-55z" />
    <glyph glyph-name="aacute" unicode="&#xe1;" 
d="M108 463q33 51 77 66.5t100 15.5q44 0 93 -16t104 -37v-492h-40v97q-16 -14 -31 -27t-34 -28q-35 -28 -66.5 -43.5t-72.5 -15.5q-61 0 -91 23.5t-49 60.5q-16 32 -23.5 87t-7.5 115q0 57 9 108t32 86zM132 91q17 -35 40.5 -52t65.5 -17q49 0 106 45q26 20 52 41.5
t46 40.5v316q-42 16 -81 28.5t-79 12.5q-51 0 -85.5 -15.5t-56.5 -53.5q-17 -29 -24.5 -75t-7.5 -93q0 -56 6 -104t18 -74zM232 622l114 132h57l-115 -132h-56z" />
    <glyph glyph-name="acircumflex" unicode="&#xe2;" 
d="M108 463q33 51 77 66.5t100 15.5q44 0 93 -16t104 -37v-492h-40v97q-16 -14 -31 -27t-34 -28q-35 -28 -66.5 -43.5t-72.5 -15.5q-61 0 -91 23.5t-49 60.5q-16 32 -23.5 87t-7.5 115q0 57 9 108t32 86zM132 91q17 -35 40.5 -52t65.5 -17q49 0 106 45q26 20 52 41.5
t46 40.5v316q-42 16 -81 28.5t-79 12.5q-51 0 -85.5 -15.5t-56.5 -53.5q-17 -29 -24.5 -75t-7.5 -93q0 -56 6 -104t18 -74zM270 754h46l120 -132h-56l-87 94l-88 -94h-56z" />
    <glyph glyph-name="atilde" unicode="&#xe3;" 
d="M108 463q33 51 77 66.5t100 15.5q44 0 93 -16t104 -37v-492h-40v97q-16 -14 -31 -27t-34 -28q-35 -28 -66.5 -43.5t-72.5 -15.5q-61 0 -91 23.5t-49 60.5q-16 32 -23.5 87t-7.5 115q0 57 9 108t32 86zM132 91q17 -35 40.5 -52t65.5 -17q49 0 106 45q26 20 52 41.5
t46 40.5v316q-42 16 -81 28.5t-79 12.5q-51 0 -85.5 -15.5t-56.5 -53.5q-17 -29 -24.5 -75t-7.5 -93q0 -56 6 -104t18 -74zM121 629q23 61 45 83t57 22q19 0 35.5 -7t41.5 -28q20 -17 33.5 -26t30.5 -9q26 0 37.5 17t22.5 46h44q-9 -22 -18 -41t-20.5 -32.5t-27.5 -21
t-39 -7.5q-20 0 -35.5 5.5t-34.5 22.5q-23 21 -38.5 31.5t-31.5 10.5q-25 0 -37 -20.5t-22 -45.5h-43z" />
    <glyph glyph-name="adieresis" unicode="&#xe4;" 
d="M67 269q0 57 9 108t32 86q33 51 77 66.5t100 15.5q44 0 93 -16t104 -37v-492h-40v97q-16 -14 -31 -27t-34 -28q-35 -28 -66.5 -43.5t-72.5 -15.5q-61 0 -91 23.5t-49 60.5q-16 32 -23.5 87t-7.5 115zM108 269q0 -56 6 -104t18 -74q17 -35 40.5 -52t65.5 -17q49 0 106 45
q26 20 52 41.5t46 40.5v316q-42 16 -81 28.5t-79 12.5q-51 0 -85.5 -15.5t-56.5 -53.5q-17 -29 -24.5 -75t-7.5 -93zM352 754h43v-126h-43v126zM219 754v-126h-43v126h43z" />
    <glyph glyph-name="aring" unicode="&#xe5;" 
d="M108 463q33 51 77 66.5t100 15.5q44 0 93 -16t104 -37v-492h-40v97q-16 -14 -31 -27t-34 -28q-35 -28 -66.5 -43.5t-72.5 -15.5q-61 0 -91 23.5t-49 60.5q-16 32 -23.5 87t-7.5 115q0 57 9 108t32 86zM132 91q17 -35 40.5 -52t65.5 -17q49 0 106 45q26 20 52 41.5
t46 40.5v316q-42 16 -81 28.5t-79 12.5q-51 0 -85.5 -15.5t-56.5 -53.5q-17 -29 -24.5 -75t-7.5 -93q0 -56 6 -104t18 -74zM207 770q13 14 32.5 23t48.5 9t48.5 -9t32.5 -23q25 -26 25 -72q0 -39 -22 -65q-13 -15 -34 -25.5t-50 -10.5t-50 10.5t-34 25.5q-22 26 -22 65
q0 46 25 72zM220 698q0 -11 3.5 -23t10.5 -20q8 -9 21 -15t33 -6t33 6t21 15q7 8 10.5 20t3.5 23t-2.5 23t-11.5 23q-18 21 -54 21t-54 -21q-9 -11 -11.5 -23t-2.5 -23z" />
    <glyph glyph-name="ae" unicode="&#xe6;" horiz-adv-x="918" 
d="M65 133q0 39 15 73.5t45 51.5q32 17 71.5 21.5t106.5 4.5h131v78q0 32 -1.5 57.5t-11.5 42.5q-14 24 -44.5 34t-83.5 10q-21 0 -49.5 -3.5t-58 -9t-56 -11t-43.5 -9.5v40q18 4 45 9.5t55.5 10.5t56.5 8.5t48 3.5q72 0 114.5 -17.5t61.5 -69.5q19 37 62.5 62t121.5 25
q77 0 119 -27.5t62 -66.5q14 -26 18 -53.5t4 -52.5q0 -18 -2.5 -44.5t-7.5 -55.5h-371q0 -39 2.5 -78.5t18.5 -68.5q22 -41 61 -58.5t107 -17.5q43 0 89.5 8t75.5 14v-41q-14 -3 -35 -6.5t-44 -6.5t-45.5 -5t-40.5 -2q-35 0 -68 5.5t-61 18.5t-49.5 35t-33.5 55
q-24 -19 -41.5 -32t-40.5 -28q-35 -23 -72.5 -38.5t-71.5 -15.5q-41 0 -68 7t-49 27q-23 20 -32.5 49t-9.5 67zM473 284h335q5 28 5 60q0 23 -4 48t-15 45q-39 69 -143 69q-57 0 -96 -19t-59 -61q-14 -28 -18.5 -63t-4.5 -79zM138 45q26 -22 81 -22q31 0 64.5 14.5
t70.5 38.5q20 13 39.5 26.5t40.5 29.5v113h-138q-48 0 -86 -3.5t-65 -20.5q-23 -14 -31 -37t-8 -51q0 -32 7 -53t25 -35z" />
    <glyph glyph-name="ccedilla" unicode="&#xe7;" horiz-adv-x="480" 
d="M67 261q0 45 4.5 92.5t16.5 81.5q20 56 62.5 83t129.5 27q19 0 40 -3t41.5 -8t39 -10t32.5 -10v-40q-13 4 -32 9.5t-40 10.5t-42 8.5t-39 3.5q-63 0 -98 -16t-54 -64q-11 -28 -15.5 -73.5t-4.5 -91.5q0 -50 8 -98.5t25 -77.5q22 -38 56.5 -50.5t82.5 -12.5q34 0 77 9
t76 17v-40q-32 -8 -75 -16.5t-78 -8.5q-71 0 -110.5 19t-64.5 64q-22 40 -30 93.5t-8 101.5zM172 -191l80 131h53l-81 -131h-52z" />
    <glyph glyph-name="egrave" unicode="&#xe8;" horiz-adv-x="554" 
d="M67 263q0 51 5.5 97.5t26.5 88.5q20 40 63.5 68t124.5 28q77 0 119 -27.5t62 -66.5q14 -26 18 -53.5t4 -52.5q0 -18 -2.5 -44.5t-7.5 -55.5h-373q0 -39 5.5 -78t20.5 -68q21 -41 59 -59t106 -18q43 0 88.5 7.5t76.5 13.5v-40q-14 -3 -35 -6.5t-44 -6.5t-45.5 -5t-40.5 -2
q-85 0 -129 22.5t-68 66.5q-19 34 -26.5 78t-7.5 113zM107 284h337q5 28 5 61q0 23 -4 47.5t-15 44.5q-39 69 -143 69q-57 0 -96 -19t-59 -61q-14 -28 -19.5 -69t-5.5 -73zM287 622l-111 132h56l110 -132h-55z" />
    <glyph glyph-name="eacute" unicode="&#xe9;" horiz-adv-x="554" 
d="M67 263q0 51 5.5 97.5t26.5 88.5q20 40 63.5 68t124.5 28q77 0 119 -27.5t62 -66.5q14 -26 18 -53.5t4 -52.5q0 -18 -2.5 -44.5t-7.5 -55.5h-373q0 -39 5.5 -78t20.5 -68q21 -41 59 -59t106 -18q43 0 88.5 7.5t76.5 13.5v-40q-14 -3 -35 -6.5t-44 -6.5t-45.5 -5t-40.5 -2
q-85 0 -129 22.5t-68 66.5q-19 34 -26.5 78t-7.5 113zM107 284h337q5 28 5 61q0 23 -4 47.5t-15 44.5q-39 69 -143 69q-57 0 -96 -19t-59 -61q-14 -28 -19.5 -69t-5.5 -73zM229 622l114 132h57l-115 -132h-56z" />
    <glyph glyph-name="ecircumflex" unicode="&#xea;" horiz-adv-x="554" 
d="M67 263q0 51 5.5 97.5t26.5 88.5q20 40 63.5 68t124.5 28q77 0 119 -27.5t62 -66.5q14 -26 18 -53.5t4 -52.5q0 -18 -2.5 -44.5t-7.5 -55.5h-373q0 -39 5.5 -78t20.5 -68q21 -41 59 -59t106 -18q43 0 88.5 7.5t76.5 13.5v-40q-14 -3 -35 -6.5t-44 -6.5t-45.5 -5t-40.5 -2
q-85 0 -129 22.5t-68 66.5q-19 34 -26.5 78t-7.5 113zM107 284h337q5 28 5 61q0 23 -4 47.5t-15 44.5q-39 69 -143 69q-57 0 -96 -19t-59 -61q-14 -28 -19.5 -69t-5.5 -73zM263 754h46l120 -132h-56l-87 94l-88 -94h-56z" />
    <glyph glyph-name="edieresis" unicode="&#xeb;" horiz-adv-x="554" 
d="M67 263q0 51 5.5 97.5t26.5 88.5q20 40 63.5 68t124.5 28q77 0 119 -27.5t62 -66.5q14 -26 18 -53.5t4 -52.5q0 -18 -2.5 -44.5t-7.5 -55.5h-373q0 -39 5.5 -78t20.5 -68q21 -41 59 -59t106 -18q43 0 88.5 7.5t76.5 13.5v-40q-14 -3 -35 -6.5t-44 -6.5t-45.5 -5t-40.5 -2
q-85 0 -129 22.5t-68 66.5q-19 34 -26.5 78t-7.5 113zM107 284h337q5 28 5 61q0 23 -4 47.5t-15 44.5q-39 69 -143 69q-57 0 -96 -19t-59 -61q-14 -28 -19.5 -69t-5.5 -73zM342 628v126h43v-126h-43zM183 628v126h43v-126h-43z" />
    <glyph glyph-name="igrave" unicode="&#xec;" horiz-adv-x="216" 
d="M91 622l-111 132h56l110 -132h-55zM88 0v528h40v-528h-40z" />
    <glyph glyph-name="iacute" unicode="&#xed;" horiz-adv-x="216" 
d="M62 622l114 132h57l-115 -132h-56zM88 0v528h40v-528h-40z" />
    <glyph glyph-name="icircumflex" unicode="&#xee;" horiz-adv-x="216" 
d="M84 754h46l120 -132h-56l-87 94l-88 -94h-56zM88 0v528h40v-528h-40z" />
    <glyph glyph-name="idieresis" unicode="&#xef;" horiz-adv-x="216" 
d="M88 528h40v-528h-40v528zM78 754v-126h-43v126h43zM181 754v-126h-42v126h42z" />
    <glyph glyph-name="eth" unicode="&#xf0;" horiz-adv-x="577" 
d="M67 241q0 45 3.5 80t17.5 67q11 27 26 47.5t37.5 35t54 22t75.5 7.5q42 0 83 -13t74 -26q-3 15 -8 37.5t-14 47t-22.5 50.5t-32.5 49l-156 -80v43l126 65q-30 23 -65 37.5t-61 21.5v43q38 -12 82.5 -31t81.5 -51l113 59v-44l-85 -44q29 -35 48.5 -84t31.5 -105t17 -115.5
t5 -115.5q0 -107 -32 -164q-25 -45 -68 -71t-116 -26q-68 0 -108 18.5t-67 59.5q-22 32 -31.5 79t-9.5 101zM140 89q23 -40 57 -53.5t86 -13.5q104 0 142 66q17 30 25 68t8 92q0 49 -2.5 90t-10.5 78l-32.5 12.5t-42.5 14.5t-47.5 11.5t-47.5 4.5q-58 0 -90.5 -17.5
t-51.5 -55.5q-15 -30 -20 -63t-5 -80q0 -100 32 -154z" />
    <glyph glyph-name="ntilde" unicode="&#xf1;" horiz-adv-x="575" 
d="M88 0v528h40v-43q57 26 104 43t98 17q45 0 76.5 -10.5t52.5 -37.5t25.5 -65.5t4.5 -80.5v-351h-40v353q0 38 -4 68t-19 50t-39 27.5t-57 7.5q-48 0 -101 -21t-101 -43v-442h-40zM119 629q23 61 45 83t57 22q19 0 35.5 -7t41.5 -28q20 -17 33.5 -26t30.5 -9q26 0 37.5 17
t22.5 46h44q-9 -22 -18 -41t-20.5 -32.5t-27.5 -21t-39 -7.5q-20 0 -35.5 5.5t-34.5 22.5q-23 21 -38.5 31.5t-31.5 10.5q-25 0 -37 -20.5t-22 -45.5h-43z" />
    <glyph glyph-name="ograve" unicode="&#xf2;" 
d="M89 426q21 55 65.5 87t130.5 32q60 0 100 -15.5t69 -53.5q32 -43 40.5 -99t8.5 -111q0 -58 -9.5 -108t-23.5 -79q-23 -46 -67.5 -71t-117.5 -25q-68 0 -109 18t-67 60q-21 33 -31.5 88t-10.5 112q0 44 4.5 88.5t17.5 76.5zM140 89q23 -40 57.5 -53.5t87.5 -13.5
q52 0 87.5 15t55.5 50q17 30 25.5 78.5t8.5 101.5q0 48 -5 88.5t-22 74.5q-23 45 -59.5 60.5t-90.5 15.5q-60 0 -96.5 -19.5t-56.5 -63.5q-14 -29 -19 -73.5t-5 -87.5q0 -51 8 -98t24 -75zM283 622l-111 132h56l110 -132h-55z" />
    <glyph glyph-name="oacute" unicode="&#xf3;" 
d="M89 426q21 55 65.5 87t130.5 32q60 0 100 -15.5t69 -53.5q32 -43 40.5 -99t8.5 -111q0 -58 -9.5 -108t-23.5 -79q-23 -46 -67.5 -71t-117.5 -25q-68 0 -109 18t-67 60q-21 33 -31.5 88t-10.5 112q0 44 4.5 88.5t17.5 76.5zM140 89q23 -40 57.5 -53.5t87.5 -13.5
q52 0 87.5 15t55.5 50q17 30 25.5 78.5t8.5 101.5q0 48 -5 88.5t-22 74.5q-23 45 -59.5 60.5t-90.5 15.5q-60 0 -96.5 -19.5t-56.5 -63.5q-14 -29 -19 -73.5t-5 -87.5q0 -51 8 -98t24 -75zM217 622l114 132h57l-115 -132h-56z" />
    <glyph glyph-name="ocircumflex" unicode="&#xf4;" 
d="M89 426q21 55 65.5 87t130.5 32q60 0 100 -15.5t69 -53.5q32 -43 40.5 -99t8.5 -111q0 -58 -9.5 -108t-23.5 -79q-23 -46 -67.5 -71t-117.5 -25q-68 0 -109 18t-67 60q-21 33 -31.5 88t-10.5 112q0 44 4.5 88.5t17.5 76.5zM140 89q23 -40 57.5 -53.5t87.5 -13.5
q52 0 87.5 15t55.5 50q17 30 25.5 78.5t8.5 101.5q0 48 -5 88.5t-22 74.5q-23 45 -59.5 60.5t-90.5 15.5q-60 0 -96.5 -19.5t-56.5 -63.5q-14 -29 -19 -73.5t-5 -87.5q0 -51 8 -98t24 -75zM263 754h46l120 -132h-56l-87 94l-88 -94h-56z" />
    <glyph glyph-name="otilde" unicode="&#xf5;" 
d="M89 426q21 55 65.5 87t130.5 32q60 0 100 -15.5t69 -53.5q32 -43 40.5 -99t8.5 -111q0 -58 -9.5 -108t-23.5 -79q-23 -46 -67.5 -71t-117.5 -25q-68 0 -109 18t-67 60q-21 33 -31.5 88t-10.5 112q0 44 4.5 88.5t17.5 76.5zM140 89q23 -40 57.5 -53.5t87.5 -13.5
q52 0 87.5 15t55.5 50q17 30 25.5 78.5t8.5 101.5q0 48 -5 88.5t-22 74.5q-23 45 -59.5 60.5t-90.5 15.5q-60 0 -96.5 -19.5t-56.5 -63.5q-14 -29 -19 -73.5t-5 -87.5q0 -51 8 -98t24 -75zM115 629q23 61 45 83t57 22q19 0 35.5 -7t41.5 -28q20 -17 33.5 -26t30.5 -9
q26 0 37.5 17t22.5 46h44q-9 -22 -18 -41t-20.5 -32.5t-27.5 -21t-39 -7.5q-20 0 -35.5 5.5t-34.5 22.5q-23 21 -38.5 31.5t-31.5 10.5q-25 0 -37 -20.5t-22 -45.5h-43z" />
    <glyph glyph-name="odieresis" unicode="&#xf6;" 
d="M89 426q21 55 65.5 87t130.5 32q60 0 100 -15.5t69 -53.5q32 -43 40.5 -99t8.5 -111q0 -58 -9.5 -108t-23.5 -79q-23 -46 -67.5 -71t-117.5 -25q-68 0 -109 18t-67 60q-21 33 -31.5 88t-10.5 112q0 44 4.5 88.5t17.5 76.5zM140 89q23 -40 57.5 -53.5t87.5 -13.5
q52 0 87.5 15t55.5 50q17 30 25.5 78.5t8.5 101.5q0 48 -5 88.5t-22 74.5q-23 45 -59.5 60.5t-90.5 15.5q-60 0 -96.5 -19.5t-56.5 -63.5q-14 -29 -19 -73.5t-5 -87.5q0 -51 8 -98t24 -75zM389 754v-126h-43v126h43zM181 628v126h43v-126h-43z" />
    <glyph glyph-name="divide" unicode="&#xf7;" horiz-adv-x="700" 
d="M611 397v-40h-522v40h522zM318 239h63v-106h-63v106zM318 515v106h63v-106h-63z" />
    <glyph glyph-name="oslash" unicode="&#xf8;" 
d="M89 426q21 55 65.5 87t130.5 32q60 0 100 -15.5t69 -53.5q32 -43 40.5 -99t8.5 -111q0 -58 -9.5 -108t-23.5 -79q-23 -46 -67.5 -71t-117.5 -25q-68 0 -109 18t-67 60q-21 33 -31.5 88t-10.5 112q0 44 4.5 88.5t17.5 76.5zM285 22q52 0 87.5 15t55.5 50q17 30 25.5 78.5
t8.5 101.5q0 20 -1 45t-5 50.5t-11.5 48.5t-21.5 39l-249 -401q21 -15 48 -21t63 -6zM146 78l249 401q-21 15 -48 21t-62 6q-60 0 -96.5 -19.5t-56.5 -63.5q-14 -29 -19 -73.5t-5 -87.5q0 -20 1.5 -45t6 -50t11.5 -48.5t19 -40.5z" />
    <glyph glyph-name="ugrave" unicode="&#xf9;" horiz-adv-x="564" 
d="M87 195v333h40v-334q0 -42 3 -77.5t19 -57.5q15 -21 38.5 -29t65.5 -8q58 0 101.5 10.5t81.5 21.5v474h40v-504q-33 -9 -60.5 -17t-53.5 -13t-51.5 -8t-54.5 -3q-51 0 -84.5 10t-55.5 39q-20 26 -24.5 69t-4.5 94zM285 622l-111 132h56l110 -132h-55z" />
    <glyph glyph-name="uacute" unicode="&#xfa;" horiz-adv-x="564" 
d="M87 195v333h40v-334q0 -42 3 -77.5t19 -57.5q15 -21 38.5 -29t65.5 -8q58 0 101.5 10.5t81.5 21.5v474h40v-504q-33 -9 -60.5 -17t-53.5 -13t-51.5 -8t-54.5 -3q-51 0 -84.5 10t-55.5 39q-20 26 -24.5 69t-4.5 94zM223 622l114 132h57l-115 -132h-56z" />
    <glyph glyph-name="ucircumflex" unicode="&#xfb;" horiz-adv-x="564" 
d="M87 195v333h40v-334q0 -42 3 -77.5t19 -57.5q15 -21 38.5 -29t65.5 -8q58 0 101.5 10.5t81.5 21.5v474h40v-504q-33 -9 -60.5 -17t-53.5 -13t-51.5 -8t-54.5 -3q-51 0 -84.5 10t-55.5 39q-20 26 -24.5 69t-4.5 94zM258 754h46l120 -132h-56l-87 94l-88 -94h-56z" />
    <glyph glyph-name="udieresis" unicode="&#xfc;" horiz-adv-x="564" 
d="M127 528v-334q0 -42 3 -77.5t19 -57.5q15 -21 38.5 -29t65.5 -8q58 0 101.5 10.5t81.5 21.5v474h40v-504q-33 -9 -60.5 -17t-53.5 -13t-51.5 -8t-54.5 -3q-51 0 -84.5 10t-55.5 39q-20 26 -24.5 69t-4.5 94v333h40zM349 628v126h43v-126h-43zM172 628v126h43v-126h-43z
" />
    <glyph glyph-name="yacute" unicode="&#xfd;" horiz-adv-x="487" 
d="M58 528l185 -463l187 463h43l-290 -720h-44l82 202l-207 518h44zM183 622l114 132h57l-115 -132h-56z" />
    <glyph glyph-name="thorn" unicode="&#xfe;" horiz-adv-x="577" 
d="M88 -192v946h40v-294q38 30 73 51q25 15 54.5 24.5t64.5 9.5q57 0 93.5 -20.5t62.5 -68.5q17 -31 25.5 -83t8.5 -110q0 -126 -39 -194q-25 -43 -62.5 -64.5t-100.5 -21.5q-45 0 -88.5 14t-91.5 37v-226h-40zM128 78q45 -22 88.5 -39t91.5 -17t78 16.5t50 51.5
q17 29 25 75.5t8 98.5q0 50 -6.5 95t-20.5 74q-18 39 -48 56t-74 17q-31 0 -55 -8t-50 -24q-23 -14 -44 -30t-43 -33v-333z" />
    <glyph glyph-name="ydieresis" unicode="&#xff;" horiz-adv-x="487" 
d="M14 528h44l185 -463l187 463h43l-290 -720h-44l82 202zM304 754h43v-126h-43v126zM141 754h43v-126h-43v126z" />
    <glyph glyph-name="Amacron" unicode="&#x100;" horiz-adv-x="673" 
d="M21 0l288 754h53l290 -754h-45l-83 215h-377l-82 -215h-44zM162 255h347l-174 455zM202 844v40h267v-40h-267z" />
    <glyph glyph-name="amacron" unicode="&#x101;" 
d="M108 463q33 51 77 66.5t100 15.5q44 0 93 -16t104 -37v-492h-40v97q-16 -14 -31 -27t-34 -28q-35 -28 -66.5 -43.5t-72.5 -15.5q-61 0 -91 23.5t-49 60.5q-16 32 -23.5 87t-7.5 115q0 57 9 108t32 86zM132 91q17 -35 40.5 -52t65.5 -17q49 0 106 45q26 20 52 41.5
t46 40.5v316q-42 16 -81 28.5t-79 12.5q-51 0 -85.5 -15.5t-56.5 -53.5q-17 -29 -24.5 -75t-7.5 -93q0 -56 6 -104t18 -74zM160 650v40h267v-40h-267z" />
    <glyph glyph-name="Abreve" unicode="&#x102;" horiz-adv-x="673" 
d="M21 0l288 754h53l290 -754h-45l-83 215h-377l-82 -215h-44zM162 255h347l-174 455zM238 950q6 -20 14.5 -40.5t20.5 -32.5q13 -13 27.5 -18t35.5 -5q40 0 61 24q14 15 22.5 35.5t13.5 36.5h43q-8 -29 -22 -60t-37 -50q-17 -14 -37 -20t-44 -6q-54 0 -86 28
q-20 17 -33.5 48t-21.5 60h43z" />
    <glyph glyph-name="abreve" unicode="&#x103;" 
d="M108 463q33 51 77 66.5t100 15.5q44 0 93 -16t104 -37v-492h-40v97q-16 -14 -31 -27t-34 -28q-35 -28 -66.5 -43.5t-72.5 -15.5q-61 0 -91 23.5t-49 60.5q-16 32 -23.5 87t-7.5 115q0 57 9 108t32 86zM132 91q17 -35 40.5 -52t65.5 -17q49 0 106 45q26 20 52 41.5
t46 40.5v316q-42 16 -81 28.5t-79 12.5q-51 0 -85.5 -15.5t-56.5 -53.5q-17 -29 -24.5 -75t-7.5 -93q0 -56 6 -104t18 -74zM186 754q6 -20 14.5 -40.5t20.5 -32.5q13 -13 27.5 -18t35.5 -5q40 0 61 24q14 15 22.5 35.5t13.5 36.5h43q-8 -29 -22 -60t-37 -50q-17 -14 -37 -20
t-44 -6q-54 0 -86 28q-20 17 -33.5 48t-21.5 60h43z" />
    <glyph glyph-name="Aogonek" unicode="&#x104;" horiz-adv-x="673" 
d="M309 754h53l290 -754q-18 -14 -40.5 -32.5t-39.5 -37.5q-14 -16 -20 -27.5t-6 -25.5q0 -30 31 -30q17 0 36.5 6.5t37.5 14.5v-43q-39 -18 -72 -18q-38 0 -58 21q-17 19 -17 52q0 17 8 34t21 32q16 19 33.5 34.5t36.5 30.5l-79 204h-377l-82 -215h-44zM162 255h347
l-174 455z" />
    <glyph glyph-name="aogonek" unicode="&#x105;" 
d="M108 463q33 51 77 66.5t100 15.5q44 0 93 -16t104 -37v-492q-17 -14 -39.5 -32.5t-39.5 -37.5q-14 -16 -20 -27.5t-6 -25.5q0 -30 31 -30q17 0 36.5 6.5t37.5 14.5v-43q-39 -18 -72 -18q-38 0 -58 21q-17 19 -17 52q0 17 8 34t21 32q15 17 36.5 36t41.5 34v81
q-16 -14 -31 -27t-34 -28q-35 -28 -66.5 -43.5t-72.5 -15.5q-61 0 -91 23.5t-49 60.5q-16 32 -23.5 87t-7.5 115q0 57 9 108t32 86zM108 269q0 -56 6 -104t18 -74q17 -35 40.5 -52t65.5 -17q49 0 106 45q26 20 52 41.5t46 40.5v316q-42 16 -81 28.5t-79 12.5
q-51 0 -85.5 -15.5t-56.5 -53.5q-17 -29 -24.5 -75t-7.5 -93z" />
    <glyph glyph-name="Cacute" unicode="&#x106;" horiz-adv-x="658" 
d="M95 375q0 81 11 158.5t40 128.5q17 29 37 49.5t46 34t61 19.5t82 6q38 0 68.5 -4.5t56.5 -9.5q27 -5 57 -13t44 -12v-41q-59 16 -118 28q-26 5 -52.5 8.5t-55.5 3.5q-76 0 -121 -21.5t-74 -79.5q-10 -21 -18 -50t-12.5 -62.5t-7 -70.5t-2.5 -73q0 -72 8 -132.5t22 -97.5
q23 -61 70.5 -91t128.5 -30q58 0 115 9.5t117 23.5v-42q-60 -13 -114 -22t-112 -9q-101 0 -157 34t-87 111q-8 21 -14.5 49t-10.5 60.5t-6 68t-2 69.5zM312 818l114 132h57l-115 -132h-56z" />
    <glyph glyph-name="cacute" unicode="&#x107;" horiz-adv-x="480" 
d="M67 261q0 45 4.5 92.5t16.5 81.5q20 56 62.5 83t129.5 27q19 0 40 -3t41.5 -8t39 -10t32.5 -10v-40q-13 4 -32 9.5t-40 10.5t-42 8.5t-39 3.5q-63 0 -98 -16t-54 -64q-11 -28 -15.5 -73.5t-4.5 -91.5q0 -50 8 -98.5t25 -77.5q22 -38 56.5 -50.5t82.5 -12.5q34 0 77 9
t76 17v-40q-32 -8 -75 -16.5t-78 -8.5q-71 0 -110.5 19t-64.5 64q-22 40 -30 93.5t-8 101.5zM206 622l114 132h57l-115 -132h-56z" />
    <glyph glyph-name="Ccircumflex" unicode="&#x108;" horiz-adv-x="658" 
d="M95 375q0 81 11 158.5t40 128.5q17 29 37 49.5t46 34t61 19.5t82 6q38 0 68.5 -4.5t56.5 -9.5q27 -5 57 -13t44 -12v-41q-59 16 -118 28q-26 5 -52.5 8.5t-55.5 3.5q-76 0 -121 -21.5t-74 -79.5q-10 -21 -18 -50t-12.5 -62.5t-7 -70.5t-2.5 -73q0 -72 8 -132.5t22 -97.5
q23 -61 70.5 -91t128.5 -30q58 0 115 9.5t117 23.5v-42q-60 -13 -114 -22t-112 -9q-101 0 -157 34t-87 111q-8 21 -14.5 49t-10.5 60.5t-6 68t-2 69.5zM352 950h46l120 -132h-56l-87 94l-88 -94h-56z" />
    <glyph glyph-name="ccircumflex" unicode="&#x109;" horiz-adv-x="480" 
d="M67 261q0 45 4.5 92.5t16.5 81.5q20 56 62.5 83t129.5 27q19 0 40 -3t41.5 -8t39 -10t32.5 -10v-40q-13 4 -32 9.5t-40 10.5t-42 8.5t-39 3.5q-63 0 -98 -16t-54 -64q-11 -28 -15.5 -73.5t-4.5 -91.5q0 -50 8 -98.5t25 -77.5q22 -38 56.5 -50.5t82.5 -12.5q34 0 77 9
t76 17v-40q-32 -8 -75 -16.5t-78 -8.5q-71 0 -110.5 19t-64.5 64q-22 40 -30 93.5t-8 101.5zM245 754h46l120 -132h-56l-87 94l-88 -94h-56z" />
    <glyph glyph-name="Cdotaccent" unicode="&#x10a;" horiz-adv-x="658" 
d="M95 375q0 81 11 158.5t40 128.5q17 29 37 49.5t46 34t61 19.5t82 6q38 0 68.5 -4.5t56.5 -9.5q27 -5 57 -13t44 -12v-41q-59 16 -118 28q-26 5 -52.5 8.5t-55.5 3.5q-76 0 -121 -21.5t-74 -79.5q-10 -21 -18 -50t-12.5 -62.5t-7 -70.5t-2.5 -73q0 -72 8 -132.5t22 -97.5
q23 -61 70.5 -91t128.5 -30q58 0 115 9.5t117 23.5v-42q-60 -13 -114 -22t-112 -9q-101 0 -157 34t-87 111q-8 21 -14.5 49t-10.5 60.5t-6 68t-2 69.5zM339 824v126h44v-126h-44z" />
    <glyph glyph-name="cdotaccent" unicode="&#x10b;" horiz-adv-x="480" 
d="M67 261q0 45 4.5 92.5t16.5 81.5q20 56 62.5 83t129.5 27q19 0 40 -3t41.5 -8t39 -10t32.5 -10v-40q-13 4 -32 9.5t-40 10.5t-42 8.5t-39 3.5q-63 0 -98 -16t-54 -64q-11 -28 -15.5 -73.5t-4.5 -91.5q0 -50 8 -98.5t25 -77.5q22 -38 56.5 -50.5t82.5 -12.5q34 0 77 9
t76 17v-40q-32 -8 -75 -16.5t-78 -8.5q-71 0 -110.5 19t-64.5 64q-22 40 -30 93.5t-8 101.5zM240 628v126h44v-126h-44z" />
    <glyph glyph-name="Ccaron" unicode="&#x10c;" horiz-adv-x="658" 
d="M95 375q0 81 11 158.5t40 128.5q17 29 37 49.5t46 34t61 19.5t82 6q38 0 68.5 -4.5t56.5 -9.5q27 -5 57 -13t44 -12v-41q-59 16 -118 28q-26 5 -52.5 8.5t-55.5 3.5q-76 0 -121 -21.5t-74 -79.5q-10 -21 -18 -50t-12.5 -62.5t-7 -70.5t-2.5 -73q0 -72 8 -132.5t22 -97.5
q23 -61 70.5 -91t128.5 -30q58 0 115 9.5t117 23.5v-42q-60 -13 -114 -22t-112 -9q-101 0 -157 34t-87 111q-8 21 -14.5 49t-10.5 60.5t-6 68t-2 69.5zM223 950h56l88 -94l87 94h56l-120 -132h-46z" />
    <glyph glyph-name="ccaron" unicode="&#x10d;" horiz-adv-x="480" 
d="M67 261q0 45 4.5 92.5t16.5 81.5q20 56 62.5 83t129.5 27q19 0 40 -3t41.5 -8t39 -10t32.5 -10v-40q-13 4 -32 9.5t-40 10.5t-42 8.5t-39 3.5q-63 0 -98 -16t-54 -64q-11 -28 -15.5 -73.5t-4.5 -91.5q0 -50 8 -98.5t25 -77.5q22 -38 56.5 -50.5t82.5 -12.5q34 0 77 9
t76 17v-40q-32 -8 -75 -16.5t-78 -8.5q-71 0 -110.5 19t-64.5 64q-22 40 -30 93.5t-8 101.5zM120 754h56l88 -94l87 94h56l-120 -132h-46z" />
    <glyph glyph-name="Dcaron" unicode="&#x10e;" horiz-adv-x="752" 
d="M361 754q77 0 122 -12.5t82 -47.5q24 -22 41.5 -56t29 -75.5t16.5 -88.5t5 -94t-5 -92t-15.5 -85t-27 -73.5t-39.5 -57.5q-39 -40 -90.5 -56t-126.5 -16h-243v754h251zM352 40q74 0 116.5 16.5t73.5 47.5q34 35 53.5 107.5t19.5 168.5q0 88 -18 162.5t-54 114.5
q-32 35 -76 46t-106 11h-210v-674h201zM189 950h56l88 -94l87 94h56l-120 -132h-46z" />
    <glyph glyph-name="dcaron" unicode="&#x10f;" horiz-adv-x="585" 
d="M104 464q25 47 66.5 64t97.5 17q24 0 49.5 -4t49.5 -9.5t45.5 -12t36.5 -11.5v246h40v-754h-40v77l-33 -24t-46 -30q-28 -17 -59.5 -28.5t-68.5 -11.5q-63 0 -93 22.5t-49 62.5q-18 38 -25.5 91t-7.5 107q0 52 7 104t30 94zM108 266q0 -52 6 -96t20 -78
q15 -36 39.5 -53.5t68.5 -17.5q30 0 54.5 10t47.5 23q31 18 57 37t48 36v340q-55 18 -98.5 28.5t-82.5 10.5q-45 0 -78.5 -14.5t-52.5 -52.5q-17 -33 -23 -78.5t-6 -94.5zM550 754h43v-67q0 -16 -1 -45t-6 -75h-36v187z" />
    <glyph glyph-name="Dcroat" unicode="&#x110;" horiz-adv-x="759" 
d="M46 371v40h71v343h251q77 0 122 -12.5t82 -47.5q24 -22 41.5 -56t29 -75.5t16.5 -88.5t5 -94t-5 -92t-15.5 -85t-27 -73.5t-39.5 -57.5q-39 -40 -90.5 -56t-126.5 -16h-243v371h-71zM387 411v-40h-229v-331h201q74 0 116.5 16.5t73.5 47.5q34 35 53.5 107.5t19.5 168.5
q0 88 -18 162.5t-54 114.5q-32 35 -76 46t-106 11h-210v-303h229z" />
    <glyph glyph-name="dcroat" unicode="&#x111;" horiz-adv-x="577" 
d="M104 464q25 47 66.5 64t97.5 17q24 0 49.5 -4t49.5 -9.5t45.5 -12t36.5 -11.5v102h-129v39h129v105h40v-105h87v-39h-87v-610h-40v77l-33 -24t-46 -30q-28 -17 -59.5 -28.5t-68.5 -11.5q-63 0 -93 22.5t-49 62.5q-18 38 -25.5 91t-7.5 107q0 52 7 104t30 94zM134 92
q15 -36 39.5 -53.5t68.5 -17.5q30 0 54.5 10t47.5 23q31 18 57 37t48 36v340q-55 18 -98.5 28.5t-82.5 10.5q-45 0 -78.5 -14.5t-52.5 -52.5q-17 -33 -23 -78.5t-6 -94.5q0 -52 6 -96t20 -78z" />
    <glyph glyph-name="Emacron" unicode="&#x112;" horiz-adv-x="651" 
d="M594 754v-40h-443v-308h421v-40h-421v-326h459v-40h-500v754h484zM219 844v40h267v-40h-267z" />
    <glyph glyph-name="emacron" unicode="&#x113;" horiz-adv-x="554" 
d="M67 263q0 51 5.5 97.5t26.5 88.5q20 40 63.5 68t124.5 28q77 0 119 -27.5t62 -66.5q14 -26 18 -53.5t4 -52.5q0 -18 -2.5 -44.5t-7.5 -55.5h-373q0 -39 5.5 -78t20.5 -68q21 -41 59 -59t106 -18q43 0 88.5 7.5t76.5 13.5v-40q-14 -3 -35 -6.5t-44 -6.5t-45.5 -5t-40.5 -2
q-85 0 -129 22.5t-68 66.5q-19 34 -26.5 78t-7.5 113zM107 284h337q5 28 5 61q0 23 -4 47.5t-15 44.5q-39 69 -143 69q-57 0 -96 -19t-59 -61q-14 -28 -19.5 -69t-5.5 -73zM154 650v40h267v-40h-267z" />
    <glyph glyph-name="Ebreve" unicode="&#x114;" horiz-adv-x="651" 
d="M594 754v-40h-443v-308h421v-40h-421v-326h459v-40h-500v754h484zM248 950q6 -20 14.5 -40.5t20.5 -32.5q13 -13 27.5 -18t35.5 -5q40 0 61 24q14 15 22.5 35.5t13.5 36.5h43q-8 -29 -22 -60t-37 -50q-17 -14 -37 -20t-44 -6q-54 0 -86 28q-20 17 -33.5 48t-21.5 60h43z
" />
    <glyph glyph-name="ebreve" unicode="&#x115;" horiz-adv-x="554" 
d="M67 263q0 51 5.5 97.5t26.5 88.5q20 40 63.5 68t124.5 28q77 0 119 -27.5t62 -66.5q14 -26 18 -53.5t4 -52.5q0 -18 -2.5 -44.5t-7.5 -55.5h-373q0 -39 5.5 -78t20.5 -68q21 -41 59 -59t106 -18q43 0 88.5 7.5t76.5 13.5v-40q-14 -3 -35 -6.5t-44 -6.5t-45.5 -5t-40.5 -2
q-85 0 -129 22.5t-68 66.5q-19 34 -26.5 78t-7.5 113zM107 284h337q5 28 5 61q0 23 -4 47.5t-15 44.5q-39 69 -143 69q-57 0 -96 -19t-59 -61q-14 -28 -19.5 -69t-5.5 -73zM186 754q6 -20 14.5 -40.5t20.5 -32.5q13 -13 27.5 -18t35.5 -5q40 0 61 24q14 15 22.5 35.5
t13.5 36.5h43q-8 -29 -22 -60t-37 -50q-17 -14 -37 -20t-44 -6q-54 0 -86 28q-20 17 -33.5 48t-21.5 60h43z" />
    <glyph glyph-name="Edotaccent" unicode="&#x116;" horiz-adv-x="651" 
d="M594 754v-40h-443v-308h421v-40h-421v-326h459v-40h-500v754h484zM325 824v126h44v-126h-44z" />
    <glyph glyph-name="edotaccent" unicode="&#x117;" horiz-adv-x="554" 
d="M67 263q0 51 5.5 97.5t26.5 88.5q20 40 63.5 68t124.5 28q77 0 119 -27.5t62 -66.5q14 -26 18 -53.5t4 -52.5q0 -18 -2.5 -44.5t-7.5 -55.5h-373q0 -39 5.5 -78t20.5 -68q21 -41 59 -59t106 -18q43 0 88.5 7.5t76.5 13.5v-40q-14 -3 -35 -6.5t-44 -6.5t-45.5 -5t-40.5 -2
q-85 0 -129 22.5t-68 66.5q-19 34 -26.5 78t-7.5 113zM107 284h337q5 28 5 61q0 23 -4 47.5t-15 44.5q-39 69 -143 69q-57 0 -96 -19t-59 -61q-14 -28 -19.5 -69t-5.5 -73zM259 628v126h44v-126h-44z" />
    <glyph glyph-name="Eogonek" unicode="&#x118;" horiz-adv-x="651" 
d="M110 754h484v-40h-443v-308h421v-40h-421v-326h459v-40q-18 -14 -40.5 -32.5t-39.5 -37.5q-14 -16 -20 -27.5t-6 -25.5q0 -30 31 -30q17 0 36.5 6.5t37.5 14.5v-43q-39 -18 -72 -18q-38 0 -58 21q-17 19 -17 52q0 17 8 34t21 32q23 27 56 54h-437v754z" />
    <glyph glyph-name="eogonek" unicode="&#x119;" horiz-adv-x="554" 
d="M99 449q20 40 63.5 68t124.5 28q77 0 119 -27.5t62 -66.5q14 -26 18 -53.5t4 -52.5q0 -18 -2.5 -44.5t-7.5 -55.5h-373q0 -39 5.5 -78t20.5 -68q21 -41 59 -59t106 -18q43 0 89.5 8t75.5 14v-41q-18 -14 -40.5 -34t-39.5 -39q-14 -16 -20 -27.5t-6 -25.5q0 -30 31 -30
q17 0 36.5 6.5t37.5 14.5v-43q-39 -18 -72 -18q-38 0 -58 21q-17 19 -17 52q0 17 8 34t21 32q10 11 21.5 22.5t23.5 22.5q-51 -8 -91 -8q-85 0 -129 22.5t-68 66.5q-19 34 -26.5 78t-7.5 113q0 51 5.5 97.5t26.5 88.5zM107 284h338q5 28 5 60q0 23 -4 48.5t-14 44.5
q-18 33 -55.5 51t-89.5 18q-57 0 -96 -19t-59 -61q-7 -14 -11.5 -33t-7.5 -39t-4.5 -38.5t-1.5 -31.5z" />
    <glyph glyph-name="Ecaron" unicode="&#x11a;" horiz-adv-x="651" 
d="M594 754v-40h-443v-308h421v-40h-421v-326h459v-40h-500v754h484zM210 950h56l88 -94l87 94h56l-120 -132h-46z" />
    <glyph glyph-name="ecaron" unicode="&#x11b;" horiz-adv-x="554" 
d="M67 263q0 51 5.5 97.5t26.5 88.5q20 40 63.5 68t124.5 28q77 0 119 -27.5t62 -66.5q14 -26 18 -53.5t4 -52.5q0 -18 -2.5 -44.5t-7.5 -55.5h-373q0 -39 5.5 -78t20.5 -68q21 -41 59 -59t106 -18q43 0 88.5 7.5t76.5 13.5v-40q-14 -3 -35 -6.5t-44 -6.5t-45.5 -5t-40.5 -2
q-85 0 -129 22.5t-68 66.5q-19 34 -26.5 78t-7.5 113zM107 284h337q5 28 5 61q0 23 -4 47.5t-15 44.5q-39 69 -143 69q-57 0 -96 -19t-59 -61q-14 -28 -19.5 -69t-5.5 -73zM133 754h56l88 -94l87 94h56l-120 -132h-46z" />
    <glyph glyph-name="Gcircumflex" unicode="&#x11c;" horiz-adv-x="740" 
d="M95 375q0 39 2.5 79.5t8.5 78t15.5 71t24.5 58.5q33 57 83.5 83t142.5 26q37 0 68.5 -4.5t58.5 -9.5q29 -6 57.5 -13t50.5 -13v-41q-29 8 -60 14.5t-64 13.5q-26 5 -53.5 9t-57.5 4q-76 0 -121.5 -21.5t-74.5 -79.5q-20 -42 -29.5 -113t-9.5 -143q0 -75 8.5 -134.5
t23.5 -96.5q15 -36 36.5 -59.5t49 -37t61 -18.5t71.5 -5q51 0 107 7t98 13v358h41v-393q-63 -9 -129.5 -17t-131.5 -8q-53 0 -92 10t-67.5 28.5t-48 45t-33.5 58.5q-18 41 -27 107.5t-9 142.5zM355 950h46l120 -132h-56l-87 94l-88 -94h-56z" />
    <glyph glyph-name="gcircumflex" unicode="&#x11d;" horiz-adv-x="574" 
d="M68 270q0 59 7.5 106.5t27.5 83.5q28 51 71 68t101 17q23 0 51 -5.5t57.5 -13t56.5 -16t46 -14.5v-466q0 -65 -17 -107.5t-43 -69.5q-29 -29 -74.5 -45.5t-101.5 -16.5q-42 0 -85.5 4.5t-78.5 9.5v41q14 -2 34 -5t42 -5.5t45 -4t43 -1.5q49 0 87.5 14.5t64.5 44.5
q23 27 33.5 65.5t10.5 78.5v29q-11 -5 -30.5 -14t-48.5 -21q-30 -12 -61.5 -19.5t-63.5 -7.5q-66 0 -96 22t-47 56q-16 31 -23.5 82t-7.5 110zM135 97q15 -32 40 -45t67 -13q26 0 51 6t53 17q32 12 54 22.5t46 22.5v360q-11 4 -31.5 10.5t-45 13t-50 11t-46.5 4.5
q-53 0 -84.5 -15t-51.5 -53q-15 -29 -21.5 -74t-6.5 -94q0 -116 26 -173zM265 754h46l120 -132h-56l-87 94l-88 -94h-56z" />
    <glyph glyph-name="Gbreve" unicode="&#x11e;" horiz-adv-x="740" 
d="M95 375q0 39 2.5 79.5t8.5 78t15.5 71t24.5 58.5q33 57 83.5 83t142.5 26q37 0 68.5 -4.5t58.5 -9.5q29 -6 57.5 -13t50.5 -13v-41q-29 8 -60 14.5t-64 13.5q-26 5 -53.5 9t-57.5 4q-76 0 -121.5 -21.5t-74.5 -79.5q-20 -42 -29.5 -113t-9.5 -143q0 -75 8.5 -134.5
t23.5 -96.5q15 -36 36.5 -59.5t49 -37t61 -18.5t71.5 -5q51 0 107 7t98 13v358h41v-393q-63 -9 -129.5 -17t-131.5 -8q-53 0 -92 10t-67.5 28.5t-48 45t-33.5 58.5q-18 41 -27 107.5t-9 142.5zM281 950q6 -20 14.5 -40.5t20.5 -32.5q13 -13 27.5 -18t35.5 -5q40 0 61 24
q14 15 22.5 35.5t13.5 36.5h43q-8 -29 -22 -60t-37 -50q-17 -14 -37 -20t-44 -6q-54 0 -86 28q-20 17 -33.5 48t-21.5 60h43z" />
    <glyph glyph-name="gbreve" unicode="&#x11f;" horiz-adv-x="574" 
d="M68 270q0 59 7.5 106.5t27.5 83.5q28 51 71 68t101 17q23 0 51 -5.5t57.5 -13t56.5 -16t46 -14.5v-466q0 -65 -17 -107.5t-43 -69.5q-29 -29 -74.5 -45.5t-101.5 -16.5q-42 0 -85.5 4.5t-78.5 9.5v41q14 -2 34 -5t42 -5.5t45 -4t43 -1.5q49 0 87.5 14.5t64.5 44.5
q23 27 33.5 65.5t10.5 78.5v29q-11 -5 -30.5 -14t-48.5 -21q-30 -12 -61.5 -19.5t-63.5 -7.5q-66 0 -96 22t-47 56q-16 31 -23.5 82t-7.5 110zM135 97q15 -32 40 -45t67 -13q26 0 51 6t53 17q32 12 54 22.5t46 22.5v360q-11 4 -31.5 10.5t-45 13t-50 11t-46.5 4.5
q-53 0 -84.5 -15t-51.5 -53q-15 -29 -21.5 -74t-6.5 -94q0 -116 26 -173zM184 754q6 -20 14.5 -40.5t20.5 -32.5q13 -13 27.5 -18t35.5 -5q40 0 61 24q14 15 22.5 35.5t13.5 36.5h43q-8 -29 -22 -60t-37 -50q-17 -14 -37 -20t-44 -6q-54 0 -86 28q-20 17 -33.5 48t-21.5 60
h43z" />
    <glyph glyph-name="Gdotaccent" unicode="&#x120;" horiz-adv-x="740" 
d="M95 375q0 39 2.5 79.5t8.5 78t15.5 71t24.5 58.5q33 57 83.5 83t142.5 26q37 0 68.5 -4.5t58.5 -9.5q29 -6 57.5 -13t50.5 -13v-41q-29 8 -60 14.5t-64 13.5q-26 5 -53.5 9t-57.5 4q-76 0 -121.5 -21.5t-74.5 -79.5q-20 -42 -29.5 -113t-9.5 -143q0 -75 8.5 -134.5
t23.5 -96.5q15 -36 36.5 -59.5t49 -37t61 -18.5t71.5 -5q51 0 107 7t98 13v358h41v-393q-63 -9 -129.5 -17t-131.5 -8q-53 0 -92 10t-67.5 28.5t-48 45t-33.5 58.5q-18 41 -27 107.5t-9 142.5zM353 824v126h44v-126h-44z" />
    <glyph glyph-name="gdotaccent" unicode="&#x121;" horiz-adv-x="574" 
d="M68 270q0 59 7.5 106.5t27.5 83.5q28 51 71 68t101 17q23 0 51 -5.5t57.5 -13t56.5 -16t46 -14.5v-466q0 -65 -17 -107.5t-43 -69.5q-29 -29 -74.5 -45.5t-101.5 -16.5q-42 0 -85.5 4.5t-78.5 9.5v41q14 -2 34 -5t42 -5.5t45 -4t43 -1.5q49 0 87.5 14.5t64.5 44.5
q23 27 33.5 65.5t10.5 78.5v29q-11 -5 -30.5 -14t-48.5 -21q-30 -12 -61.5 -19.5t-63.5 -7.5q-66 0 -96 22t-47 56q-16 31 -23.5 82t-7.5 110zM135 97q15 -32 40 -45t67 -13q26 0 51 6t53 17q32 12 54 22.5t46 22.5v360q-11 4 -31.5 10.5t-45 13t-50 11t-46.5 4.5
q-53 0 -84.5 -15t-51.5 -53q-15 -29 -21.5 -74t-6.5 -94q0 -116 26 -173zM260 628v126h44v-126h-44z" />
    <glyph glyph-name="uni0122" unicode="&#x122;" horiz-adv-x="740" 
d="M95 375q0 39 2.5 79.5t8.5 78t15.5 71t24.5 58.5q33 57 83.5 83t142.5 26q37 0 68.5 -4.5t58.5 -9.5q29 -6 57.5 -13t50.5 -13v-41q-29 8 -60 14.5t-64 13.5q-26 5 -53.5 9t-57.5 4q-76 0 -121.5 -21.5t-74.5 -79.5q-20 -42 -29.5 -113t-9.5 -143q0 -75 8.5 -134.5
t23.5 -96.5q15 -36 36.5 -59.5t49 -37t61 -18.5t71.5 -5q51 0 107 7t98 13v358h41v-393q-63 -9 -129.5 -17t-131.5 -8q-53 0 -92 10t-67.5 28.5t-48 45t-33.5 58.5q-18 41 -27 107.5t-9 142.5zM347 -279q6 27 9.5 48.5t5 41t1.5 39.5v44v44h43v-64q0 -41 -2.5 -74.5
t-19.5 -78.5h-37z" />
    <glyph glyph-name="uni0123" unicode="&#x123;" horiz-adv-x="574" 
d="M68 270q0 59 7.5 106.5t27.5 83.5q28 51 71 68t101 17q23 0 51 -5.5t57.5 -13t56.5 -16t46 -14.5v-466q0 -65 -17 -107.5t-43 -69.5q-29 -29 -74.5 -45.5t-101.5 -16.5q-42 0 -85.5 4.5t-78.5 9.5v41q14 -2 34 -5t42 -5.5t45 -4t43 -1.5q49 0 87.5 14.5t64.5 44.5
q23 27 33.5 65.5t10.5 78.5v29q-11 -5 -30.5 -14t-48.5 -21q-30 -12 -61.5 -19.5t-63.5 -7.5q-66 0 -96 22t-47 56q-16 31 -23.5 82t-7.5 110zM109 270q0 -57 6 -101t20 -72q15 -32 40 -45t67 -13q26 0 51 6t53 17q32 12 54 22.5t46 22.5v360q-11 4 -31.5 10.5t-45 13
t-50 11t-46.5 4.5q-53 0 -84.5 -15t-51.5 -53q-15 -29 -21.5 -74t-6.5 -94zM256 669q0 41 3 74.5t19 78.5h37q-6 -27 -9 -48.5t-4.5 -41t-2 -39.5t-0.5 -44v-44h-43v64z" />
    <glyph glyph-name="Hcircumflex" unicode="&#x124;" horiz-adv-x="769" 
d="M151 754v-333h467v333h41v-754h-41v381h-467v-381h-41v754h41zM362 950h46l120 -132h-56l-87 94l-88 -94h-56z" />
    <glyph glyph-name="hcircumflex" unicode="&#x125;" horiz-adv-x="572" 
d="M88 0v754h40v-265q56 25 104 40.5t95 15.5q45 0 75.5 -9.5t52.5 -37.5q20 -25 25.5 -63t5.5 -84v-351h-40v352q0 38 -5 69.5t-19 50.5q-16 20 -39.5 27t-55.5 7q-51 0 -101 -19t-98 -41v-446h-40zM86 950h46l120 -132h-56l-87 94l-88 -94h-56z" />
    <glyph glyph-name="Hbar" unicode="&#x126;" horiz-adv-x="769" 
d="M110 754h41v-172h467v172h41v-754h-41v374h-467v-374h-41v754zM151 542v-128h467v128h-467z" />
    <glyph glyph-name="hbar" unicode="&#x127;" horiz-adv-x="572" 
d="M0 610v39h88v105h40v-105h132v-39h-132v-121q56 25 104 40.5t95 15.5q45 0 75.5 -9.5t52.5 -37.5q20 -25 25.5 -63t5.5 -84v-351h-40v352q0 38 -5 69.5t-19 50.5q-16 20 -39.5 27t-55.5 7q-51 0 -101 -19t-98 -41v-446h-40v610h-88z" />
    <glyph glyph-name="Itilde" unicode="&#x128;" horiz-adv-x="261" 
d="M110 0v754h41v-754h-41zM-44 831q23 61 45 83t57 22q19 0 35.5 -7t41.5 -28q20 -17 33.5 -26t30.5 -9q26 0 37.5 17t22.5 46h44q-9 -22 -18 -41t-20.5 -32.5t-27.5 -21t-39 -7.5q-20 0 -35.5 5.5t-34.5 22.5q-23 21 -38.5 31.5t-31.5 10.5q-25 0 -37 -20.5t-22 -45.5h-43
z" />
    <glyph glyph-name="itilde" unicode="&#x129;" horiz-adv-x="216" 
d="M88 0v528h40v-528h-40zM-64 629q23 61 45 83t57 22q19 0 35.5 -7t41.5 -28q20 -17 33.5 -26t30.5 -9q26 0 37.5 17t22.5 46h44q-9 -22 -18 -41t-20.5 -32.5t-27.5 -21t-39 -7.5q-20 0 -35.5 5.5t-34.5 22.5q-23 21 -38.5 31.5t-31.5 10.5q-25 0 -37 -20.5t-22 -45.5h-43z
" />
    <glyph glyph-name="Imacron" unicode="&#x12a;" horiz-adv-x="261" 
d="M110 0v754h41v-754h-41zM-4 844v40h267v-40h-267z" />
    <glyph glyph-name="imacron" unicode="&#x12b;" horiz-adv-x="216" 
d="M88 0v528h40v-528h-40zM-26 650v40h267v-40h-267z" />
    <glyph glyph-name="Ibreve" unicode="&#x12c;" horiz-adv-x="261" 
d="M110 0v754h41v-754h-41zM32 950q6 -20 14.5 -40.5t20.5 -32.5q13 -13 27.5 -18t35.5 -5q40 0 61 24q14 15 22.5 35.5t13.5 36.5h43q-8 -29 -22 -60t-37 -50q-17 -14 -37 -20t-44 -6q-54 0 -86 28q-20 17 -33.5 48t-21.5 60h43z" />
    <glyph glyph-name="ibreve" unicode="&#x12d;" horiz-adv-x="216" 
d="M88 0v528h40v-528h-40zM9 754q6 -20 14.5 -40.5t20.5 -32.5q13 -13 27.5 -18t35.5 -5q40 0 61 24q14 15 22.5 35.5t13.5 36.5h43q-8 -29 -22 -60t-37 -50q-17 -14 -37 -20t-44 -6q-54 0 -86 28q-20 17 -33.5 48t-21.5 60h43z" />
    <glyph glyph-name="Iogonek" unicode="&#x12e;" horiz-adv-x="261" 
d="M52 -118q0 34 22 69q8 14 16.5 25t19.5 24v754h41v-754q-8 -10 -22 -30t-22 -35q-13 -27 -13 -56q0 -14 7.5 -23t23.5 -9q17 0 37 6.5t37 14.5v-43q-39 -18 -73 -18q-20 0 -34 4t-24 16q-16 19 -16 55z" />
    <glyph glyph-name="iogonek" unicode="&#x12f;" horiz-adv-x="216" 
d="M31 -119q0 16 6 34.5t16 35.5q8 14 16 24.5t19 24.5v528h40v-528q-8 -11 -21.5 -30t-21.5 -35q-7 -14 -9.5 -28t-2.5 -30q0 -30 31 -30q17 0 37 6.5t37 14.5v-43q-39 -18 -72 -18q-40 0 -60 21q-15 16 -15 53zM131 754v-133h-46v133h46z" />
    <glyph glyph-name="Idotaccent" unicode="&#x130;" horiz-adv-x="261" 
d="M110 0v754h41v-754h-41zM107 824v126h44v-126h-44z" />
    <glyph glyph-name="dotlessi" unicode="&#x131;" horiz-adv-x="216" 
d="M88 0v528h40v-528h-40z" />
    <glyph glyph-name="IJ" unicode="&#x132;" horiz-adv-x="595" 
d="M110 0v754h41v-754h-41zM225 -42q13 4 33.5 11t43 15.5t43.5 18t36 17.5q22 12 35.5 24.5t20.5 31.5q8 22 9 58t1 76v544h41v-539q0 -53 -1.5 -88t-9.5 -62q-12 -39 -51 -65q-20 -13 -46.5 -25.5t-54.5 -23.5t-54.5 -20t-45.5 -15v42z" />
    <glyph glyph-name="ij" unicode="&#x133;" horiz-adv-x="431" 
d="M88 0v528h40v-528h-40zM86 628v126h44v-126h-44zM168 -211v44l21 10.5t27 14t27 15.5t21 15q14 12 20.5 23t11.5 25t6.5 40.5t1.5 49.5v502h40v-496q0 -29 -1 -59t-6 -47q-7 -24 -20 -42t-38 -36q-21 -16 -55 -32.5t-56 -26.5zM302 754h44v-126h-44v126z" />
    <glyph glyph-name="Jcircumflex" unicode="&#x134;" horiz-adv-x="364" 
d="M-6 -42q13 4 33.5 11t43 15.5t43.5 18t36 17.5q22 12 35.5 24.5t20.5 31.5q8 22 9 58t1 76v544h41v-539q0 -53 -1.5 -88t-9.5 -62q-12 -39 -51 -65q-20 -13 -46.5 -25.5t-54.5 -23.5t-54.5 -20t-45.5 -15v42zM208 950h46l120 -132h-56l-87 94l-88 -94h-56z" />
    <glyph glyph-name="jcircumflex" unicode="&#x135;" horiz-adv-x="227" 
d="M86 754h46l120 -132h-56l-87 94l-88 -94h-56zM-37 -167l21 10.5t27 14t27 15.5t21 15q14 12 20.5 23t11.5 25t6.5 40.5t1.5 49.5v502h40v-496q0 -29 -1 -59t-6 -47q-7 -24 -20 -42t-38 -36q-21 -16 -55 -32.5t-56 -26.5v44z" />
    <glyph glyph-name="uni0136" unicode="&#x136;" horiz-adv-x="622" 
d="M151 754v-365l380 365h61l-391 -374l422 -380h-63l-409 369v-369h-41v754h41zM264 -280q6 27 9.5 48.5t5 41t1.5 39.5v44v44h43v-64q0 -41 -2.5 -74.5t-19.5 -78.5h-37z" />
    <glyph glyph-name="uni0137" unicode="&#x137;" horiz-adv-x="475" 
d="M128 754v-457l254 231h60l-266 -242l291 -286h-58l-281 277v-277h-40v754h40zM194 -280q6 27 9.5 48.5t5 41t1.5 39.5v44v44h43v-64q0 -41 -2.5 -74.5t-19.5 -78.5h-37z" />
    <glyph glyph-name="kgreenlandic" unicode="&#x138;" horiz-adv-x="486" 
d="M128 528v-244q23 6 49.5 16t53.5 23t52 29t44 34q23 22 41 59.5t28 82.5h41q-14 -66 -38 -111t-62 -77q-31 -26 -70.5 -44.5t-76.5 -32.5l277 -263h-58l-281 266v-266h-40v528h40z" />
    <glyph glyph-name="Lacute" unicode="&#x139;" horiz-adv-x="615" 
d="M110 0v754h41v-714h425v-40h-466zM103 818l114 132h57l-115 -132h-56z" />
    <glyph glyph-name="lacute" unicode="&#x13a;" horiz-adv-x="216" 
d="M88 0v754h40v-754h-40zM81 818l114 132h57l-115 -132h-56z" />
    <glyph glyph-name="uni013B" unicode="&#x13b;" horiz-adv-x="615" 
d="M110 0v754h41v-714h425v-40h-466zM305 -280q6 27 9.5 48.5t5 41t1.5 39.5v44v44h43v-64q0 -41 -2.5 -74.5t-19.5 -78.5h-37z" />
    <glyph glyph-name="uni013C" unicode="&#x13c;" horiz-adv-x="216" 
d="M88 0v754h40v-754h-40zM71 -280q6 27 9.5 48.5t5 41t1.5 39.5v44v44h43v-64q0 -41 -2.5 -74.5t-19.5 -78.5h-37z" />
    <glyph glyph-name="Lcaron" unicode="&#x13d;" horiz-adv-x="615" 
d="M110 754h41v-714h425v-40h-466v754zM316 567v187h43v-67q0 -16 -1 -45t-6 -75h-36z" />
    <glyph glyph-name="lcaron" unicode="&#x13e;" horiz-adv-x="224" 
d="M128 754v-754h-40v754h40zM189 754h43v-67q0 -16 -1 -45t-6 -75h-36v187z" />
    <glyph glyph-name="Ldot" unicode="&#x13f;" horiz-adv-x="615" 
d="M110 0v754h41v-714h425v-40h-466zM410 327v126h44v-126h-44z" />
    <glyph glyph-name="ldot" unicode="&#x140;" horiz-adv-x="260" 
d="M88 0v754h40v-754h-40zM215 327v126h44v-126h-44z" />
    <glyph glyph-name="Lslash" unicode="&#x141;" horiz-adv-x="615" 
d="M110 393v361h41v-334l165 108v-48l-165 -108v-332h425v-40h-466v345l-85 -56v48z" />
    <glyph glyph-name="lslash" unicode="&#x142;" horiz-adv-x="236" 
d="M98 418v336h40v-310l82 52v-46l-82 -52v-398h-40v372l-82 -52v46z" />
    <glyph glyph-name="Nacute" unicode="&#x143;" horiz-adv-x="756" 
d="M172 754l433 -709v709h41v-754h-62l-433 709v-709h-41v754h62zM314 818l114 132h57l-115 -132h-56z" />
    <glyph glyph-name="nacute" unicode="&#x144;" horiz-adv-x="575" 
d="M88 0v528h40v-43q57 26 104 43t98 17q45 0 76.5 -10.5t52.5 -37.5t25.5 -65.5t4.5 -80.5v-351h-40v353q0 38 -4 68t-19 50t-39 27.5t-57 7.5q-48 0 -101 -21t-101 -43v-442h-40zM214 622l114 132h57l-115 -132h-56z" />
    <glyph glyph-name="uni0145" unicode="&#x145;" horiz-adv-x="756" 
d="M172 754l433 -709v709h41v-754h-62l-433 709v-709h-41v754h62zM333 -280q6 27 9.5 48.5t5 41t1.5 39.5v44v44h43v-64q0 -41 -2.5 -74.5t-19.5 -78.5h-37z" />
    <glyph glyph-name="uni0146" unicode="&#x146;" horiz-adv-x="575" 
d="M88 0v528h40v-43q57 26 104 43t98 17q45 0 76.5 -10.5t52.5 -37.5t25.5 -65.5t4.5 -80.5v-351h-40v353q0 38 -4 68t-19 50t-39 27.5t-57 7.5q-48 0 -101 -21t-101 -43v-442h-40zM242 -280q6 27 9.5 48.5t5 41t1.5 39.5v44v44h43v-64q0 -41 -2.5 -74.5t-19.5 -78.5h-37z
" />
    <glyph glyph-name="Ncaron" unicode="&#x147;" horiz-adv-x="756" 
d="M172 754l433 -709v709h41v-754h-62l-433 709v-709h-41v754h62zM230 950h56l88 -94l87 94h56l-120 -132h-46z" />
    <glyph glyph-name="ncaron" unicode="&#x148;" horiz-adv-x="575" 
d="M88 0v528h40v-43q57 26 104 43t98 17q45 0 76.5 -10.5t52.5 -37.5t25.5 -65.5t4.5 -80.5v-351h-40v353q0 38 -4 68t-19 50t-39 27.5t-57 7.5q-48 0 -101 -21t-101 -43v-442h-40zM143 754h56l88 -94l87 94h56l-120 -132h-46z" />
    <glyph glyph-name="napostrophe" unicode="&#x149;" horiz-adv-x="614" 
d="M127 0v528h40v-43q57 26 104 43t98 17q45 0 76.5 -10.5t52.5 -37.5t25.5 -65.5t4.5 -80.5v-351h-40v353q0 38 -4 68t-19 50t-39 27.5t-57 7.5q-48 0 -101 -21t-101 -43v-442h-40zM21 537q6 27 9.5 48.5t5 41t1.5 39.5v44v44h43v-64q0 -41 -2.5 -74.5t-19.5 -78.5h-37z
" />
    <glyph glyph-name="Eng" unicode="&#x14a;" horiz-adv-x="756" 
d="M172 754l433 -709v709h41v-670q0 -53 -1.5 -88t-9.5 -62q-12 -39 -51 -65q-20 -13 -46.5 -25.5t-54.5 -23.5t-54.5 -20t-45.5 -15v42q13 4 33.5 11t43 15.5t43.5 18t36 17.5q28 16 43.5 34t18.5 50l-450 736v-709h-41v754h62z" />
    <glyph glyph-name="eng" unicode="&#x14b;" horiz-adv-x="575" 
d="M88 528h40v-43q57 26 104 43t98 17q45 0 76.5 -10.5t52.5 -37.5t25.5 -65.5t4.5 -80.5v-319q0 -29 -1 -59t-6 -47q-7 -24 -20 -42t-38 -36q-21 -16 -55 -32.5t-56 -26.5v44l21 10.5t27 14t27 15.5t21 15q14 12 20.5 23t11.5 25t6.5 40.5t1.5 49.5v327q0 38 -4 68t-19 50
t-39 27.5t-57 7.5q-48 0 -101 -21t-101 -43v-442h-40v528z" />
    <glyph glyph-name="Omacron" unicode="&#x14c;" horiz-adv-x="801" 
d="M136 640q34 63 98.5 97t165.5 34q88 0 146 -24t96 -78q18 -25 30 -60t19.5 -74t11 -80t3.5 -77q0 -28 -2.5 -65.5t-9 -76.5t-18 -76t-29.5 -65q-42 -63 -104 -87.5t-143 -24.5q-99 0 -161 27t-94 82q-15 26 -25 60.5t-15.5 73t-7.5 77.5t-2 75q0 31 2 67.5t6.5 72
t12.5 67.5t20 55zM178 119q35 -60 93 -78t129 -18q64 0 113 15.5t87 62.5q18 22 30.5 54t20 69.5t10.5 77t3 76.5q0 34 -2.5 70t-8.5 70.5t-16 65.5t-24 53q-33 53 -87 73.5t-126 20.5q-74 0 -134.5 -24.5t-92.5 -86.5q-10 -21 -17 -50t-11.5 -61.5t-6 -66.5t-1.5 -64
q0 -29 2 -65t6.5 -72t12.5 -68t20 -54zM266 844v40h267v-40h-267z" />
    <glyph glyph-name="omacron" unicode="&#x14d;" 
d="M89 426q21 55 65.5 87t130.5 32q60 0 100 -15.5t69 -53.5q32 -43 40.5 -99t8.5 -111q0 -58 -9.5 -108t-23.5 -79q-23 -46 -67.5 -71t-117.5 -25q-68 0 -109 18t-67 60q-21 33 -31.5 88t-10.5 112q0 44 4.5 88.5t17.5 76.5zM140 89q23 -40 57.5 -53.5t87.5 -13.5
q52 0 87.5 15t55.5 50q17 30 25.5 78.5t8.5 101.5q0 48 -5 88.5t-22 74.5q-23 45 -59.5 60.5t-90.5 15.5q-60 0 -96.5 -19.5t-56.5 -63.5q-14 -29 -19 -73.5t-5 -87.5q0 -51 8 -98t24 -75zM153 650v40h267v-40h-267z" />
    <glyph glyph-name="Obreve" unicode="&#x14e;" horiz-adv-x="801" 
d="M136 640q34 63 98.5 97t165.5 34q88 0 146 -24t96 -78q18 -25 30 -60t19.5 -74t11 -80t3.5 -77q0 -28 -2.5 -65.5t-9 -76.5t-18 -76t-29.5 -65q-42 -63 -104 -87.5t-143 -24.5q-99 0 -161 27t-94 82q-15 26 -25 60.5t-15.5 73t-7.5 77.5t-2 75q0 31 2 67.5t6.5 72
t12.5 67.5t20 55zM178 119q35 -60 93 -78t129 -18q64 0 113 15.5t87 62.5q18 22 30.5 54t20 69.5t10.5 77t3 76.5q0 34 -2.5 70t-8.5 70.5t-16 65.5t-24 53q-33 53 -87 73.5t-126 20.5q-74 0 -134.5 -24.5t-92.5 -86.5q-10 -21 -17 -50t-11.5 -61.5t-6 -66.5t-1.5 -64
q0 -29 2 -65t6.5 -72t12.5 -68t20 -54zM300 950q6 -20 14.5 -40.5t20.5 -32.5q13 -13 27.5 -18t35.5 -5q40 0 61 24q14 15 22.5 35.5t13.5 36.5h43q-8 -29 -22 -60t-37 -50q-17 -14 -37 -20t-44 -6q-54 0 -86 28q-20 17 -33.5 48t-21.5 60h43z" />
    <glyph glyph-name="obreve" unicode="&#x14f;" 
d="M89 426q21 55 65.5 87t130.5 32q60 0 100 -15.5t69 -53.5q32 -43 40.5 -99t8.5 -111q0 -58 -9.5 -108t-23.5 -79q-23 -46 -67.5 -71t-117.5 -25q-68 0 -109 18t-67 60q-21 33 -31.5 88t-10.5 112q0 44 4.5 88.5t17.5 76.5zM140 89q23 -40 57.5 -53.5t87.5 -13.5
q52 0 87.5 15t55.5 50q17 30 25.5 78.5t8.5 101.5q0 48 -5 88.5t-22 74.5q-23 45 -59.5 60.5t-90.5 15.5q-60 0 -96.5 -19.5t-56.5 -63.5q-14 -29 -19 -73.5t-5 -87.5q0 -51 8 -98t24 -75zM187 754q6 -20 14.5 -40.5t20.5 -32.5q13 -13 27.5 -18t35.5 -5q40 0 61 24
q14 15 22.5 35.5t13.5 36.5h43q-8 -29 -22 -60t-37 -50q-17 -14 -37 -20t-44 -6q-54 0 -86 28q-20 17 -33.5 48t-21.5 60h43z" />
    <glyph glyph-name="Ohungarumlaut" unicode="&#x150;" horiz-adv-x="801" 
d="M136 640q34 63 98.5 97t165.5 34q88 0 146 -24t96 -78q18 -25 30 -60t19.5 -74t11 -80t3.5 -77q0 -28 -2.5 -65.5t-9 -76.5t-18 -76t-29.5 -65q-42 -63 -104 -87.5t-143 -24.5q-99 0 -161 27t-94 82q-15 26 -25 60.5t-15.5 73t-7.5 77.5t-2 75q0 31 2 67.5t6.5 72
t12.5 67.5t20 55zM178 119q35 -60 93 -78t129 -18q64 0 113 15.5t87 62.5q18 22 30.5 54t20 69.5t10.5 77t3 76.5q0 34 -2.5 70t-8.5 70.5t-16 65.5t-24 53q-33 53 -87 73.5t-126 20.5q-74 0 -134.5 -24.5t-92.5 -86.5q-10 -21 -17 -50t-11.5 -61.5t-6 -66.5t-1.5 -64
q0 -29 2 -65t6.5 -72t12.5 -68t20 -54zM503 950h48l-87 -132h-46zM300 818l86 132h48l-88 -132h-46z" />
    <glyph glyph-name="ohungarumlaut" unicode="&#x151;" 
d="M89 426q21 55 65.5 87t130.5 32q60 0 100 -15.5t69 -53.5q32 -43 40.5 -99t8.5 -111q0 -58 -9.5 -108t-23.5 -79q-23 -46 -67.5 -71t-117.5 -25q-68 0 -109 18t-67 60q-21 33 -31.5 88t-10.5 112q0 44 4.5 88.5t17.5 76.5zM140 89q23 -40 57.5 -53.5t87.5 -13.5
q52 0 87.5 15t55.5 50q17 30 25.5 78.5t8.5 101.5q0 48 -5 88.5t-22 74.5q-23 45 -59.5 60.5t-90.5 15.5q-60 0 -96.5 -19.5t-56.5 -63.5q-14 -29 -19 -73.5t-5 -87.5q0 -51 8 -98t24 -75zM391 754h48l-87 -132h-46zM188 622l86 132h48l-88 -132h-46z" />
    <glyph glyph-name="OE" unicode="&#x152;" horiz-adv-x="1166" 
d="M95 378q0 31 2 67.5t6.5 72t12.5 67.5t20 55q34 63 98.5 97t165.5 34q34 0 57.5 -1.5t40.5 -3.5t30 -5.5t26 -6.5h555v-40h-492q6 -6 13.5 -15t14.5 -20q32 -51 40.5 -120t8.5 -153h393v-40h-393q0 -33 -0.5 -72t-5 -78t-14.5 -75.5t-28 -64.5q-8 -13 -15 -21t-14 -15
h508v-40h-571q-25 -8 -60 -12.5t-94 -4.5q-99 0 -161 27t-94 82q-15 26 -25 60.5t-15.5 73t-7.5 77.5t-2 75zM137 378q0 -29 2 -65t6.5 -72t12.5 -68t20 -54q35 -60 93 -78t129 -18q36 0 67.5 2t57.5 9.5t48 22.5t38 41q28 44 34.5 113t6.5 167q0 78 -4.5 147.5t-27.5 114.5
q-14 28 -32.5 45.5t-44 27.5t-60.5 14t-83 4q-74 0 -134.5 -24.5t-92.5 -86.5q-10 -21 -17 -50t-11.5 -61.5t-6 -66.5t-1.5 -64z" />
    <glyph glyph-name="oe" unicode="&#x153;" horiz-adv-x="944" 
d="M89 426q21 55 65.5 87t130.5 32q70 0 118 -24.5t76 -90.5q23 62 75 88.5t123 26.5q77 0 119 -27.5t62 -66.5q14 -26 18 -53.5t4 -52.5q0 -18 -2.5 -44.5t-7.5 -55.5h-372q0 -39 5 -78t20 -68q21 -41 59 -59t106 -18q43 0 89.5 8t75.5 14v-41q-14 -3 -35 -6.5t-44 -6.5
t-45.5 -5t-40.5 -2q-34 0 -67 5t-61 18.5t-49.5 37t-32.5 60.5q-20 -61 -66 -91t-127 -30q-68 0 -109 18t-67 60q-21 33 -31.5 88t-10.5 112q0 44 4.5 88.5t17.5 76.5zM140 89q23 -40 57.5 -53.5t87.5 -13.5q52 0 87 15t55 50q17 30 25 78.5t8 101.5q0 48 -4.5 89t-21.5 74
q-23 45 -59 60.5t-90 15.5q-60 0 -96.5 -19.5t-56.5 -63.5q-14 -29 -19 -73.5t-5 -87.5q0 -51 8 -98t24 -75zM498 284h337q2 13 3 28.5t1 32.5q0 23 -4 47.5t-15 44.5q-39 69 -143 69q-57 0 -96 -19t-59 -61q-7 -14 -11.5 -33t-7.5 -39t-4 -38.5t-1 -31.5z" />
    <glyph glyph-name="Racute" unicode="&#x154;" horiz-adv-x="682" 
d="M110 0v754h240q78 0 122 -8t75 -30q34 -23 49.5 -60.5t15.5 -82.5q0 -49 -21 -86.5t-48 -67.5q-22 -25 -46.5 -49.5t-41.5 -40.5l197 -329h-50l-195 326h-256v-326h-41zM151 714v-348h282q23 22 42.5 42t35.5 38q23 27 41 57.5t18 68.5t-13.5 68.5t-47.5 50.5
q-25 14 -61.5 18.5t-98.5 4.5h-198zM280 818l114 132h57l-115 -132h-56z" />
    <glyph glyph-name="racute" unicode="&#x155;" horiz-adv-x="330" 
d="M88 528h40v-67q18 13 34.5 23t37.5 20q23 11 53 20t63 16v-41q-26 -5 -49.5 -12t-46.5 -18q-24 -11 -47 -25.5t-45 -30.5v-413h-40v528zM98 622l114 132h57l-115 -132h-56z" />
    <glyph glyph-name="uni0156" unicode="&#x156;" horiz-adv-x="682" 
d="M110 0v754h240q78 0 122 -8t75 -30q34 -23 49.5 -60.5t15.5 -82.5q0 -49 -21 -86.5t-48 -67.5q-22 -25 -46.5 -49.5t-41.5 -40.5l197 -329h-50l-195 326h-256v-326h-41zM151 714v-348h282q23 22 42.5 42t35.5 38q23 27 41 57.5t18 68.5t-13.5 68.5t-47.5 50.5
q-25 14 -61.5 18.5t-98.5 4.5h-198zM298 -280q6 27 9.5 48.5t5 41t1.5 39.5v44v44h43v-64q0 -41 -2.5 -74.5t-19.5 -78.5h-37z" />
    <glyph glyph-name="uni0157" unicode="&#x157;" horiz-adv-x="330" 
d="M88 528h40v-67q18 13 34.5 23t37.5 20q23 11 53 20t63 16v-41q-26 -5 -49.5 -12t-46.5 -18q-24 -11 -47 -25.5t-45 -30.5v-413h-40v528zM70 -280q6 27 9.5 48.5t5 41t1.5 39.5v44v44h43v-64q0 -41 -2.5 -74.5t-19.5 -78.5h-37z" />
    <glyph glyph-name="Rcaron" unicode="&#x158;" horiz-adv-x="682" 
d="M110 0v754h240q78 0 122 -8t75 -30q34 -23 49.5 -60.5t15.5 -82.5q0 -49 -21 -86.5t-48 -67.5q-22 -25 -46.5 -49.5t-41.5 -40.5l197 -329h-50l-195 326h-256v-326h-41zM151 714v-348h282q23 22 42.5 42t35.5 38q23 27 41 57.5t18 68.5t-13.5 68.5t-47.5 50.5
q-25 14 -61.5 18.5t-98.5 4.5h-198zM179 950h56l88 -94l87 94h56l-120 -132h-46z" />
    <glyph glyph-name="rcaron" unicode="&#x159;" horiz-adv-x="330" 
d="M88 528h40v-67q18 13 34.5 23t37.5 20q23 11 53 20t63 16v-41q-26 -5 -49.5 -12t-46.5 -18q-24 -11 -47 -25.5t-45 -30.5v-413h-40v528zM24 754h56l88 -94l87 94h56l-120 -132h-46z" />
    <glyph glyph-name="Sacute" unicode="&#x15a;" horiz-adv-x="640" 
d="M69 574q0 32 9.5 71.5t39.5 69.5q32 32 75 44t112 12q63 0 122 -13.5t125 -31.5v-41q-26 7 -57.5 15t-64 15t-64.5 11.5t-61 4.5q-51 0 -87 -7.5t-62 -30.5q-25 -22 -35 -52.5t-10 -66.5q0 -30 5.5 -52t21.5 -39q13 -14 42 -26.5t64 -24.5l170 -59q55 -19 83.5 -36.5
t46.5 -43.5q15 -21 21 -48t6 -59q0 -40 -14.5 -77.5t-40.5 -63.5q-34 -35 -80.5 -48.5t-111.5 -13.5q-32 0 -66.5 4t-67.5 10t-63 13t-52 12v42q25 -6 57 -13t65.5 -13.5t65.5 -10.5t58 -4q53 0 88 8.5t64 31.5q27 21 41.5 54.5t14.5 70.5q0 26 -5.5 48t-19.5 40t-39.5 31.5
t-69.5 28.5l-171 60q-42 14 -71.5 27t-49.5 36q-19 22 -26.5 50t-7.5 65zM255 818l114 132h57l-115 -132h-56z" />
    <glyph glyph-name="sacute" unicode="&#x15b;" horiz-adv-x="503" 
d="M62 406q0 31 10 59t39 48q27 19 58 25.5t76 6.5q21 0 46.5 -3.5t49.5 -8.5t45.5 -10t34.5 -9v-40q-15 4 -37 9.5t-47 10.5t-49.5 8.5t-42.5 3.5q-41 0 -65.5 -5.5t-42.5 -18.5q-20 -14 -27 -34t-7 -42q0 -23 4.5 -38.5t17.5 -26.5q14 -11 32.5 -18.5t49.5 -17.5l101 -33
q37 -12 59 -22.5t39 -26.5q17 -17 26 -40.5t9 -50.5q0 -34 -14.5 -65.5t-44.5 -50.5q-29 -18 -62.5 -25.5t-81.5 -7.5t-91.5 8.5t-78.5 16.5v40q42 -10 84 -18t86 -8q35 0 63.5 5t51.5 19q47 29 47 83q0 17 -4.5 33.5t-16.5 28.5q-14 14 -33.5 22.5t-50.5 19.5l-93 31
q-39 13 -62 21.5t-40 21.5q-23 17 -30.5 42t-7.5 57zM189 622l114 132h57l-115 -132h-56z" />
    <glyph glyph-name="Scircumflex" unicode="&#x15c;" horiz-adv-x="640" 
d="M69 574q0 32 9.5 71.5t39.5 69.5q32 32 75 44t112 12q63 0 122 -13.5t125 -31.5v-41q-26 7 -57.5 15t-64 15t-64.5 11.5t-61 4.5q-51 0 -87 -7.5t-62 -30.5q-25 -22 -35 -52.5t-10 -66.5q0 -30 5.5 -52t21.5 -39q13 -14 42 -26.5t64 -24.5l170 -59q55 -19 83.5 -36.5
t46.5 -43.5q15 -21 21 -48t6 -59q0 -40 -14.5 -77.5t-40.5 -63.5q-34 -35 -80.5 -48.5t-111.5 -13.5q-32 0 -66.5 4t-67.5 10t-63 13t-52 12v42q25 -6 57 -13t65.5 -13.5t65.5 -10.5t58 -4q53 0 88 8.5t64 31.5q27 21 41.5 54.5t14.5 70.5q0 26 -5.5 48t-19.5 40t-39.5 31.5
t-69.5 28.5l-171 60q-42 14 -71.5 27t-49.5 36q-19 22 -26.5 50t-7.5 65zM295 950h46l120 -132h-56l-87 94l-88 -94h-56z" />
    <glyph glyph-name="scircumflex" unicode="&#x15d;" horiz-adv-x="503" 
d="M62 406q0 31 10 59t39 48q27 19 58 25.5t76 6.5q21 0 46.5 -3.5t49.5 -8.5t45.5 -10t34.5 -9v-40q-15 4 -37 9.5t-47 10.5t-49.5 8.5t-42.5 3.5q-41 0 -65.5 -5.5t-42.5 -18.5q-20 -14 -27 -34t-7 -42q0 -23 4.5 -38.5t17.5 -26.5q14 -11 32.5 -18.5t49.5 -17.5l101 -33
q37 -12 59 -22.5t39 -26.5q17 -17 26 -40.5t9 -50.5q0 -34 -14.5 -65.5t-44.5 -50.5q-29 -18 -62.5 -25.5t-81.5 -7.5t-91.5 8.5t-78.5 16.5v40q42 -10 84 -18t86 -8q35 0 63.5 5t51.5 19q47 29 47 83q0 17 -4.5 33.5t-16.5 28.5q-14 14 -33.5 22.5t-50.5 19.5l-93 31
q-39 13 -62 21.5t-40 21.5q-23 17 -30.5 42t-7.5 57zM227 754h46l120 -132h-56l-87 94l-88 -94h-56z" />
    <glyph glyph-name="Scedilla" unicode="&#x15e;" horiz-adv-x="640" 
d="M69 574q0 32 9.5 71.5t39.5 69.5q32 32 75 44t112 12q63 0 122 -13.5t125 -31.5v-41q-26 7 -57.5 15t-64 15t-64.5 11.5t-61 4.5q-51 0 -87 -7.5t-62 -30.5q-25 -22 -35 -52.5t-10 -66.5q0 -30 5.5 -52t21.5 -39q13 -14 42 -26.5t64 -24.5l170 -59q55 -19 83.5 -36.5
t46.5 -43.5q15 -21 21 -48t6 -59q0 -40 -14.5 -77.5t-40.5 -63.5q-34 -35 -80.5 -48.5t-111.5 -13.5q-32 0 -66.5 4t-67.5 10t-63 13t-52 12v42q25 -6 57 -13t65.5 -13.5t65.5 -10.5t58 -4q53 0 88 8.5t64 31.5q27 21 41.5 54.5t14.5 70.5q0 26 -5.5 48t-19.5 40t-39.5 31.5
t-69.5 28.5l-171 60q-42 14 -71.5 27t-49.5 36q-19 22 -26.5 50t-7.5 65zM227 -191l80 131h53l-81 -131h-52z" />
    <glyph glyph-name="scedilla" unicode="&#x15f;" horiz-adv-x="503" 
d="M62 406q0 31 10 59t39 48q27 19 58 25.5t76 6.5q21 0 46.5 -3.5t49.5 -8.5t45.5 -10t34.5 -9v-40q-15 4 -37 9.5t-47 10.5t-49.5 8.5t-42.5 3.5q-41 0 -65.5 -5.5t-42.5 -18.5q-20 -14 -27 -34t-7 -42q0 -23 4.5 -38.5t17.5 -26.5q14 -11 32.5 -18.5t49.5 -17.5l101 -33
q37 -12 59 -22.5t39 -26.5q17 -17 26 -40.5t9 -50.5q0 -34 -14.5 -65.5t-44.5 -50.5q-29 -18 -62.5 -25.5t-81.5 -7.5t-91.5 8.5t-78.5 16.5v40q42 -10 84 -18t86 -8q35 0 63.5 5t51.5 19q47 29 47 83q0 17 -4.5 33.5t-16.5 28.5q-14 14 -33.5 22.5t-50.5 19.5l-93 31
q-39 13 -62 21.5t-40 21.5q-23 17 -30.5 42t-7.5 57zM162 -191l80 131h53l-81 -131h-52z" />
    <glyph glyph-name="Scaron" unicode="&#x160;" horiz-adv-x="640" 
d="M69 574q0 32 9.5 71.5t39.5 69.5q32 32 75 44t112 12q63 0 122 -13.5t125 -31.5v-41q-26 7 -57.5 15t-64 15t-64.5 11.5t-61 4.5q-51 0 -87 -7.5t-62 -30.5q-25 -22 -35 -52.5t-10 -66.5q0 -30 5.5 -52t21.5 -39q13 -14 42 -26.5t64 -24.5l170 -59q55 -19 83.5 -36.5
t46.5 -43.5q15 -21 21 -48t6 -59q0 -40 -14.5 -77.5t-40.5 -63.5q-34 -35 -80.5 -48.5t-111.5 -13.5q-32 0 -66.5 4t-67.5 10t-63 13t-52 12v42q25 -6 57 -13t65.5 -13.5t65.5 -10.5t58 -4q53 0 88 8.5t64 31.5q27 21 41.5 54.5t14.5 70.5q0 26 -5.5 48t-19.5 40t-39.5 31.5
t-69.5 28.5l-171 60q-42 14 -71.5 27t-49.5 36q-19 22 -26.5 50t-7.5 65zM178 950h56l88 -94l87 94h56l-120 -132h-46z" />
    <glyph glyph-name="scaron" unicode="&#x161;" horiz-adv-x="503" 
d="M62 406q0 31 10 59t39 48q27 19 58 25.5t76 6.5q21 0 46.5 -3.5t49.5 -8.5t45.5 -10t34.5 -9v-40q-15 4 -37 9.5t-47 10.5t-49.5 8.5t-42.5 3.5q-41 0 -65.5 -5.5t-42.5 -18.5q-20 -14 -27 -34t-7 -42q0 -23 4.5 -38.5t17.5 -26.5q14 -11 32.5 -18.5t49.5 -17.5l101 -33
q37 -12 59 -22.5t39 -26.5q17 -17 26 -40.5t9 -50.5q0 -34 -14.5 -65.5t-44.5 -50.5q-29 -18 -62.5 -25.5t-81.5 -7.5t-91.5 8.5t-78.5 16.5v40q42 -10 84 -18t86 -8q35 0 63.5 5t51.5 19q47 29 47 83q0 17 -4.5 33.5t-16.5 28.5q-14 14 -33.5 22.5t-50.5 19.5l-93 31
q-39 13 -62 21.5t-40 21.5q-23 17 -30.5 42t-7.5 57zM99 754h56l88 -94l87 94h56l-120 -132h-46z" />
    <glyph glyph-name="uni0162" unicode="&#x162;" horiz-adv-x="661" 
d="M28 754h605v-40h-282v-714h-41v714h-282v40zM242 -191l80 131h53l-81 -131h-52z" />
    <glyph glyph-name="uni0163" unicode="&#x163;" horiz-adv-x="299" 
d="M87 193v467h40v-139h159v-39h-159v-290q0 -35 0.5 -55t2.5 -40q4 -39 35 -50q17 -6 43.5 -9t55.5 -5v-40q-31 2 -61 5.5t-51 10.5q-22 7 -35.5 18.5t-20.5 31.5q-7 21 -8 49.5t-1 84.5zM80 -191l80 131h53l-81 -131h-52z" />
    <glyph glyph-name="Tcaron" unicode="&#x164;" horiz-adv-x="661" 
d="M28 754h605v-40h-282v-714h-41v714h-282v40zM189 950h56l88 -94l87 94h56l-120 -132h-46z" />
    <glyph glyph-name="tcaron" unicode="&#x165;" horiz-adv-x="299" 
d="M127 660v-139h159v-39h-159v-290q0 -35 0.5 -55t2.5 -40q4 -39 35 -50q17 -6 43.5 -9t55.5 -5v-40q-31 2 -61 5.5t-51 10.5q-22 7 -35.5 18.5t-20.5 31.5q-7 21 -8 49.5t-1 84.5v467h40zM227 754v-65q0 -18 -1 -44.5t-6 -72.5h-36v182h43z" />
    <glyph glyph-name="Tbar" unicode="&#x166;" horiz-adv-x="661" 
d="M633 754v-40h-282v-300h150v-40h-150v-374h-41v374h-150v40h150v300h-282v40h605z" />
    <glyph glyph-name="tbar" unicode="&#x167;" horiz-adv-x="301" 
d="M87 193v467h40v-139h159v-39h-159v-116h159v-39h-159v-135q0 -35 0.5 -55t2.5 -40q4 -39 35 -50q17 -6 44.5 -9t54.5 -5v-40q-31 2 -61 5.5t-51 10.5q-22 7 -35.5 19t-20.5 32q-7 21 -8 49t-1 84z" />
    <glyph glyph-name="Utilde" unicode="&#x168;" horiz-adv-x="739" 
d="M147 754v-473q0 -82 10 -132.5t47 -82.5q29 -26 70 -34.5t97 -8.5t96 8.5t70 34.5q37 32 46 83t9 132v473h41v-474q0 -91 -12 -150.5t-60 -97.5q-34 -27 -79.5 -38t-110.5 -11t-111 11t-81 39q-44 35 -58.5 94t-14.5 153v474h41zM198 821q23 61 45 83t57 22q19 0 35.5 -7
t41.5 -28q20 -17 33.5 -26t30.5 -9q26 0 37.5 17t22.5 46h44q-9 -22 -18 -41t-20.5 -32.5t-27.5 -21t-39 -7.5q-20 0 -35.5 5.5t-34.5 22.5q-23 21 -38.5 31.5t-31.5 10.5q-25 0 -37 -20.5t-22 -45.5h-43z" />
    <glyph glyph-name="utilde" unicode="&#x169;" horiz-adv-x="564" 
d="M87 195v333h40v-334q0 -42 3 -77.5t19 -57.5q15 -21 38.5 -29t65.5 -8q58 0 101.5 10.5t81.5 21.5v474h40v-504q-33 -9 -60.5 -17t-53.5 -13t-51.5 -8t-54.5 -3q-51 0 -84.5 10t-55.5 39q-20 26 -24.5 69t-4.5 94zM112 629q23 61 45 83t57 22q19 0 35.5 -7t41.5 -28
q20 -17 33.5 -26t30.5 -9q26 0 37.5 17t22.5 46h44q-9 -22 -18 -41t-20.5 -32.5t-27.5 -21t-39 -7.5q-20 0 -35.5 5.5t-34.5 22.5q-23 21 -38.5 31.5t-31.5 10.5q-25 0 -37 -20.5t-22 -45.5h-43z" />
    <glyph glyph-name="Umacron" unicode="&#x16a;" horiz-adv-x="739" 
d="M147 754v-473q0 -82 10 -132.5t47 -82.5q29 -26 70 -34.5t97 -8.5t96 8.5t70 34.5q37 32 46 83t9 132v473h41v-474q0 -91 -12 -150.5t-60 -97.5q-34 -27 -79.5 -38t-110.5 -11t-111 11t-81 39q-44 35 -58.5 94t-14.5 153v474h41zM237 844v40h267v-40h-267z" />
    <glyph glyph-name="umacron" unicode="&#x16b;" horiz-adv-x="564" 
d="M87 195v333h40v-334q0 -42 3 -77.5t19 -57.5q15 -21 38.5 -29t65.5 -8q58 0 101.5 10.5t81.5 21.5v474h40v-504q-33 -9 -60.5 -17t-53.5 -13t-51.5 -8t-54.5 -3q-51 0 -84.5 10t-55.5 39q-20 26 -24.5 69t-4.5 94zM148 650v40h267v-40h-267z" />
    <glyph glyph-name="Ubreve" unicode="&#x16c;" horiz-adv-x="739" 
d="M147 754v-473q0 -82 10 -132.5t47 -82.5q29 -26 70 -34.5t97 -8.5t96 8.5t70 34.5q37 32 46 83t9 132v473h41v-474q0 -91 -12 -150.5t-60 -97.5q-34 -27 -79.5 -38t-110.5 -11t-111 11t-81 39q-44 35 -58.5 94t-14.5 153v474h41zM274 950q6 -20 14.5 -40.5t20.5 -32.5
q13 -13 27.5 -18t35.5 -5q40 0 61 24q14 15 22.5 35.5t13.5 36.5h43q-8 -29 -22 -60t-37 -50q-17 -14 -37 -20t-44 -6q-54 0 -86 28q-20 17 -33.5 48t-21.5 60h43z" />
    <glyph glyph-name="ubreve" unicode="&#x16d;" horiz-adv-x="564" 
d="M87 195v333h40v-334q0 -42 3 -77.5t19 -57.5q15 -21 38.5 -29t65.5 -8q58 0 101.5 10.5t81.5 21.5v474h40v-504q-33 -9 -60.5 -17t-53.5 -13t-51.5 -8t-54.5 -3q-51 0 -84.5 10t-55.5 39q-20 26 -24.5 69t-4.5 94zM183 754q6 -20 14.5 -40.5t20.5 -32.5q13 -13 27.5 -18
t35.5 -5q40 0 61 24q14 15 22.5 35.5t13.5 36.5h43q-8 -29 -22 -60t-37 -50q-17 -14 -37 -20t-44 -6q-54 0 -86 28q-20 17 -33.5 48t-21.5 60h43z" />
    <glyph glyph-name="Uring" unicode="&#x16e;" horiz-adv-x="739" 
d="M147 754v-473q0 -82 10 -132.5t47 -82.5q29 -26 70 -34.5t97 -8.5t96 8.5t70 34.5q37 32 46 83t9 132v473h41v-474q0 -91 -12 -150.5t-60 -97.5q-34 -27 -79.5 -38t-110.5 -11t-111 11t-81 39q-44 35 -58.5 94t-14.5 153v474h41zM286 967q13 14 32.5 23t48.5 9t48.5 -9
t32.5 -23q25 -26 25 -72q0 -39 -22 -65q-13 -15 -34 -25.5t-50 -10.5t-50 10.5t-34 25.5q-22 26 -22 65q0 46 25 72zM299 895q0 -11 3.5 -23t10.5 -20q8 -9 21 -15t33 -6t33 6t21 15q7 8 10.5 20t3.5 23t-2.5 23t-11.5 23q-18 21 -54 21t-54 -21q-9 -11 -11.5 -23t-2.5 -23z
" />
    <glyph glyph-name="uring" unicode="&#x16f;" horiz-adv-x="564" 
d="M87 195v333h40v-334q0 -42 3 -77.5t19 -57.5q15 -21 38.5 -29t65.5 -8q58 0 101.5 10.5t81.5 21.5v474h40v-504q-33 -9 -60.5 -17t-53.5 -13t-51.5 -8t-54.5 -3q-51 0 -84.5 10t-55.5 39q-20 26 -24.5 69t-4.5 94zM199 770q13 14 32.5 23t48.5 9t48.5 -9t32.5 -23
q25 -26 25 -72q0 -39 -22 -65q-13 -15 -34 -25.5t-50 -10.5t-50 10.5t-34 25.5q-22 26 -22 65q0 46 25 72zM212 698q0 -11 3.5 -23t10.5 -20q8 -9 21 -15t33 -6t33 6t21 15q7 8 10.5 20t3.5 23t-2.5 23t-11.5 23q-18 21 -54 21t-54 -21q-9 -11 -11.5 -23t-2.5 -23z" />
    <glyph glyph-name="Uhungarumlaut" unicode="&#x170;" horiz-adv-x="739" 
d="M147 754v-473q0 -82 10 -132.5t47 -82.5q29 -26 70 -34.5t97 -8.5t96 8.5t70 34.5q37 32 46 83t9 132v473h41v-474q0 -91 -12 -150.5t-60 -97.5q-34 -27 -79.5 -38t-110.5 -11t-111 11t-81 39q-44 35 -58.5 94t-14.5 153v474h41zM469 950h48l-87 -132h-46zM266 818
l86 132h48l-88 -132h-46z" />
    <glyph glyph-name="uhungarumlaut" unicode="&#x171;" horiz-adv-x="564" 
d="M87 195v333h40v-334q0 -42 3 -77.5t19 -57.5q15 -21 38.5 -29t65.5 -8q58 0 101.5 10.5t81.5 21.5v474h40v-504q-33 -9 -60.5 -17t-53.5 -13t-51.5 -8t-54.5 -3q-51 0 -84.5 10t-55.5 39q-20 26 -24.5 69t-4.5 94zM383 754h48l-87 -132h-46zM180 622l86 132h48l-88 -132
h-46z" />
    <glyph glyph-name="Uogonek" unicode="&#x172;" horiz-adv-x="739" 
d="M106 280v474h41v-473q0 -82 10 -132.5t47 -82.5q29 -26 70 -34.5t97 -8.5t96 8.5t70 34.5q37 32 46 83t9 132v473h41v-474q0 -68 -7 -127.5t-46 -102.5q-14 -15 -32 -26.5t-42 -22.5q-14 -7 -39.5 -26t-46.5 -45q-14 -17 -20 -28t-6 -25q0 -30 31 -30q17 0 36.5 6.5
t37.5 14.5v-43q-39 -18 -72 -18q-38 0 -58 21q-17 19 -17 52q0 17 8 34t21 32q8 9 19.5 19.5t22.5 19.5q-10 -1 -24 -1.5t-28 -0.5q-65 0 -111 11t-81 39q-44 35 -58.5 94t-14.5 153z" />
    <glyph glyph-name="uogonek" unicode="&#x173;" horiz-adv-x="564" 
d="M127 528v-334q0 -42 3 -77.5t19 -57.5q15 -21 38.5 -29t65.5 -8q58 0 101.5 10.5t81.5 21.5v474h40v-504q-14 -17 -38 -44.5t-41 -47.5q-26 -30 -26 -55q0 -30 31 -30q17 0 36.5 6.5t37.5 14.5v-43q-39 -18 -72 -18q-38 0 -58 21q-17 19 -17 52q0 17 8 34t21 32
q10 12 27 30.5t30 30.5q-44 -12 -79 -18t-80 -6q-51 0 -84.5 10t-55.5 39q-20 26 -24.5 69t-4.5 94v333h40z" />
    <glyph glyph-name="Wcircumflex" unicode="&#x174;" horiz-adv-x="884" 
d="M38 754h42l151 -718l181 604h60l181 -604l151 718h42l-159 -754h-66l-179 599l-179 -599h-66zM411 950h46l120 -132h-56l-87 94l-88 -94h-56z" />
    <glyph glyph-name="wcircumflex" unicode="&#x175;" horiz-adv-x="752" 
d="M20 528h42l138 -484l146 484h60l146 -484l138 484h42l-151 -528h-57l-148 491l-148 -491h-57zM356 754h46l120 -132h-56l-87 94l-88 -94h-56z" />
    <glyph glyph-name="Ycircumflex" unicode="&#x176;" horiz-adv-x="592" 
d="M43 754l253 -417l253 417h49l-281 -464v-290h-42v290l-281 464h49zM274 950h46l120 -132h-56l-87 94l-88 -94h-56z" />
    <glyph glyph-name="ycircumflex" unicode="&#x177;" horiz-adv-x="487" 
d="M58 528l185 -463l187 463h43l-290 -720h-44l82 202l-207 518h44zM220 754h46l120 -132h-56l-87 94l-88 -94h-56z" />
    <glyph glyph-name="Ydieresis" unicode="&#x178;" horiz-adv-x="592" 
d="M43 754l253 -417l253 417h49l-281 -464v-290h-42v290l-281 464h49zM364 950h44v-126h-44v126zM183 824v126h44v-126h-44z" />
    <glyph glyph-name="Zacute" unicode="&#x179;" horiz-adv-x="633" 
d="M53 0v45l472 669h-457v40h505v-45l-472 -669h479v-40h-527zM257 818l114 132h57l-115 -132h-56z" />
    <glyph glyph-name="zacute" unicode="&#x17a;" horiz-adv-x="516" 
d="M45 0v35l366 454h-350v39h406v-35l-366 -454h374v-39h-430zM204 622l114 132h57l-115 -132h-56z" />
    <glyph glyph-name="Zdotaccent" unicode="&#x17b;" horiz-adv-x="633" 
d="M53 0v45l472 669h-457v40h505v-45l-472 -669h479v-40h-527zM291 824v126h44v-126h-44z" />
    <glyph glyph-name="zdotaccent" unicode="&#x17c;" horiz-adv-x="516" 
d="M45 0v35l366 454h-350v39h406v-35l-366 -454h374v-39h-430zM237 628v126h44v-126h-44z" />
    <glyph glyph-name="Zcaron" unicode="&#x17d;" horiz-adv-x="633" 
d="M53 0v45l472 669h-457v40h505v-45l-472 -669h479v-40h-527zM174 950h56l88 -94l87 94h56l-120 -132h-46z" />
    <glyph glyph-name="zcaron" unicode="&#x17e;" horiz-adv-x="516" 
d="M45 0v35l366 454h-350v39h406v-35l-366 -454h374v-39h-430zM119 754h56l88 -94l87 94h56l-120 -132h-46z" />
    <glyph glyph-name="uni018F" unicode="&#x18f;" horiz-adv-x="728" 
d="M102 382h489q0 75 -9 139.5t-31 106.5q-31 58 -75.5 80.5t-120.5 22.5q-58 0 -118 -11.5t-118 -25.5v41q54 13 113 24.5t118 11.5q96 0 147.5 -28t83.5 -82q31 -51 41.5 -127t10.5 -170q0 -88 -10.5 -143t-28.5 -95q-32 -72 -89.5 -107.5t-147.5 -35.5q-75 0 -126.5 17
t-86.5 62q-26 32 -38.5 80t-12.5 109q0 32 2 63.5t7 67.5zM135 257q0 -49 8 -91t28 -70q29 -42 74.5 -57.5t110.5 -15.5q81 0 129.5 34t73.5 93q14 32 23 83.5t9 108.5h-451q-2 -11 -3.5 -30.5t-1.5 -54.5z" />
    <glyph glyph-name="florin" unicode="&#x192;" horiz-adv-x="344" 
d="M-11 -211v43q7 3 20 10t27.5 15t28 16t20.5 15q14 12 21 23t12 25q5 13 6 40t1 48v495q0 25 0.5 53.5t4.5 58.5q3 23 13 44.5t29 38.5q31 27 68.5 39.5t73.5 21.5v-41q-35 -9 -67.5 -21t-54.5 -37q-14 -17 -18 -35t-6 -35q-2 -26 -2.5 -47t-0.5 -38h151v-39h-151v-458
q0 -21 -1.5 -51t-6.5 -47q-8 -26 -21 -42t-36 -34q-10 -8 -25 -17t-30.5 -17t-30.5 -15t-25 -12z" />
    <glyph glyph-name="uni019D" unicode="&#x19d;" horiz-adv-x="756" 
d="M-78 -215v42q26 8 59.5 20.5t62.5 29.5q22 12 35.5 24.5t20.5 31.5q8 22 9 58t1 76v687h62l433 -709v709h41v-754h-62l-433 709v-637q0 -53 -1.5 -88t-9.5 -62q-12 -39 -51 -65q-40 -26 -84.5 -43t-82.5 -29z" />
    <glyph glyph-name="Gcaron" unicode="&#x1e6;" horiz-adv-x="740" 
d="M95 375q0 39 2.5 79.5t8.5 78t15.5 71t24.5 58.5q33 57 83.5 83t142.5 26q37 0 68.5 -4.5t58.5 -9.5q29 -6 57.5 -13t50.5 -13v-41q-29 8 -60 14.5t-64 13.5q-26 5 -53.5 9t-57.5 4q-76 0 -121.5 -21.5t-74.5 -79.5q-20 -42 -29.5 -113t-9.5 -143q0 -75 8.5 -134.5
t23.5 -96.5q15 -36 36.5 -59.5t49 -37t61 -18.5t71.5 -5q51 0 107 7t98 13v358h41v-393q-63 -9 -129.5 -17t-131.5 -8q-53 0 -92 10t-67.5 28.5t-48 45t-33.5 58.5q-18 41 -27 107.5t-9 142.5zM234 950h56l88 -94l87 94h56l-120 -132h-46z" />
    <glyph glyph-name="gcaron" unicode="&#x1e7;" horiz-adv-x="574" 
d="M68 270q0 59 7.5 106.5t27.5 83.5q28 51 71 68t101 17q23 0 51 -5.5t57.5 -13t56.5 -16t46 -14.5v-466q0 -65 -17 -107.5t-43 -69.5q-29 -29 -74.5 -45.5t-101.5 -16.5q-42 0 -85.5 4.5t-78.5 9.5v41q14 -2 34 -5t42 -5.5t45 -4t43 -1.5q49 0 87.5 14.5t64.5 44.5
q23 27 33.5 65.5t10.5 78.5v29q-11 -5 -30.5 -14t-48.5 -21q-30 -12 -61.5 -19.5t-63.5 -7.5q-66 0 -96 22t-47 56q-16 31 -23.5 82t-7.5 110zM135 97q15 -32 40 -45t67 -13q26 0 51 6t53 17q32 12 54 22.5t46 22.5v360q-11 4 -31.5 10.5t-45 13t-50 11t-46.5 4.5
q-53 0 -84.5 -15t-51.5 -53q-15 -29 -21.5 -74t-6.5 -94q0 -116 26 -173zM139 754h56l88 -94l87 94h56l-120 -132h-46z" />
    <glyph glyph-name="uni01EA" unicode="&#x1ea;" horiz-adv-x="801" 
d="M136 640q34 63 98.5 97t165.5 34q88 0 146 -24t96 -78q18 -25 30 -60t19.5 -74t11 -80t3.5 -77q0 -28 -2.5 -65.5t-9 -76.5t-18 -76t-29.5 -65q-30 -47 -63.5 -66t-65.5 -32q-15 -6 -38.5 -23t-45.5 -44q-14 -17 -20 -28t-6 -25q0 -30 31 -30q17 0 36.5 6.5t37.5 14.5
v-43q-39 -18 -72 -18q-38 0 -58 21q-17 19 -17 52q0 17 8 34t21 32q16 19 40 38q-8 -1 -15.5 -1h-18.5q-38 0 -75.5 4t-70.5 16t-61.5 33.5t-48.5 55.5q-15 26 -25 60.5t-15.5 73t-7.5 77.5t-2 75q0 31 2 67.5t6.5 72t12.5 67.5t20 55zM178 119q35 -60 93 -78t129 -18
q64 0 113 15.5t87 62.5q18 22 30.5 54t20 69.5t10.5 77t3 76.5q0 34 -2.5 70t-8.5 70.5t-16 65.5t-24 53q-33 53 -87 73.5t-126 20.5q-74 0 -134.5 -24.5t-92.5 -86.5q-10 -21 -17 -50t-11.5 -61.5t-6 -66.5t-1.5 -64q0 -29 2 -65t6.5 -72t12.5 -68t20 -54z" />
    <glyph glyph-name="uni01EB" unicode="&#x1eb;" 
d="M67 261q0 44 4.5 88.5t17.5 76.5q21 55 65.5 87t130.5 32q60 0 100 -15.5t69 -53.5q32 -43 40.5 -99t8.5 -111q0 -58 -9.5 -108t-23.5 -79q-28 -57 -94 -83q-23 -9 -44 -28t-38 -38q-14 -16 -20 -27.5t-6 -25.5q0 -30 31 -30q17 0 36.5 6.5t37.5 14.5v-43
q-39 -18 -72 -18q-38 0 -58 21q-17 19 -17 52q0 16 6.5 32t22.5 33q17 18 41 38q-29 0 -56 2.5t-50.5 10.5t-43.5 23.5t-37 41.5q-21 33 -31.5 88t-10.5 112zM140 89q23 -40 57.5 -53.5t87.5 -13.5q52 0 87.5 15t55.5 50q17 30 25.5 78.5t8.5 101.5q0 48 -5 88.5t-22 74.5
q-23 45 -59.5 60.5t-90.5 15.5q-60 0 -96.5 -19.5t-56.5 -63.5q-14 -29 -19 -73.5t-5 -87.5q0 -51 8 -98t24 -75z" />
    <glyph glyph-name="Aringacute" unicode="&#x1fa;" horiz-adv-x="673" 
d="M296 720q-14 5 -25 12.5t-19 17.5q-22 26 -22 65q0 46 25 72q13 14 32.5 23t48.5 9t48.5 -9t32.5 -23q25 -26 25 -72q0 -39 -22 -65q-18 -22 -45 -30l277 -720h-45l-83 215h-377l-82 -215h-44zM162 255h347l-174 455zM282 772q8 -9 21 -15t33 -6t33 6t21 15q7 8 10.5 20
t3.5 23t-2.5 23t-11.5 23q-18 21 -54 21t-54 -21q-9 -11 -11.5 -23t-2.5 -23t3.5 -23t10.5 -20zM294 955l88 100h59l-90 -100h-57z" />
    <glyph glyph-name="aringacute" unicode="&#x1fb;" 
d="M108 463q33 51 77 66.5t100 15.5q44 0 93 -16t104 -37v-492h-40v97q-16 -14 -31 -27t-34 -28q-35 -28 -66.5 -43.5t-72.5 -15.5q-61 0 -91 23.5t-49 60.5q-16 32 -23.5 87t-7.5 115q0 57 9 108t32 86zM132 91q17 -35 40.5 -52t65.5 -17q49 0 106 45q26 20 52 41.5
t46 40.5v316q-42 16 -81 28.5t-79 12.5q-51 0 -85.5 -15.5t-56.5 -53.5q-17 -29 -24.5 -75t-7.5 -93q0 -56 6 -104t18 -74zM210 770q13 14 32.5 23t48.5 9t48.5 -9t32.5 -23q25 -26 25 -72q0 -39 -22 -65q-13 -15 -34 -25.5t-50 -10.5t-50 10.5t-34 25.5q-22 26 -22 65
q0 46 25 72zM223 698q0 -11 3.5 -23t10.5 -20q8 -9 21 -15t33 -6t33 6t21 15q7 8 10.5 20t3.5 23t-2.5 23t-11.5 23q-18 21 -54 21t-54 -21q-9 -11 -11.5 -23t-2.5 -23zM253 822l110 128h57l-111 -128h-56z" />
    <glyph glyph-name="AEacute" unicode="&#x1fc;" horiz-adv-x="1068" 
d="M2 0l503 754h506v-40h-443v-308h421v-40h-421v-326h459v-40h-500v215h-332l-144 -215h-49zM222 255h305v460zM511 818l114 132h57l-115 -132h-56z" />
    <glyph glyph-name="aeacute" unicode="&#x1fd;" horiz-adv-x="918" 
d="M65 133q0 39 15 73.5t45 51.5q32 17 71.5 21.5t106.5 4.5h131v78q0 32 -1.5 57.5t-11.5 42.5q-14 24 -44.5 34t-83.5 10q-21 0 -49.5 -3.5t-58 -9t-56 -11t-43.5 -9.5v40q18 4 45 9.5t55.5 10.5t56.5 8.5t48 3.5q72 0 114.5 -17.5t61.5 -69.5q19 37 62.5 62t121.5 25
q77 0 119 -27.5t62 -66.5q14 -26 18 -53.5t4 -52.5q0 -18 -2.5 -44.5t-7.5 -55.5h-371q0 -39 2.5 -78.5t18.5 -68.5q22 -41 61 -58.5t107 -17.5q43 0 89.5 8t75.5 14v-41q-14 -3 -35 -6.5t-44 -6.5t-45.5 -5t-40.5 -2q-35 0 -68 5.5t-61 18.5t-49.5 35t-33.5 55
q-24 -19 -41.5 -32t-40.5 -28q-35 -23 -72.5 -38.5t-71.5 -15.5q-41 0 -68 7t-49 27q-23 20 -32.5 49t-9.5 67zM473 284h335q5 28 5 60q0 23 -4 48t-15 45q-39 69 -143 69q-57 0 -96 -19t-59 -61q-14 -28 -18.5 -63t-4.5 -79zM138 45q26 -22 81 -22q31 0 64.5 14.5
t70.5 38.5q20 13 39.5 26.5t40.5 29.5v113h-138q-48 0 -86 -3.5t-65 -20.5q-23 -14 -31 -37t-8 -51q0 -32 7 -53t25 -35zM408 622l114 132h57l-115 -132h-56z" />
    <glyph glyph-name="Oslashacute" unicode="&#x1fe;" horiz-adv-x="801" 
d="M136 640q34 63 98.5 97t165.5 34q88 0 146 -24t96 -78q18 -25 30 -60t19.5 -74t11 -80t3.5 -77q0 -28 -2.5 -65.5t-9 -76.5t-18 -76t-29.5 -65q-42 -63 -104 -87.5t-143 -24.5q-99 0 -161 27t-94 82q-15 26 -25 60.5t-15.5 73t-7.5 77.5t-2 75q0 31 2 67.5t6.5 72
t12.5 67.5t20 55zM400 23q64 0 113 15.5t87 62.5q18 22 30.5 54t20 69.5t10.5 77t3 76.5q0 31 -2.5 69.5t-10 77.5t-20.5 74.5t-34 59.5l-371 -594q35 -26 79 -34t95 -8zM196 93l371 594q-32 25 -73.5 34.5t-93.5 9.5q-74 0 -134.5 -24.5t-92.5 -86.5q-10 -21 -17 -50
t-11.5 -61.5t-6 -66.5t-1.5 -64t1.5 -69.5t7.5 -79.5t18 -76t32 -60zM344 818l114 132h57l-115 -132h-56z" />
    <glyph glyph-name="oslashacute" unicode="&#x1ff;" 
d="M89 426q21 55 65.5 87t130.5 32q60 0 100 -15.5t69 -53.5q32 -43 40.5 -99t8.5 -111q0 -58 -9.5 -108t-23.5 -79q-23 -46 -67.5 -71t-117.5 -25q-68 0 -109 18t-67 60q-21 33 -31.5 88t-10.5 112q0 44 4.5 88.5t17.5 76.5zM285 22q52 0 87.5 15t55.5 50q17 30 25.5 78.5
t8.5 101.5q0 20 -1 45t-5 50.5t-11.5 48.5t-21.5 39l-249 -401q21 -15 48 -21t63 -6zM146 78l249 401q-21 15 -48 21t-62 6q-60 0 -96.5 -19.5t-56.5 -63.5q-14 -29 -19 -73.5t-5 -87.5q0 -20 1.5 -45t6 -50t11.5 -48.5t19 -40.5zM217 622l114 132h57l-115 -132h-56z" />
    <glyph glyph-name="uni0218" unicode="&#x218;" horiz-adv-x="640" 
d="M69 574q0 32 9.5 71.5t39.5 69.5q32 32 75 44t112 12q63 0 122 -13.5t125 -31.5v-41q-26 7 -57.5 15t-64 15t-64.5 11.5t-61 4.5q-51 0 -87 -7.5t-62 -30.5q-25 -22 -35 -52.5t-10 -66.5q0 -30 5.5 -52t21.5 -39q13 -14 42 -26.5t64 -24.5l170 -59q55 -19 83.5 -36.5
t46.5 -43.5q15 -21 21 -48t6 -59q0 -40 -14.5 -77.5t-40.5 -63.5q-34 -35 -80.5 -48.5t-111.5 -13.5q-32 0 -66.5 4t-67.5 10t-63 13t-52 12v42q25 -6 57 -13t65.5 -13.5t65.5 -10.5t58 -4q53 0 88 8.5t64 31.5q27 21 41.5 54.5t14.5 70.5q0 26 -5.5 48t-19.5 40t-39.5 31.5
t-69.5 28.5l-171 60q-42 14 -71.5 27t-49.5 36q-19 22 -26.5 50t-7.5 65zM284 -277q6 27 9.5 48.5t5 41t1.5 39.5v44v44h43v-64q0 -41 -2.5 -74.5t-19.5 -78.5h-37z" />
    <glyph glyph-name="uni0219" unicode="&#x219;" horiz-adv-x="503" 
d="M62 406q0 31 10 59t39 48q27 19 58 25.5t76 6.5q21 0 46.5 -3.5t49.5 -8.5t45.5 -10t34.5 -9v-40q-15 4 -37 9.5t-47 10.5t-49.5 8.5t-42.5 3.5q-41 0 -65.5 -5.5t-42.5 -18.5q-20 -14 -27 -34t-7 -42q0 -23 4.5 -38.5t17.5 -26.5q14 -11 32.5 -18.5t49.5 -17.5l101 -33
q37 -12 59 -22.5t39 -26.5q17 -17 26 -40.5t9 -50.5q0 -34 -14.5 -65.5t-44.5 -50.5q-29 -18 -62.5 -25.5t-81.5 -7.5t-91.5 8.5t-78.5 16.5v40q42 -10 84 -18t86 -8q35 0 63.5 5t51.5 19q47 29 47 83q0 17 -4.5 33.5t-16.5 28.5q-14 14 -33.5 22.5t-50.5 19.5l-93 31
q-39 13 -62 21.5t-40 21.5q-23 17 -30.5 42t-7.5 57zM215 -280q6 27 9.5 48.5t5 41t1.5 39.5v44v44h43v-64q0 -41 -2.5 -74.5t-19.5 -78.5h-37z" />
    <glyph glyph-name="uni021A" unicode="&#x21a;" horiz-adv-x="661" 
d="M28 754h605v-40h-282v-714h-41v714h-282v40zM294 -280q6 27 9.5 48.5t5 41t1.5 39.5v44v44h43v-64q0 -41 -2.5 -74.5t-19.5 -78.5h-37z" />
    <glyph glyph-name="uni021B" unicode="&#x21b;" horiz-adv-x="299" 
d="M87 193v467h40v-139h159v-39h-159v-290q0 -35 0.5 -55t2.5 -40q4 -39 35 -50q17 -6 43.5 -9t55.5 -5v-40q-31 2 -61 5.5t-51 10.5q-22 7 -35.5 18.5t-20.5 31.5q-7 21 -8 49.5t-1 84.5zM123 -280q6 27 9.5 48.5t5 41t1.5 39.5v44v44h43v-64q0 -41 -2.5 -74.5t-19.5 -78.5
h-37z" />
    <glyph glyph-name="uni0232" unicode="&#x232;" horiz-adv-x="592" 
d="M43 754l253 -417l253 417h49l-281 -464v-290h-42v290l-281 464h49zM162 846v40h267v-40h-267z" />
    <glyph glyph-name="uni0233" unicode="&#x233;" horiz-adv-x="487" 
d="M58 528l185 -463l187 463h43l-290 -720h-44l82 202l-207 518h44zM109 650v40h267v-40h-267z" />
    <glyph glyph-name="uni0237" unicode="&#x237;" horiz-adv-x="227" 
d="M-37 -167l21 10.5t27 14t27 15.5t21 15q14 12 20.5 23t11.5 25t6.5 40.5t1.5 49.5v502h40v-496q0 -29 -1 -59t-6 -47q-7 -24 -20 -42t-38 -36q-21 -16 -55 -32.5t-56 -26.5v44z" />
    <glyph glyph-name="uni0259" unicode="&#x259;" horiz-adv-x="554" 
d="M74 283h373q0 39 -5.5 78t-20.5 68q-21 41 -59 59t-106 18q-43 0 -88.5 -7.5t-76.5 -13.5v40q14 3 35 6.5t44 6.5t45.5 5t40.5 2q85 0 129 -22.5t68 -66.5q19 -34 26.5 -78t7.5 -113q0 -51 -5.5 -97.5t-26.5 -88.5q-20 -40 -63.5 -68t-124.5 -28q-77 0 -119 27.5
t-62 66.5q-14 26 -18 53.5t-4 52.5q0 18 2.5 44.5t7.5 55.5zM124 91q39 -69 143 -69q57 0 96 19t59 61q14 28 19.5 67t5.5 75h-337q-5 -28 -5 -61q0 -23 4 -47.5t15 -44.5z" />
    <glyph glyph-name="uni0272" unicode="&#x272;" horiz-adv-x="575" 
d="M-48 -211v44l21 10.5t27 14t27 15.5t21 15q14 12 20.5 23t11.5 25t6.5 40.5t1.5 49.5v502h40v-43q57 26 104 43t98 17q45 0 76.5 -10.5t52.5 -37.5t25.5 -65.5t4.5 -80.5v-351h-40v353q0 38 -4 68t-19 50t-39 27.5t-57 7.5q-48 0 -101 -21t-101 -43v-410q0 -29 -1 -59
t-6 -47q-7 -24 -20 -42t-38 -36q-21 -16 -55 -32.5t-56 -26.5z" />
    <glyph glyph-name="circumflex" unicode="&#x2c6;" horiz-adv-x="375" 
d="M165 754h46l120 -132h-56l-87 94l-88 -94h-56z" />
    <glyph glyph-name="caron" unicode="&#x2c7;" horiz-adv-x="375" 
d="M44 754h56l88 -94l87 94h56l-120 -132h-46z" />
    <glyph glyph-name="breve" unicode="&#x2d8;" horiz-adv-x="375" 
d="M90 754q6 -20 14.5 -40.5t20.5 -32.5q13 -13 27.5 -18t35.5 -5q40 0 61 24q14 15 22.5 35.5t13.5 36.5h43q-8 -29 -22 -60t-37 -50q-17 -14 -37 -20t-44 -6q-54 0 -86 28q-20 17 -33.5 48t-21.5 60h43z" />
    <glyph glyph-name="dotaccent" unicode="&#x2d9;" horiz-adv-x="375" 
d="M165 628v126h44v-126h-44z" />
    <glyph glyph-name="ring" unicode="&#x2da;" horiz-adv-x="375" 
d="M107 770q13 14 32.5 23t48.5 9t48.5 -9t32.5 -23q25 -26 25 -72q0 -39 -22 -65q-13 -15 -34 -25.5t-50 -10.5t-50 10.5t-34 25.5q-22 26 -22 65q0 46 25 72zM120 698q0 -11 3.5 -23t10.5 -20q8 -9 21 -15t33 -6t33 6t21 15q7 8 10.5 20t3.5 23t-2.5 23t-11.5 23
q-18 21 -54 21t-54 -21q-9 -11 -11.5 -23t-2.5 -23z" />
    <glyph glyph-name="ogonek" unicode="&#x2db;" horiz-adv-x="375" 
d="M228 -120q0 17 8 34t21 32q23 27 56 54h62q-18 -14 -40 -32.5t-39 -37.5q-14 -16 -20 -27.5t-6 -25.5q0 -30 31 -30q17 0 36.5 6.5t37.5 14.5v-43q-39 -18 -72 -18q-38 0 -58 21q-17 19 -17 52z" />
    <glyph glyph-name="tilde" unicode="&#x2dc;" horiz-adv-x="375" 
d="M14 634q23 61 45 83t57 22q19 0 35.5 -7t41.5 -28q20 -17 33.5 -26t30.5 -9q26 0 37.5 17t22.5 46h44q-9 -22 -18 -41t-20.5 -32.5t-27.5 -21t-39 -7.5q-20 0 -35.5 5.5t-34.5 22.5q-23 21 -38.5 31.5t-31.5 10.5q-25 0 -37 -20.5t-22 -45.5h-43z" />
    <glyph glyph-name="hungarumlaut" unicode="&#x2dd;" horiz-adv-x="375" 
d="M274 754h48l-87 -132h-46zM71 622l86 132h48l-88 -132h-46z" />
    <glyph glyph-name="uni0326" unicode="&#x326;" horiz-adv-x="375" 
d="M157 -280q6 27 9.5 48.5t5 41t1.5 39.5v44v44h43v-64q0 -41 -2.5 -74.5t-19.5 -78.5h-37z" />
    <glyph glyph-name="pi" unicode="&#x3c0;" horiz-adv-x="585" 
d="M565 528v-39h-111v-297q0 -33 0.5 -57.5t2.5 -44.5t8.5 -30.5t24.5 -16.5q14 -5 27 -6.5t27 -3.5v-40q-20 2 -33.5 4.5t-32.5 7.5q-44 12 -55 48q-7 23 -8 53.5t-1 85.5v297h-247v-489h-40v489h-111v39h549z" />
    <glyph glyph-name="Wgrave" unicode="&#x1e80;" horiz-adv-x="884" 
d="M38 754h42l151 -718l181 604h60l181 -604l151 718h42l-159 -754h-66l-179 599l-179 -599h-66zM427 818l-111 132h56l110 -132h-55z" />
    <glyph glyph-name="wgrave" unicode="&#x1e81;" horiz-adv-x="752" 
d="M20 528h42l138 -484l146 484h60l146 -484l138 484h42l-151 -528h-57l-148 491l-148 -491h-57zM375 622l-111 132h56l110 -132h-55z" />
    <glyph glyph-name="Wacute" unicode="&#x1e82;" horiz-adv-x="884" 
d="M38 754h42l151 -718l181 604h60l181 -604l151 718h42l-159 -754h-66l-179 599l-179 -599h-66zM380 818l114 132h57l-115 -132h-56z" />
    <glyph glyph-name="wacute" unicode="&#x1e83;" horiz-adv-x="752" 
d="M20 528h42l138 -484l146 484h60l146 -484l138 484h42l-151 -528h-57l-148 491l-148 -491h-57zM323 622l114 132h57l-115 -132h-56z" />
    <glyph glyph-name="Wdieresis" unicode="&#x1e84;" horiz-adv-x="884" 
d="M38 754h42l151 -718l181 604h60l181 -604l151 718h42l-159 -754h-66l-179 599l-179 -599h-66zM499 950h43v-126h-43v126zM380 950v-126h-43v126h43z" />
    <glyph glyph-name="wdieresis" unicode="&#x1e85;" horiz-adv-x="752" 
d="M20 528h42l138 -484l146 484h60l146 -484l138 484h42l-151 -528h-57l-148 491l-148 -491h-57zM436 754h43v-126h-43v126zM317 754v-126h-43v126h43z" />
    <glyph glyph-name="Germandbls" unicode="&#x1e9e;" horiz-adv-x="744" 
d="M106 375q0 96 4.5 167t30.5 122q30 57 86.5 82t160.5 25q62 0 128.5 -13t119.5 -28v-42l-157 -279l58 -29q48 -24 75 -43t47 -46q29 -41 29 -109q0 -41 -13 -76.5t-42 -63.5q-34 -33 -83.5 -46t-116.5 -13q-42 0 -88.5 6.5t-72.5 11.5v41q23 -5 68 -12t93 -7
q57 0 93.5 7.5t65.5 30.5q29 22 41.5 55t12.5 68q0 26 -5 47t-19 40q-14 17 -37.5 34t-64.5 37l-97 48l173 309q-18 5 -42.5 10.5t-52 10.5t-56.5 8t-57 3q-76 0 -131.5 -17t-83.5 -77q-19 -41 -22.5 -105t-3.5 -145v-387h-41v375z" />
    <glyph glyph-name="uni1EA0" unicode="&#x1ea0;" horiz-adv-x="673" 
d="M21 0l288 754h53l290 -754h-45l-83 215h-377l-82 -215h-44zM162 255h347l-174 455zM314 -192v126h44v-126h-44z" />
    <glyph glyph-name="uni1EA1" unicode="&#x1ea1;" 
d="M108 463q33 51 77 66.5t100 15.5q44 0 93 -16t104 -37v-492h-40v97q-16 -14 -31 -27t-34 -28q-35 -28 -66.5 -43.5t-72.5 -15.5q-61 0 -91 23.5t-49 60.5q-16 32 -23.5 87t-7.5 115q0 57 9 108t32 86zM132 91q17 -35 40.5 -52t65.5 -17q49 0 106 45q26 20 52 41.5
t46 40.5v316q-42 16 -81 28.5t-79 12.5q-51 0 -85.5 -15.5t-56.5 -53.5q-17 -29 -24.5 -75t-7.5 -93q0 -56 6 -104t18 -74zM249 -192v126h44v-126h-44z" />
    <glyph glyph-name="uni1EB8" unicode="&#x1eb8;" horiz-adv-x="651" 
d="M594 754v-40h-443v-308h421v-40h-421v-326h459v-40h-500v754h484zM329 -187v126h44v-126h-44z" />
    <glyph glyph-name="uni1EB9" unicode="&#x1eb9;" horiz-adv-x="554" 
d="M67 263q0 51 5.5 97.5t26.5 88.5q20 40 63.5 68t124.5 28q77 0 119 -27.5t62 -66.5q14 -26 18 -53.5t4 -52.5q0 -18 -2.5 -44.5t-7.5 -55.5h-373q0 -39 5.5 -78t20.5 -68q21 -41 59 -59t106 -18q43 0 88.5 7.5t76.5 13.5v-40q-14 -3 -35 -6.5t-44 -6.5t-45.5 -5t-40.5 -2
q-85 0 -129 22.5t-68 66.5q-19 34 -26.5 78t-7.5 113zM107 284h337q5 28 5 61q0 23 -4 47.5t-15 44.5q-39 69 -143 69q-57 0 -96 -19t-59 -61q-14 -28 -19.5 -69t-5.5 -73zM252 -186v126h44v-126h-44z" />
    <glyph glyph-name="uni1EBC" unicode="&#x1ebc;" horiz-adv-x="651" 
d="M594 754v-40h-443v-308h421v-40h-421v-326h459v-40h-500v754h484zM186 821q23 61 45 83t57 22q19 0 35.5 -7t41.5 -28q20 -17 33.5 -26t30.5 -9q26 0 37.5 17t22.5 46h44q-9 -22 -18 -41t-20.5 -32.5t-27.5 -21t-39 -7.5q-20 0 -35.5 5.5t-34.5 22.5q-23 21 -38.5 31.5
t-31.5 10.5q-25 0 -37 -20.5t-22 -45.5h-43z" />
    <glyph glyph-name="uni1EBD" unicode="&#x1ebd;" horiz-adv-x="554" 
d="M67 263q0 51 5.5 97.5t26.5 88.5q20 40 63.5 68t124.5 28q77 0 119 -27.5t62 -66.5q14 -26 18 -53.5t4 -52.5q0 -18 -2.5 -44.5t-7.5 -55.5h-373q0 -39 5.5 -78t20.5 -68q21 -41 59 -59t106 -18q43 0 88.5 7.5t76.5 13.5v-40q-14 -3 -35 -6.5t-44 -6.5t-45.5 -5t-40.5 -2
q-85 0 -129 22.5t-68 66.5q-19 34 -26.5 78t-7.5 113zM107 284h337q5 28 5 61q0 23 -4 47.5t-15 44.5q-39 69 -143 69q-57 0 -96 -19t-59 -61q-14 -28 -19.5 -69t-5.5 -73zM112 634q23 61 45 83t57 22q19 0 35.5 -7t41.5 -28q20 -17 33.5 -26t30.5 -9q26 0 37.5 17t22.5 46
h44q-9 -22 -18 -41t-20.5 -32.5t-27.5 -21t-39 -7.5q-20 0 -35.5 5.5t-34.5 22.5q-23 21 -38.5 31.5t-31.5 10.5q-25 0 -37 -20.5t-22 -45.5h-43z" />
    <glyph glyph-name="uni1ECA" unicode="&#x1eca;" horiz-adv-x="261" 
d="M110 0v754h41v-754h-41zM107 -187v126h44v-126h-44z" />
    <glyph glyph-name="uni1ECB" unicode="&#x1ecb;" horiz-adv-x="216" 
d="M88 0v528h40v-528h-40zM86 628v126h44v-126h-44zM86 -192v126h44v-126h-44z" />
    <glyph glyph-name="uni1ECC" unicode="&#x1ecc;" horiz-adv-x="801" 
d="M136 640q34 63 98.5 97t165.5 34q88 0 146 -24t96 -78q18 -25 30 -60t19.5 -74t11 -80t3.5 -77q0 -28 -2.5 -65.5t-9 -76.5t-18 -76t-29.5 -65q-42 -63 -104 -87.5t-143 -24.5q-99 0 -161 27t-94 82q-15 26 -25 60.5t-15.5 73t-7.5 77.5t-2 75q0 31 2 67.5t6.5 72
t12.5 67.5t20 55zM178 119q35 -60 93 -78t129 -18q64 0 113 15.5t87 62.5q18 22 30.5 54t20 69.5t10.5 77t3 76.5q0 34 -2.5 70t-8.5 70.5t-16 65.5t-24 53q-33 53 -87 73.5t-126 20.5q-74 0 -134.5 -24.5t-92.5 -86.5q-10 -21 -17 -50t-11.5 -61.5t-6 -66.5t-1.5 -64
q0 -29 2 -65t6.5 -72t12.5 -68t20 -54zM374 -185v126h44v-126h-44z" />
    <glyph glyph-name="uni1ECD" unicode="&#x1ecd;" 
d="M89 426q21 55 65.5 87t130.5 32q60 0 100 -15.5t69 -53.5q32 -43 40.5 -99t8.5 -111q0 -58 -9.5 -108t-23.5 -79q-23 -46 -67.5 -71t-117.5 -25q-68 0 -109 18t-67 60q-21 33 -31.5 88t-10.5 112q0 44 4.5 88.5t17.5 76.5zM140 89q23 -40 57.5 -53.5t87.5 -13.5
q52 0 87.5 15t55.5 50q17 30 25.5 78.5t8.5 101.5q0 48 -5 88.5t-22 74.5q-23 45 -59.5 60.5t-90.5 15.5q-60 0 -96.5 -19.5t-56.5 -63.5q-14 -29 -19 -73.5t-5 -87.5q0 -51 8 -98t24 -75zM260 -185v126h44v-126h-44z" />
    <glyph glyph-name="uni1EE4" unicode="&#x1ee4;" horiz-adv-x="739" 
d="M147 754v-473q0 -82 10 -132.5t47 -82.5q29 -26 70 -34.5t97 -8.5t96 8.5t70 34.5q37 32 46 83t9 132v473h41v-474q0 -91 -12 -150.5t-60 -97.5q-34 -27 -79.5 -38t-110.5 -11t-111 11t-81 39q-44 35 -58.5 94t-14.5 153v474h41zM348 -192v126h44v-126h-44z" />
    <glyph glyph-name="uni1EE5" unicode="&#x1ee5;" horiz-adv-x="564" 
d="M87 195v333h40v-334q0 -42 3 -77.5t19 -57.5q15 -21 38.5 -29t65.5 -8q58 0 101.5 10.5t81.5 21.5v474h40v-504q-33 -9 -60.5 -17t-53.5 -13t-51.5 -8t-54.5 -3q-51 0 -84.5 10t-55.5 39q-20 26 -24.5 69t-4.5 94zM252 -192v126h44v-126h-44z" />
    <glyph glyph-name="Ygrave" unicode="&#x1ef2;" horiz-adv-x="592" 
d="M43 754l253 -417l253 417h49l-281 -464v-290h-42v290l-281 464h49zM295 818l-111 132h56l110 -132h-55z" />
    <glyph glyph-name="ygrave" unicode="&#x1ef3;" horiz-adv-x="487" 
d="M58 528l185 -463l187 463h43l-290 -720h-44l82 202l-207 518h44zM242 622l-111 132h56l110 -132h-55z" />
    <glyph glyph-name="uni1EF8" unicode="&#x1ef8;" horiz-adv-x="592" 
d="M43 754l253 -417l253 417h49l-281 -464v-290h-42v290l-281 464h49zM128 821q23 61 45 83t57 22q19 0 35.5 -7t41.5 -28q20 -17 33.5 -26t30.5 -9q26 0 37.5 17t22.5 46h44q-9 -22 -18 -41t-20.5 -32.5t-27.5 -21t-39 -7.5q-20 0 -35.5 5.5t-34.5 22.5q-23 21 -38.5 31.5
t-31.5 10.5q-25 0 -37 -20.5t-22 -45.5h-43z" />
    <glyph glyph-name="uni1EF9" unicode="&#x1ef9;" horiz-adv-x="487" 
d="M58 528l185 -463l187 463h43l-290 -720h-44l82 202l-207 518h44zM80 634q23 61 45 83t57 22q19 0 35.5 -7t41.5 -28q20 -17 33.5 -26t30.5 -9q26 0 37.5 17t22.5 46h44q-9 -22 -18 -41t-20.5 -32.5t-27.5 -21t-39 -7.5q-20 0 -35.5 5.5t-34.5 22.5q-23 21 -38.5 31.5
t-31.5 10.5q-25 0 -37 -20.5t-22 -45.5h-43z" />
    <glyph glyph-name="endash" unicode="&#x2013;" horiz-adv-x="600" 
d="M50 244v40h500v-40h-500z" />
    <glyph glyph-name="emdash" unicode="&#x2014;" horiz-adv-x="1000" 
d="M0 244v40h1000v-40h-1000z" />
    <glyph glyph-name="quoteleft" unicode="&#x2018;" horiz-adv-x="249" 
d="M94 463v99q0 55 10 101t27 91h39q-6 -25 -11.5 -48t-9 -49t-5.5 -58.5t-2 -75.5v-60h-48z" />
    <glyph glyph-name="quoteright" unicode="&#x2019;" horiz-adv-x="249" 
d="M79 463q6 25 11 48t9 49t6 58.5t2 75.5v60h48v-99q0 -55 -10 -101t-27 -91h-39z" />
    <glyph glyph-name="quotesinglbase" unicode="&#x201a;" horiz-adv-x="249" 
d="M79 -169q6 25 11.5 48t9 49t5.5 58.5t2 75.5v60h48v-99q0 -55 -10 -101t-27 -91h-39z" />
    <glyph glyph-name="quotedblleft" unicode="&#x201c;" horiz-adv-x="379" 
d="M261 754h39q-6 -25 -11 -48t-9 -49t-6 -58.5t-2 -75.5v-60h-48v99q0 55 10 101t27 91zM131 754h39q-6 -25 -11.5 -48t-9 -49t-5.5 -58.5t-2 -75.5v-60h-48v99q0 55 10 101t27 91z" />
    <glyph glyph-name="quotedblright" unicode="&#x201d;" horiz-adv-x="379" 
d="M107 694v60h48v-99q0 -55 -10 -101t-27 -91h-39q6 25 11 48t9 49t6 58.5t2 75.5zM209 463q6 25 11.5 48t9 49t5.5 58.5t2 75.5v60h48v-99q0 -55 -10 -101t-27 -91h-39z" />
    <glyph glyph-name="quotedblbase" unicode="&#x201e;" horiz-adv-x="379" 
d="M107 62v60h48v-99q0 -55 -10 -101t-27 -91h-39q6 25 11 48t9 49t6 58.5t2 75.5zM209 -169q6 25 11.5 48t9 49t5.5 58.5t2 75.5v60h48v-99q0 -55 -10 -101t-27 -91h-39z" />
    <glyph glyph-name="dagger" unicode="&#x2020;" horiz-adv-x="566" 
d="M262 528v228h41v-228h192v-40h-192v-584h-41v584h-192v40h192z" />
    <glyph glyph-name="daggerdbl" unicode="&#x2021;" horiz-adv-x="566" 
d="M70 528h192v228h41v-228h192v-40h-192v-316h192v-40h-192v-228h-41v228h-192v40h192v316h-192v40z" />
    <glyph glyph-name="bullet" unicode="&#x2022;" horiz-adv-x="449" 
d="M102 377q0 59 29.5 88.5t93.5 29.5q63 0 92.5 -29.5t29.5 -87.5q0 -60 -29.5 -89.5t-92.5 -29.5q-64 0 -93.5 29.5t-29.5 88.5z" />
    <glyph glyph-name="ellipsis" unicode="&#x2026;" horiz-adv-x="801" 
d="M652 125h59v-125h-59v125zM371 125h59v-125h-59v125zM90 125h59v-125h-59v125z" />
    <glyph glyph-name="perthousand" unicode="&#x2030;" horiz-adv-x="1401" 
d="M1028 205q0 66 4 106t24 68q17 23 46.5 37t71.5 14q81 0 118 -56q20 -31 24.5 -72.5t4.5 -96.5q0 -54 -6 -93.5t-24 -66.5q-17 -26 -45.5 -41t-71.5 -15q-41 0 -67.5 10.5t-43.5 31.5q-19 23 -27 61.5t-8 112.5zM1068 205q0 -49 3.5 -85.5t18.5 -58.5q13 -19 32.5 -26
t51.5 -7q29 0 51 10t36 35q14 24 17 57t3 75q0 55 -3.5 90t-19.5 58q-26 38 -86 38q-25 0 -46 -7.5t-34 -23.5q-18 -23 -21 -58t-3 -97zM635 205q0 66 4 106t24 68q17 23 46.5 37t71.5 14q81 0 118 -56q20 -31 24.5 -72.5t4.5 -96.5q0 -54 -6 -93.5t-24 -66.5
q-17 -26 -45.5 -41t-71.5 -15q-41 0 -67.5 10.5t-43.5 31.5q-19 23 -27 61.5t-8 112.5zM675 205q0 -49 3.5 -85.5t18.5 -58.5q13 -19 32.5 -26t51.5 -7q29 0 51 10t36 35q14 24 17 57t3 75q0 55 -3.5 90t-19.5 58q-26 38 -86 38q-25 0 -46 -7.5t-34 -23.5q-18 -23 -21 -58
t-3 -97zM311 0l356 754h44l-356 -754h-44zM80 540q0 66 4 106t24 68q17 23 46.5 37t71.5 14q81 0 118 -56q20 -31 24.5 -72.5t4.5 -96.5q0 -54 -6 -93.5t-24 -66.5q-17 -26 -45.5 -41t-71.5 -15q-41 0 -67.5 10.5t-43.5 31.5q-19 23 -27 61.5t-8 112.5zM120 540
q0 -49 3.5 -85.5t18.5 -58.5q13 -19 32.5 -26t51.5 -7q29 0 51 10t36 35q14 24 17 57t3 75q0 55 -3.5 90t-19.5 58q-26 38 -86 38q-25 0 -46 -7.5t-34 -23.5q-18 -23 -21 -58t-3 -97z" />
    <glyph glyph-name="guilsinglleft" unicode="&#x2039;" horiz-adv-x="316" 
d="M237 58l-168 206l168 206h55l-168 -206l168 -206h-55z" />
    <glyph glyph-name="guilsinglright" unicode="&#x203a;" horiz-adv-x="316" 
d="M192 264l-168 206h55l168 -206l-168 -206h-55z" />
    <glyph glyph-name="fraction" unicode="&#x2044;" horiz-adv-x="137" 
d="M-127 0l356 754h44l-356 -754h-44z" />
    <glyph glyph-name="uni2070" unicode="&#x2070;" horiz-adv-x="429" 
d="M68 655q0 66 4 106t24 68q17 23 46.5 37t71.5 14q81 0 118 -56q20 -31 24.5 -72.5t4.5 -96.5q0 -54 -6 -93.5t-24 -66.5q-17 -26 -45.5 -41t-71.5 -15q-41 0 -67.5 10.5t-43.5 31.5q-19 23 -27 61.5t-8 112.5zM108 655q0 -49 3.5 -85.5t18.5 -58.5q13 -19 32.5 -26
t51.5 -7q29 0 51 10t36 35q14 24 17 57t3 75q0 55 -3.5 90t-19.5 58q-26 38 -86 38q-25 0 -46 -7.5t-34 -23.5q-18 -23 -21 -58t-3 -97z" />
    <glyph glyph-name="uni2071" unicode="&#x2071;" horiz-adv-x="213" 
d="M86 450v313h41v-313h-41zM84 835v104h45v-104h-45z" />
    <glyph glyph-name="uni2074" unicode="&#x2074;" horiz-adv-x="388" 
d="M238 869h51l-208 -281h185v97h40v-235h-40v98h-235v42z" />
    <glyph glyph-name="uni2075" unicode="&#x2075;" horiz-adv-x="406" 
d="M75 491q26 -5 55.5 -9t60.5 -4q35 0 57 6.5t36 24.5q10 13 13 28t3 34q0 39 -25 57q-17 12 -47 17t-87 5h-59v219h240v-40h-200v-140h48q77 0 114 -20q27 -14 41.5 -40t14.5 -58q0 -59 -29 -92q-20 -23 -49.5 -31.5t-70.5 -8.5q-34 0 -64 4t-52 8v40z" />
    <glyph glyph-name="uni2076" unicode="&#x2076;" horiz-adv-x="422" 
d="M141 807q37 29 83 45.5t105 28.5v-41q-49 -9 -91.5 -25.5t-68.5 -36.5q-27 -20 -38 -43t-15 -44q15 1 43.5 2t64.5 1q39 0 64.5 -8.5t42.5 -28.5q16 -17 22 -40t6 -46q0 -49 -28 -84q-18 -23 -48 -35.5t-70 -12.5q-75 0 -114 47q-17 20 -24 47.5t-7 55.5q0 75 13 128
t60 90zM108 592q0 -23 5 -44.5t19 -38.5q26 -31 81 -31q45 0 75.5 22.5t30.5 70.5q0 14 -3 28.5t-11 26.5q-12 17 -33.5 23t-47.5 6q-37 0 -62.5 -0.5t-51.5 -2.5q-2 -13 -2 -28v-32z" />
    <glyph glyph-name="uni2077" unicode="&#x2077;" horiz-adv-x="336" 
d="M60 450l207 379h-257v40h302v-43l-205 -376h-47z" />
    <glyph glyph-name="uni2078" unicode="&#x2078;" horiz-adv-x="473" 
d="M112 633q20 19 37 30q-23 11 -35 29q-18 27 -18 77q0 26 9.5 48t29.5 36q36 27 103 27q30 0 55 -6t47 -22q20 -14 28.5 -36.5t8.5 -46.5q0 -40 -24 -71q-8 -10 -17.5 -20t-18.5 -19q30 -10 48 -28q29 -29 29 -74q0 -50 -34 -81q-20 -18 -52.5 -27.5t-70.5 -9.5
q-78 0 -119 29q-39 28 -39 89q0 26 8 43t25 33zM148 496q16 -9 39.5 -13.5t49.5 -4.5q32 0 53 5.5t35 15.5q13 8 21 23t8 35q0 24 -11.5 39.5t-41.5 26.5q-23 8 -53.5 14.5t-60.5 11.5q-9 -7 -21 -17t-24 -22q-14 -14 -18.5 -26.5t-4.5 -26.5q0 -44 29 -61zM136 769
q0 -31 7 -47t27 -25q18 -8 45.5 -14t60.5 -12q7 6 18.5 19t20.5 24q10 12 16 25t6 30q0 14 -4.5 28t-17.5 24q-25 20 -77 20q-26 0 -46 -5t-31 -13q-25 -17 -25 -54z" />
    <glyph glyph-name="uni2079" unicode="&#x2079;" horiz-adv-x="422" 
d="M63 739q0 23 4 46t17 41q15 22 44.5 38t74.5 16q39 0 69 -13.5t47 -36.5q20 -26 27.5 -69t7.5 -97q0 -31 -1 -57t-6 -49q-11 -49 -39 -77q-19 -19 -47.5 -30.5t-66.5 -11.5q-36 0 -62 4t-53 9v40q25 -5 54 -9.5t65 -4.5q47 0 77 27q24 21 32 58q4 17 5.5 32t1.5 26
q-22 -3 -56 -6.5t-61 -3.5q-40 0 -64.5 7.5t-42.5 26.5q-15 16 -21 39.5t-6 54.5zM103 738q0 -20 2.5 -37t13.5 -28q11 -12 29.5 -17.5t42.5 -5.5q63 0 123 11q0 49 -5.5 86.5t-21.5 58.5q-25 35 -84 35q-52 0 -79 -29q-13 -14 -17 -33.5t-4 -40.5z" />
    <glyph glyph-name="uni207D" unicode="&#x207d;" horiz-adv-x="260" 
d="M81 738q0 42 4.5 84t29.5 80q20 29 48 50.5t70 32.5v-41q-32 -13 -50 -27t-34 -38q-20 -30 -24 -71.5t-4 -78.5v-139q0 -37 4 -78.5t24 -71.5q15 -23 33.5 -37.5t50.5 -27.5v-41q-42 11 -70 32.5t-48 50.5q-25 38 -29.5 80t-4.5 84v157z" />
    <glyph glyph-name="uni207E" unicode="&#x207e;" horiz-adv-x="260" 
d="M27 334v41q32 13 50.5 27.5t33.5 37.5q20 30 24 71.5t4 78.5v139q0 37 -4 78.5t-24 71.5q-16 24 -34 38t-50 27v41q42 -11 70 -32.5t48 -50.5q25 -38 29.5 -80t4.5 -84v-157q0 -42 -4.5 -84t-29.5 -80q-20 -29 -48 -50.5t-70 -32.5z" />
    <glyph glyph-name="uni207F" unicode="&#x207f;" horiz-adv-x="438" 
d="M84 450v313h41v-28q29 13 63 24.5t64 11.5q54 0 81 -31q14 -16 18 -36.5t4 -48.5v-205h-41v193q0 16 -1.5 35.5t-11.5 32.5q-16 20 -49 20q-35 0 -70 -13.5t-57 -24.5v-243h-41z" />
    <glyph glyph-name="uni2080" unicode="&#x2080;" horiz-adv-x="429" 
d="M68 75q0 66 4 106t24 68q17 23 46.5 37t71.5 14q81 0 118 -56q20 -31 24.5 -72.5t4.5 -96.5q0 -54 -6 -93.5t-24 -66.5q-17 -26 -45.5 -41t-71.5 -15q-41 0 -67.5 10.5t-43.5 31.5q-19 23 -27 61.5t-8 112.5zM108 75q0 -49 3.5 -85.5t18.5 -58.5q13 -19 32.5 -26t51.5 -7
q29 0 51 10t36 35q14 24 17 57t3 75q0 55 -3.5 90t-19.5 58q-26 38 -86 38q-25 0 -46 -7.5t-34 -23.5q-18 -23 -21 -58t-3 -97z" />
    <glyph glyph-name="uni2081" unicode="&#x2081;" horiz-adv-x="270" 
d="M146 -130v377l-117 -37v42l157 50v-432h-40z" />
    <glyph glyph-name="uni2082" unicode="&#x2082;" horiz-adv-x="379" 
d="M40 -83q20 20 46 45.5t53 52.5t52 53t42 45q23 26 30 44.5t7 36.5q0 14 -3 25.5t-12 20.5q-9 10 -25 15.5t-35 5.5q-21 0 -42 -2.5t-40.5 -6t-34.5 -7.5t-24 -6v40q18 5 58 13t79 8q62 0 94 -33q25 -26 25 -74q0 -32 -11 -56.5t-39 -54.5q-24 -26 -49 -52t-48.5 -48.5
t-43 -41t-32.5 -30.5h245v-40h-292v47z" />
    <glyph glyph-name="uni2083" unicode="&#x2083;" horiz-adv-x="410" 
d="M57 -126v40q25 -5 61.5 -10.5t65.5 -5.5t47 5t29 13q14 9 22.5 26t8.5 39q0 24 -8.5 40.5t-29.5 28.5q-11 6 -28 8.5t-35 2.5h-92v39h143l18 24q12 17 20 33t8 36q0 34 -20 49q-11 8 -27.5 13.5t-44.5 5.5q-19 0 -39 -2.5t-38.5 -6t-33.5 -7t-24 -5.5v40q10 2 25.5 5.5
t34 6.5t38 5.5t37.5 2.5q67 0 101 -30q14 -11 23 -31t9 -45q0 -20 -7 -36.5t-18 -33.5q-7 -10 -15.5 -22t-13.5 -18q30 -18 44 -40.5t14 -59.5q0 -54 -34 -88q-37 -37 -114 -37q-32 0 -69 5.5t-58 9.5z" />
    <glyph glyph-name="uni2084" unicode="&#x2084;" horiz-adv-x="388" 
d="M238 288h51l-208 -281h185v97h40v-235h-40v98h-235v42z" />
    <glyph glyph-name="uni2085" unicode="&#x2085;" horiz-adv-x="406" 
d="M75 -89q26 -5 55.5 -9t60.5 -4q35 0 57 6.5t36 24.5q10 13 13 28t3 34q0 39 -25 57q-17 12 -47 17t-87 5h-59v219h240v-40h-200v-140h48q77 0 114 -20q27 -14 41.5 -40t14.5 -58q0 -59 -29 -92q-20 -23 -49.5 -31.5t-70.5 -8.5q-34 0 -64 4t-52 8v40z" />
    <glyph glyph-name="uni2086" unicode="&#x2086;" horiz-adv-x="422" 
d="M141 227q37 29 83 45.5t105 28.5v-41q-49 -9 -91.5 -25.5t-68.5 -36.5q-27 -20 -38 -43t-15 -44q15 1 43.5 2t64.5 1q39 0 64.5 -8.5t42.5 -28.5q16 -17 22 -40t6 -46q0 -49 -28 -84q-18 -23 -48 -35.5t-70 -12.5q-75 0 -114 47q-17 20 -24 47.5t-7 55.5q0 75 13 128
t60 90zM108 12q0 -23 5 -44.5t19 -38.5q26 -31 81 -31q45 0 75.5 22.5t30.5 70.5q0 14 -3 28.5t-11 26.5q-12 17 -33.5 23t-47.5 6q-37 0 -62.5 -0.5t-51.5 -2.5q-2 -13 -2 -28v-32z" />
    <glyph glyph-name="uni2087" unicode="&#x2087;" horiz-adv-x="336" 
d="M60 -130l207 379h-257v40h302v-43l-205 -376h-47z" />
    <glyph glyph-name="uni2088" unicode="&#x2088;" horiz-adv-x="473" 
d="M112 53q20 19 37 30q-23 11 -35 29q-18 27 -18 77q0 26 9.5 48t29.5 36q36 27 103 27q30 0 55 -6t47 -22q20 -14 28.5 -36.5t8.5 -46.5q0 -40 -24 -71q-8 -10 -17.5 -20t-18.5 -19q30 -10 48 -28q29 -29 29 -74q0 -50 -34 -81q-20 -18 -52.5 -27.5t-70.5 -9.5
q-78 0 -119 29q-39 28 -39 89q0 26 8 43t25 33zM148 -84q16 -9 39.5 -13.5t49.5 -4.5q32 0 53 5.5t35 15.5q13 8 21 23t8 35q0 24 -11.5 39.5t-41.5 26.5q-23 8 -53.5 14.5t-60.5 11.5q-9 -7 -21 -17t-24 -22q-14 -14 -18.5 -26.5t-4.5 -26.5q0 -44 29 -61zM136 189
q0 -31 7 -47t27 -25q18 -8 45.5 -14t60.5 -12q7 6 18.5 19t20.5 24q10 12 16 25t6 30q0 14 -4.5 28t-17.5 24q-25 20 -77 20q-26 0 -46 -5t-31 -13q-25 -17 -25 -54z" />
    <glyph glyph-name="uni2089" unicode="&#x2089;" horiz-adv-x="422" 
d="M63 159q0 23 4 46t17 41q15 22 44.5 38t74.5 16q39 0 69 -13.5t47 -36.5q20 -26 27.5 -69t7.5 -97q0 -31 -1 -57t-6 -49q-11 -49 -39 -77q-19 -19 -47.5 -30.5t-66.5 -11.5q-36 0 -62 4t-53 9v40q25 -5 54 -9.5t65 -4.5q47 0 77 27q24 21 32 58q4 17 5.5 32t1.5 26
q-22 -3 -56 -6.5t-61 -3.5q-40 0 -64.5 7.5t-42.5 26.5q-15 16 -21 39.5t-6 54.5zM103 158q0 -20 2.5 -37t13.5 -28q11 -12 29.5 -17.5t42.5 -5.5q63 0 123 11q0 49 -5.5 86.5t-21.5 58.5q-25 35 -84 35q-52 0 -79 -29q-13 -14 -17 -33.5t-4 -40.5z" />
    <glyph glyph-name="uni208D" unicode="&#x208d;" horiz-adv-x="260" 
d="M81 158q0 42 4.5 84t29.5 80q20 29 48 50.5t70 32.5v-41q-32 -13 -50 -27t-34 -38q-20 -30 -24 -71.5t-4 -78.5v-139q0 -37 4 -78.5t24 -71.5q15 -23 33.5 -37.5t50.5 -27.5v-41q-42 11 -70 32.5t-48 50.5q-25 38 -29.5 80t-4.5 84v157z" />
    <glyph glyph-name="uni208E" unicode="&#x208e;" horiz-adv-x="260" 
d="M27 -246v41q32 13 50.5 27.5t33.5 37.5q20 30 24 71.5t4 78.5v139q0 37 -4 78.5t-24 71.5q-16 24 -34 38t-50 27v41q42 -11 70 -32.5t48 -50.5q25 -38 29.5 -80t4.5 -84v-157q0 -42 -4.5 -84t-29.5 -80q-20 -29 -48 -50.5t-70 -32.5z" />
    <glyph glyph-name="uni2093" unicode="&#x2093;" horiz-adv-x="357" 
d="M32 -130l122 161l-118 152h50l91 -119l91 119h48l-115 -149l125 -164h-49l-99 129l-98 -129h-48z" />
    <glyph glyph-name="Euro" unicode="&#x20ac;" horiz-adv-x="687" 
d="M107 385q0 98 11.5 162t37.5 111q32 56 87 83.5t146 27.5q65 0 123.5 -10t101.5 -19v-41q-46 10 -104 20t-121 10q-75 0 -124.5 -23t-78.5 -80q-7 -15 -13.5 -36t-11 -43.5t-7.5 -45t-4 -41.5h354v-40h-354q-2 -10 -2 -22v-15v-16t2 -22h354v-40h-353q2 -43 9.5 -89.5
t17.5 -71.5q23 -58 67 -89.5t130 -31.5q61 0 121.5 6t117.5 14v-41q-45 -6 -109 -12.5t-124 -6.5q-53 0 -92.5 9.5t-68.5 28t-48.5 46t-33.5 64.5q-14 38 -22.5 101.5t-8.5 152.5z" />
    <glyph glyph-name="uni20BA" unicode="&#x20ba;" horiz-adv-x="576" 
d="M161 754v-252l287 93v-42l-287 -93v-78l287 93v-42l-287 -93v-317q41 0 73 2.5t58 10t48 20.5t42 34q18 19 30.5 45t20 51.5t11 48t4.5 34.5h41q-1 -15 -4 -38.5t-10.5 -50t-19.5 -54t-31 -51.5t-41.5 -41t-53 -28.5t-72 -17t-98.5 -5.5h-17.5t-21.5 1v770h41z" />
    <glyph glyph-name="uni20BD" unicode="&#x20bd;" horiz-adv-x="682" 
d="M120 0v754h271q65 0 103.5 -14t65.5 -43q24 -26 37.5 -69t13.5 -88q0 -47 -7.5 -89.5t-33.5 -77.5q-23 -32 -58 -48.5t-84 -21.5q-16 -1 -44.5 -2t-64.5 -2t-76.5 -1h-81.5v-75h337v-40h-337v-183h-41zM161 338h76t73 0.5t64.5 1.5t49.5 3q40 4 69.5 18.5t48.5 44.5
q16 26 21.5 59.5t5.5 74.5q0 42 -13 78.5t-35 58.5q-23 23 -55.5 30t-77.5 7h-227v-376z" />
    <glyph glyph-name="uni2103" unicode="&#x2103;" horiz-adv-x="1071" 
d="M65 608q0 77 44 120t119 43q76 0 121 -43t45 -120t-45 -121t-121 -44q-75 0 -119 44t-44 121zM106 608q0 -59 32 -92t92 -33q59 0 91 33t32 92q0 60 -32 91.5t-91 31.5q-60 0 -92 -31.5t-32 -91.5zM508 375q0 81 11 158.5t40 128.5q17 29 37 49.5t46 34t61 19.5t82 6
q38 0 68.5 -4.5t56.5 -9.5q27 -5 57 -13t44 -12v-41q-59 16 -118 28q-26 5 -52.5 8.5t-55.5 3.5q-76 0 -121 -21.5t-74 -79.5q-10 -21 -18 -50t-12.5 -62.5t-7 -70.5t-2.5 -73q0 -72 8 -132.5t22 -97.5q23 -61 70.5 -91t128.5 -30q58 0 115 9.5t117 23.5v-42
q-60 -13 -114 -22t-112 -9q-101 0 -157 34t-87 111q-8 21 -14.5 49t-10.5 60.5t-6 68t-2 69.5z" />
    <glyph glyph-name="uni2109" unicode="&#x2109;" horiz-adv-x="1061" 
d="M65 608q0 77 44 120t119 43q76 0 121 -43t45 -120t-45 -121t-121 -44q-75 0 -119 44t-44 121zM106 608q0 -59 32 -92t92 -33q59 0 91 33t32 92q0 60 -32 91.5t-91 31.5q-60 0 -92 -31.5t-32 -91.5zM1027 754v-40h-447v-320h416v-40h-416v-354h-41v754h488z" />
    <glyph glyph-name="uni2113" unicode="&#x2113;" horiz-adv-x="394" 
d="M115 726q17 27 40 36t51 9t47.5 -9t32.5 -25q17 -20 24.5 -48t7.5 -79q0 -32 -8.5 -68.5t-29.5 -83t-58 -105t-94 -135.5v-37q0 -37 0.5 -61t2.5 -39t6 -24t11 -17q11 -12 29 -14.5t35 -2.5q34 0 66 9.5t58 19.5v-43q-34 -12 -62 -19t-62 -7q-29 0 -58 6t-44 30
q-17 26 -19.5 69t-2.5 115v322q0 81 4.5 126.5t22.5 74.5zM128 556v-272q25 36 51.5 75.5t48 81t35.5 84t14 84.5q0 25 -2.5 50t-10.5 40q-19 33 -57 33q-43 0 -60 -31q-12 -21 -15.5 -59t-3.5 -86z" />
    <glyph glyph-name="uni2116" unicode="&#x2116;" horiz-adv-x="1139" 
d="M172 754l433 -709v709h41v-754h-62l-433 709v-709h-41v754h62zM776 682q16 40 50.5 64.5t101.5 24.5q47 0 76.5 -12.5t50.5 -39.5q25 -32 32.5 -73t7.5 -83t-8 -79.5t-23 -61.5q-20 -31 -52 -49t-84 -18t-84.5 14.5t-52.5 45.5q-16 25 -24 65.5t-8 78.5q0 33 3.5 66.5
t13.5 56.5zM800 560q0 -35 5.5 -67.5t17.5 -52.5q15 -26 41.5 -36t63.5 -10t61 12t38 34q14 21 20.5 53t6.5 70q0 33 -4 62.5t-17 54.5q-14 29 -39.5 40.5t-65.5 11.5q-42 0 -68.5 -12t-41.5 -43q-10 -20 -14 -52.5t-4 -64.5z" />
    <glyph glyph-name="trademark" unicode="&#x2122;" horiz-adv-x="1024" 
d="M499 754h59l148 -298l150 298h58v-429h-38v386l-152 -301h-37l-150 301v-386h-38v429zM53 754h366v-37h-164v-392h-38v392h-164v37z" />
    <glyph glyph-name="uni2126" unicode="&#x2126;" horiz-adv-x="801" 
d="M262 40q-25 17 -49.5 40.5t-43.5 48.5q-40 54 -57 126.5t-17 171.5q0 22 2 49.5t6.5 56t12.5 56.5t20 51q31 59 98.5 95t165.5 36q88 0 146 -26t96 -79q18 -25 30.5 -55.5t20 -62.5t10.5 -63.5t3 -57.5q0 -101 -17.5 -173t-66.5 -133q-22 -27 -44 -47.5t-39 -33.5h186
v-40h-267v38q31 17 62.5 39.5t65.5 65.5q23 30 38 59t24 62.5t12.5 73t3.5 89.5q0 48 -11 104.5t-40 102.5q-33 53 -86.5 75t-126.5 22q-74 0 -133.5 -25t-92.5 -87q-11 -20 -18 -45t-11.5 -50.5t-6 -50.5t-1.5 -46q0 -100 16.5 -163.5t48.5 -108.5q36 -50 72.5 -75
t68.5 -42v-38h-267v40h186z" />
    <glyph glyph-name="estimated" unicode="&#x212e;" horiz-adv-x="770" 
d="M144 512q46 44 103 64.5t138 20.5q75 0 129.5 -18t102.5 -57q49 -39 74.5 -101t28.5 -139h-533q-5 0 -9.5 -2t-4.5 -14v-149q0 -12 15.5 -30t43 -35.5t66.5 -30t87 -12.5q63 0 119 27.5t93 69.5h63q-60 -69 -126 -95q-18 -7 -33.5 -12t-32.5 -8t-37 -4.5t-46 -1.5
q-81 0 -138.5 20t-104.5 65q-92 87 -92 221q0 132 94 221zM173 469v-160q0 -8 15 -8h393q10 0 12.5 3.5t2.5 11.5v146q0 18 -19.5 38.5t-50 37t-68 27.5t-73.5 11q-45 0 -83.5 -13t-67 -30.5t-45 -35.5t-16.5 -28z" />
    <glyph glyph-name="onethird" unicode="&#x2153;" horiz-adv-x="817" 
d="M464 4v40q25 -5 61.5 -10.5t65.5 -5.5t47 5t29 13q14 9 22.5 26t8.5 39q0 24 -8.5 40.5t-29.5 28.5q-11 6 -28 8.5t-35 2.5h-92v39h143l18 24q12 17 20 33t8 36q0 34 -20 49q-11 8 -27.5 13.5t-44.5 5.5q-19 0 -39 -2.5t-38.5 -6t-33.5 -7t-24 -5.5v40q10 2 25.5 5.5
t34 6.5t38 5.5t37.5 2.5q67 0 101 -30q14 -11 23 -31t9 -45q0 -20 -7 -36.5t-18 -33.5q-7 -10 -15.5 -22t-13.5 -18q30 -18 44 -40.5t14 -59.5q0 -54 -34 -88q-37 -37 -114 -37q-32 0 -69 5.5t-58 9.5zM143 0l356 754h44l-356 -754h-44zM146 335v377l-117 -37v42l157 50
v-432h-40z" />
    <glyph glyph-name="twothirds" unicode="&#x2154;" horiz-adv-x="926" 
d="M573 4v40q25 -5 61.5 -10.5t65.5 -5.5t47 5t29 13q14 9 22.5 26t8.5 39q0 24 -8.5 40.5t-29.5 28.5q-11 6 -28 8.5t-35 2.5h-92v39h143l18 24q12 17 20 33t8 36q0 34 -20 49q-11 8 -27.5 13.5t-44.5 5.5q-19 0 -39 -2.5t-38.5 -6t-33.5 -7t-24 -5.5v40q10 2 25.5 5.5
t34 6.5t38 5.5t37.5 2.5q67 0 101 -30q14 -11 23 -31t9 -45q0 -20 -7 -36.5t-18 -33.5q-7 -10 -15.5 -22t-13.5 -18q30 -18 44 -40.5t14 -59.5q0 -54 -34 -88q-37 -37 -114 -37q-32 0 -69 5.5t-58 9.5zM252 0l356 754h44l-356 -754h-44zM40 382q20 20 46 45.5t53 52.5t52 53
t42 45q23 26 30 44.5t7 36.5q0 14 -3 25.5t-12 20.5q-9 10 -25 15.5t-35 5.5q-21 0 -42 -2.5t-40.5 -6t-34.5 -7.5t-24 -6v40q18 5 58 13t79 8q62 0 94 -33q25 -26 25 -74q0 -32 -11 -56.5t-39 -54.5q-24 -26 -49 -52t-48.5 -48.5t-43 -41t-32.5 -30.5h245v-40h-292v47z" />
    <glyph glyph-name="oneeighth" unicode="&#x215b;" horiz-adv-x="880" 
d="M519 183q20 19 37 30q-23 11 -35 29q-18 27 -18 77q0 26 9.5 48t29.5 36q36 27 103 27q30 0 55 -6t47 -22q20 -14 28.5 -36.5t8.5 -46.5q0 -40 -24 -71q-8 -10 -17.5 -20t-18.5 -19q30 -10 48 -28q29 -29 29 -74q0 -50 -34 -81q-20 -18 -52.5 -27.5t-70.5 -9.5
q-78 0 -119 29q-39 28 -39 89q0 26 8 43t25 33zM555 46q16 -9 39.5 -13.5t49.5 -4.5q32 0 53 5.5t35 15.5q13 8 21 23t8 35q0 24 -11.5 39.5t-41.5 26.5q-23 8 -53.5 14.5t-60.5 11.5q-9 -7 -21 -17t-24 -22q-14 -14 -18.5 -26.5t-4.5 -26.5q0 -44 29 -61zM543 319
q0 -31 7 -47t27 -25q18 -8 45.5 -14t60.5 -12q7 6 18.5 19t20.5 24q10 12 16 25t6 30q0 14 -4.5 28t-17.5 24q-25 20 -77 20q-26 0 -46 -5t-31 -13q-25 -17 -25 -54zM143 0l356 754h44l-356 -754h-44zM146 335v377l-117 -37v42l157 50v-432h-40z" />
    <glyph glyph-name="threeeighths" unicode="&#x215c;" horiz-adv-x="1019" 
d="M659 183q20 19 37 30q-23 11 -35 29q-18 27 -18 77q0 26 9.5 48t29.5 36q36 27 103 27q30 0 55 -6t47 -22q20 -14 28.5 -36.5t8.5 -46.5q0 -40 -24 -71q-8 -10 -17.5 -20t-18.5 -19q30 -10 48 -28q29 -29 29 -74q0 -50 -34 -81q-20 -18 -52.5 -27.5t-70.5 -9.5
q-78 0 -119 29q-39 28 -39 89q0 26 8 43t25 33zM695 46q16 -9 39.5 -13.5t49.5 -4.5q32 0 53 5.5t35 15.5q13 8 21 23t8 35q0 24 -11.5 39.5t-41.5 26.5q-23 8 -53.5 14.5t-60.5 11.5q-9 -7 -21 -17t-24 -22q-14 -14 -18.5 -26.5t-4.5 -26.5q0 -44 29 -61zM683 319
q0 -31 7 -47t27 -25q18 -8 45.5 -14t60.5 -12q7 6 18.5 19t20.5 24q10 12 16 25t6 30q0 14 -4.5 28t-17.5 24q-25 20 -77 20q-26 0 -46 -5t-31 -13q-25 -17 -25 -54zM283 0l356 754h44l-356 -754h-44zM57 339v40q25 -5 61.5 -10.5t65.5 -5.5t47 5t29 13q14 9 22.5 26t8.5 39
q0 24 -8.5 40.5t-29.5 28.5q-11 6 -28 8.5t-35 2.5h-92v39h143l18 24q12 17 20 33t8 36q0 34 -20 49q-11 8 -27.5 13.5t-44.5 5.5q-19 0 -39 -2.5t-38.5 -6t-33.5 -7t-24 -5.5v40q10 2 25.5 5.5t34 6.5t38 5.5t37.5 2.5q67 0 101 -30q14 -11 23 -31t9 -45q0 -20 -7 -36.5
t-18 -33.5q-7 -10 -15.5 -22t-13.5 -18q30 -18 44 -40.5t14 -59.5q0 -54 -34 -88q-37 -37 -114 -37q-32 0 -69 5.5t-58 9.5z" />
    <glyph glyph-name="fiveeighths" unicode="&#x215d;" horiz-adv-x="1015" 
d="M655 183q20 19 37 30q-23 11 -35 29q-18 27 -18 77q0 26 9.5 48t29.5 36q36 27 103 27q30 0 55 -6t47 -22q20 -14 28.5 -36.5t8.5 -46.5q0 -40 -24 -71q-8 -10 -17.5 -20t-18.5 -19q30 -10 48 -28q29 -29 29 -74q0 -50 -34 -81q-20 -18 -52.5 -27.5t-70.5 -9.5
q-78 0 -119 29q-39 28 -39 89q0 26 8 43t25 33zM691 46q16 -9 39.5 -13.5t49.5 -4.5q32 0 53 5.5t35 15.5q13 8 21 23t8 35q0 24 -11.5 39.5t-41.5 26.5q-23 8 -53.5 14.5t-60.5 11.5q-9 -7 -21 -17t-24 -22q-14 -14 -18.5 -26.5t-4.5 -26.5q0 -44 29 -61zM679 319
q0 -31 7 -47t27 -25q18 -8 45.5 -14t60.5 -12q7 6 18.5 19t20.5 24q10 12 16 25t6 30q0 14 -4.5 28t-17.5 24q-25 20 -77 20q-26 0 -46 -5t-31 -13q-25 -17 -25 -54zM279 0l356 754h44l-356 -754h-44zM75 376q26 -5 55.5 -9t60.5 -4q35 0 57 6.5t36 24.5q10 13 13 28t3 34
q0 39 -25 57q-17 12 -47 17t-87 5h-59v219h240v-40h-200v-140h48q77 0 114 -20q27 -14 41.5 -40t14.5 -58q0 -59 -29 -92q-20 -23 -49.5 -31.5t-70.5 -8.5q-34 0 -64 4t-52 8v40z" />
    <glyph glyph-name="seveneighths" unicode="&#x215e;" horiz-adv-x="945" 
d="M585 183q20 19 37 30q-23 11 -35 29q-18 27 -18 77q0 26 9.5 48t29.5 36q36 27 103 27q30 0 55 -6t47 -22q20 -14 28.5 -36.5t8.5 -46.5q0 -40 -24 -71q-8 -10 -17.5 -20t-18.5 -19q30 -10 48 -28q29 -29 29 -74q0 -50 -34 -81q-20 -18 -52.5 -27.5t-70.5 -9.5
q-78 0 -119 29q-39 28 -39 89q0 26 8 43t25 33zM621 46q16 -9 39.5 -13.5t49.5 -4.5q32 0 53 5.5t35 15.5q13 8 21 23t8 35q0 24 -11.5 39.5t-41.5 26.5q-23 8 -53.5 14.5t-60.5 11.5q-9 -7 -21 -17t-24 -22q-14 -14 -18.5 -26.5t-4.5 -26.5q0 -44 29 -61zM609 319
q0 -31 7 -47t27 -25q18 -8 45.5 -14t60.5 -12q7 6 18.5 19t20.5 24q10 12 16 25t6 30q0 14 -4.5 28t-17.5 24q-25 20 -77 20q-26 0 -46 -5t-31 -13q-25 -17 -25 -54zM209 0l356 754h44l-356 -754h-44zM60 335l207 379h-257v40h302v-43l-205 -376h-47z" />
    <glyph glyph-name="uni215F" unicode="&#x215f;" horiz-adv-x="407" 
d="M143 0l356 754h44l-356 -754h-44zM146 335v377l-117 -37v42l157 50v-432h-40z" />
    <glyph glyph-name="arrowleft" unicode="&#x2190;" horiz-adv-x="898" 
d="M50 377l279 233h63l-255 -213h684v-40h-684l255 -213h-63z" />
    <glyph glyph-name="arrowup" unicode="&#x2191;" horiz-adv-x="600" 
d="M280 0v684l-213 -255v63l233 279l233 -279v-63l-213 255v-684h-40z" />
    <glyph glyph-name="arrowright" unicode="&#x2192;" horiz-adv-x="898" 
d="M506 144l255 213h-684v40h684l-255 213h63l279 -233l-279 -233h-63z" />
    <glyph glyph-name="arrowdown" unicode="&#x2193;" horiz-adv-x="600" 
d="M67 262v63l213 -255v684h40v-684l213 255v-63l-233 -279z" />
    <glyph glyph-name="arrowboth" unicode="&#x2194;" horiz-adv-x="1012" 
d="M50 377l279 233h63l-255 -213h738l-255 213h63l279 -233l-279 -233h-63l255 213h-738l255 -213h-63z" />
    <glyph glyph-name="arrowupdn" unicode="&#x2195;" horiz-adv-x="600" 
d="M300 833l233 -279v-63l-213 255v-738l212 255v-63l-232 -279l-233 279v63l213 -255v738l-213 -255v63z" />
    <glyph glyph-name="uni2196" unicode="&#x2196;" horiz-adv-x="698" 
d="M109 582l28 -302h-40l-36 380l383 -37v-40l-307 29l466 -465v-58z" />
    <glyph glyph-name="uni2197" unicode="&#x2197;" horiz-adv-x="698" 
d="M95 147l466 465l-307 -29v40l383 37l-36 -380h-40l28 302l-494 -493v58z" />
    <glyph glyph-name="uni2198" unicode="&#x2198;" horiz-adv-x="698" 
d="M224 153v40l307 -29l-466 465v58l494 -493l-28 302h40l36 -380z" />
    <glyph glyph-name="uni2199" unicode="&#x2199;" horiz-adv-x="698" 
d="M91 116l36 380h40l-28 -302l494 493v-58l-466 -465l307 29v-40z" />
    <glyph glyph-name="partialdiff" unicode="&#x2202;" 
d="M90 387q11 26 25 46.5t35.5 35t52.5 22t75 7.5q42 0 84.5 -12.5t77.5 -24.5q-4 19 -10 43t-16 49.5t-23.5 50t-33.5 43.5q-35 35 -81 54t-90 30v44q20 -5 45 -12.5t51.5 -19t53 -28t50.5 -40.5q34 -34 56 -85.5t35 -110.5t18 -120t5 -114q0 -108 -32 -165
q-25 -45 -68 -71t-116 -26q-68 0 -107.5 18.5t-66.5 59.5q-22 32 -32 79t-10 101q0 45 4 79.5t18 66.5zM141 89q23 -40 57 -53.5t86 -13.5q104 0 142 66q17 30 25 66.5t8 90.5q0 98 -12 171q-14 6 -34 13t-42.5 14t-46 11.5t-46.5 4.5q-60 0 -92.5 -17.5t-51.5 -55.5
q-15 -30 -20 -63.5t-5 -80.5q0 -99 32 -153z" />
    <glyph glyph-name="uni2206" unicode="&#x2206;" horiz-adv-x="720" 
d="M33 0l298 754h58l298 -754h-654zM360 714l-266 -674h532z" />
    <glyph glyph-name="product" unicode="&#x220f;" horiz-adv-x="654" 
d="M544 754v-884h-41v844h-352v-844h-41v884h434z" />
    <glyph glyph-name="summation" unicode="&#x2211;" horiz-adv-x="554" 
d="M60 -130v44l271 402l-269 394v44h432v-40h-384l272 -398l-274 -406h391v-40h-439z" />
    <glyph glyph-name="minus" unicode="&#x2212;" horiz-adv-x="700" 
d="M89 357v40h522v-40h-522z" />
    <glyph glyph-name="radical" unicode="&#x221a;" horiz-adv-x="700" 
d="M313 0l-141 357h-122v40h150l128 -324l318 776h44l-348 -849h-29z" />
    <glyph glyph-name="infinity" unicode="&#x221e;" horiz-adv-x="952" 
d="M243 543q38 0 68.5 -10t58 -27t54 -41t54.5 -51q29 27 55 51t53 41t56.5 27t65.5 10q78 0 121.5 -40.5t43.5 -115.5q0 -76 -44.5 -116t-113.5 -40q-67 0 -123 33.5t-117 95.5q-29 -28 -55.5 -52t-53 -41t-55 -26.5t-61.5 -9.5q-81 0 -126 38t-45 118q0 40 13 69
t35.5 48.5t52 29t63.5 9.5zM250 270q51 0 95.5 30.5t102.5 87.5q-36 33 -61.5 55.5t-47.5 36t-44.5 19t-51.5 5.5q-62 0 -92.5 -32t-30.5 -85q0 -59 31.5 -88t98.5 -29zM505 386q31 -29 57 -51t51 -36.5t49.5 -21.5t52.5 -7q62 0 89.5 33.5t27.5 83.5q0 57 -30.5 87
t-93.5 30q-27 0 -50.5 -7.5t-47.5 -22.5t-49.5 -37t-55.5 -51z" />
    <glyph glyph-name="integral" unicode="&#x222b;" horiz-adv-x="600" 
d="M74 -194v40q14 -4 42 -10t57 -6q14 0 29.5 1.5t30 7.5t25.5 19t16 37q5 23 6 57t1 97v553q0 53 9.5 85.5t27.5 51.5t44.5 25.5t61.5 6.5q12 0 27.5 -2t30 -4t26.5 -4.5t18 -4.5v-40q-6 2 -18 4.5t-26 5t-29.5 4.5t-28.5 2q-22 0 -40 -3.5t-31.5 -15t-21 -32.5t-9.5 -57
q0 -10 -0.5 -27t-0.5 -47v-76v-115v-258v-32v-47.5t-0.5 -49.5t-1.5 -38q-2 -44 -13 -72t-30 -44t-45 -21.5t-58 -5.5q-27 0 -53 5t-46 10z" />
    <glyph glyph-name="approxequal" unicode="&#x2248;" horiz-adv-x="700" 
d="M213 536q19 0 33 -1.5t30 -6t37 -12.5t53 -20q23 -9 38.5 -14.5t28 -8.5t24.5 -4t27 -1q25 0 44 5t34 13t26.5 18t22.5 20v-51q-23 -21 -52.5 -33t-74.5 -12q-18 0 -32.5 1.5t-31 5t-37.5 11t-51 19.5q-23 9 -39 15t-28.5 9.5t-24.5 5t-27 1.5q-48 0 -75.5 -19t-48.5 -40
v51q22 21 49 34.5t75 13.5zM89 227v51q22 21 49 34.5t75 13.5q19 0 33 -1.5t30 -6t37 -12.5t53 -20q23 -9 38.5 -14.5t28 -8.5t24.5 -4t27 -1q25 0 44 5t34 13t26.5 18t22.5 20v-51q-23 -21 -52.5 -33t-74.5 -12q-18 0 -32.5 1.5t-31 5t-37.5 11t-51 19.5q-23 9 -39 15
t-28.5 9.5t-24.5 5t-27 1.5q-48 0 -75.5 -19t-48.5 -40z" />
    <glyph glyph-name="notequal" unicode="&#x2260;" horiz-adv-x="700" 
d="M277 292l97 170h-285v40h309l94 164h48l-95 -164h166v-40h-189l-98 -170h287v-40h-310l-95 -164h-47l94 164h-164v40h188z" />
    <glyph glyph-name="lessequal" unicode="&#x2264;" horiz-adv-x="700" 
d="M89 356v42l522 249v-46l-472 -224l472 -224v-46zM611 40v-40h-522v40h522z" />
    <glyph glyph-name="greaterequal" unicode="&#x2265;" horiz-adv-x="700" 
d="M89 647l522 -249v-42l-522 -249v46l472 224l-472 224v46zM89 0v40h522v-40h-522z" />
    <glyph glyph-name="lozenge" unicode="&#x25ca;" horiz-adv-x="700" 
d="M67 378l283 397l283 -397l-283 -395zM581 378l-231 324l-231 -324l231 -322z" />
    <glyph glyph-name="fi" unicode="&#xfb01;" horiz-adv-x="511" 
d="M88 0v519q0 25 0.5 53.5t4.5 58.5q6 50 42 81q32 27 69 40t73 23v-41q-32 -9 -66.5 -22t-54.5 -36q-14 -17 -18.5 -33.5t-6.5 -36.5q-2 -26 -2.5 -47t-0.5 -38h152v-39h-152v-482h-40zM383 0v528h40v-528h-40zM381 628v126h44v-126h-44z" />
    <glyph glyph-name="fl" unicode="&#xfb02;" horiz-adv-x="511" 
d="M88 0v519q0 25 0.5 53.5t4.5 58.5q6 50 42 81q32 27 69 40t73 23v-41q-32 -9 -66.5 -22t-54.5 -36q-14 -17 -18.5 -33.5t-6.5 -36.5q-2 -26 -2.5 -47t-0.5 -38h152v-39h-152v-482h-40zM383 0v754h40v-754h-40z" />
    <glyph glyph-name="zero.tf" horiz-adv-x="650" 
d="M104 377q0 101 8 175.5t39 130.5q23 42 66.5 65t105.5 23q123 0 174 -94q27 -51 38 -127t11 -165q0 -95 -9.5 -174.5t-35.5 -129.5q-25 -48 -65.5 -73t-111.5 -25q-63 0 -102.5 18.5t-65.5 58.5q-29 46 -40.5 128t-11.5 189zM146 378q0 -100 9 -178t37 -120
q21 -32 52.5 -44.5t80.5 -12.5t84 17.5t57 62.5t30 116t8 163q0 97 -12 171t-35 112q-40 66 -135 66q-84 0 -125 -53q-32 -40 -41.5 -113.5t-9.5 -186.5z" />
    <glyph glyph-name="one.tf" horiz-adv-x="650" 
d="M388 774v-734h137v-40h-345v40h167v677l-225 -73v43z" />
    <glyph glyph-name="two.tf" horiz-adv-x="650" 
d="M80 45q41 47 88 101.5t90 105t76.5 90.5t47.5 58q21 27 38.5 51t30 47t19 47t6.5 52t-6 52.5t-25 43.5q-20 20 -48.5 29t-78.5 9q-23 0 -52 -4.5t-57.5 -11t-53.5 -13t-39 -10.5v41q15 5 39 11.5t52 12.5t57 10t54 4q58 0 98.5 -13t66.5 -45q20 -25 27.5 -52t7.5 -64
q0 -57 -24.5 -106t-69.5 -105q-42 -52 -87 -105.5t-85.5 -101t-73 -84.5t-49.5 -55h419v-40h-468v45z" />
    <glyph glyph-name="three.tf" horiz-adv-x="650" 
d="M101 5v41q19 -3 42.5 -7t48.5 -7.5t49.5 -6t45.5 -2.5q41 0 77 7t60 26q32 24 46.5 61t14.5 79q0 58 -20 96t-58 61q-20 12 -42 14.5t-58 2.5h-130v40h208l50 68q26 35 35.5 64t9.5 60q0 25 -7 48.5t-25 40.5q-20 20 -52 30t-86 10q-27 0 -56.5 -4t-57 -9.5t-51 -11
t-38.5 -9.5v41q17 5 42 10.5t52.5 10.5t56 8.5t52.5 3.5q62 0 102 -12.5t69 -41.5q22 -22 31.5 -53.5t9.5 -62.5q0 -32 -11 -66t-36 -71q-14 -21 -28.5 -40.5t-24.5 -32.5q12 -7 28.5 -19t31.5 -30q20 -25 32.5 -60.5t12.5 -83.5q0 -45 -14 -86.5t-43 -70.5q-33 -32 -77 -45
t-107 -13q-48 0 -100 8t-85 14z" />
    <glyph glyph-name="four.tf" horiz-adv-x="650" 
d="M412 753h50l-354 -538h358v199h41v-414h-41v175h-409v39z" />
    <glyph glyph-name="five.tf" horiz-adv-x="650" 
d="M110 44q42 -8 87 -14.5t93 -6.5q51 0 89 11.5t64 40.5q23 26 34 61t11 83q0 45 -12.5 80.5t-41.5 57.5q-14 11 -31 18.5t-41 12t-57.5 6.5t-81.5 2h-102v358h385v-40h-344v-278h91q68 0 111.5 -8t72.5 -24q52 -29 72.5 -79t20.5 -105q0 -49 -13 -93.5t-40 -75.5
q-36 -41 -81.5 -54.5t-108.5 -13.5q-51 0 -96 6.5t-81 13.5v41z" />
    <glyph glyph-name="six.tf" horiz-adv-x="650" 
d="M219 639q59 55 134.5 84t150.5 43v-41q-85 -17 -150.5 -45.5t-107.5 -70.5q-37 -37 -55.5 -85t-24.5 -92q17 1 55 2t80 1q76 0 122.5 -14t78.5 -49q26 -28 37 -67.5t11 -81.5q0 -41 -7 -81t-33 -77t-66 -59.5t-115 -22.5q-71 0 -112 22.5t-67 67.5q-23 39 -29.5 92
t-6.5 105q0 39 2 87.5t12 99t31 98.5t60 84zM156 270q0 -57 6.5 -101.5t23.5 -75.5q19 -35 53.5 -52.5t89.5 -17.5q54 0 87.5 14.5t56.5 46.5q20 28 27.5 64.5t7.5 74.5q0 32 -8.5 65.5t-28.5 56.5q-28 31 -69 40.5t-102 9.5q-40 0 -79 -1t-60 -2q-2 -22 -3.5 -50.5
t-1.5 -71.5z" />
    <glyph glyph-name="seven.tf" horiz-adv-x="650" 
d="M142 0l375 714h-454v40h500v-42l-373 -712h-48z" />
    <glyph glyph-name="eight.tf" horiz-adv-x="650" 
d="M142 333q15 17 34.5 33.5t36.5 29.5q-42 18 -66 53q-32 48 -32 128q0 45 14.5 83.5t51.5 67.5q26 20 61 31.5t87 11.5t92.5 -14.5t72.5 -52.5q21 -25 31 -59t10 -68q0 -39 -10.5 -69.5t-32.5 -60.5q-12 -17 -29 -36t-32 -34q24 -8 45.5 -20.5t37.5 -28.5q26 -27 37 -61.5
t11 -74.5q0 -45 -13.5 -82.5t-44.5 -67.5q-34 -32 -77 -45.5t-102 -13.5q-62 0 -103.5 12t-72.5 37q-30 24 -45.5 60.5t-15.5 97.5q0 36 12.5 73t41.5 70zM174 65q28 -23 63 -32.5t88 -9.5q48 0 80.5 9t56.5 28q58 45 58 131q0 42 -15 79t-58 57q-36 17 -82.5 28.5
t-106.5 24.5q-17 -12 -43.5 -33t-43.5 -41q-23 -28 -32 -58t-9 -58q0 -42 9 -72.5t35 -52.5zM212 440q15 -9 37 -16.5t46.5 -13.5t49 -11t43.5 -9q17 17 35 36t35 43q19 26 27 52t8 56q0 31 -8.5 59t-27.5 48q-43 47 -128 47q-47 0 -78 -11t-55 -34q-21 -20 -30 -48.5
t-9 -60.5q0 -105 55 -137z" />
    <glyph glyph-name="nine.tf" horiz-adv-x="650" 
d="M100 526q0 38 5.5 79.5t25.5 76.5q23 38 66 63.5t116 25.5q63 0 106 -24t68 -66q29 -50 39 -129.5t10 -178.5q0 -31 -0.5 -55t-2 -44.5t-4.5 -40t-8 -41.5q-9 -41 -27.5 -79.5t-44.5 -64.5q-32 -32 -72.5 -48.5t-101.5 -16.5q-44 0 -83.5 6t-73.5 13v41q35 -8 76 -14
t83 -6q40 0 70.5 10.5t55.5 28.5q29 21 48.5 58.5t28.5 77.5q8 38 11 75.5t3 55.5q-35 -5 -84.5 -10t-91.5 -5q-75 0 -119 17t-68 55q-20 32 -25.5 65t-5.5 75zM142 526q0 -38 4.5 -67.5t20.5 -52.5q22 -32 60.5 -42t83.5 -10q46 0 96.5 5t86.5 10q0 40 -1 80t-5 77t-12 70
t-21 58q-21 41 -56.5 59t-86.5 18q-97 0 -137 -58q-21 -31 -27 -65t-6 -82z" />
    <glyph glyph-name="zero.numr" horiz-adv-x="429" 
d="M68 540q0 66 4 106t24 68q17 23 46.5 37t71.5 14q81 0 118 -56q20 -31 24.5 -72.5t4.5 -96.5q0 -54 -6 -93.5t-24 -66.5q-17 -26 -45.5 -41t-71.5 -15q-41 0 -67.5 10.5t-43.5 31.5q-19 23 -27 61.5t-8 112.5zM108 540q0 -49 3.5 -85.5t18.5 -58.5q13 -19 32.5 -26
t51.5 -7q29 0 51 10t36 35q14 24 17 57t3 75q0 55 -3.5 90t-19.5 58q-26 38 -86 38q-25 0 -46 -7.5t-34 -23.5q-18 -23 -21 -58t-3 -97z" />
    <glyph glyph-name="one.numr" horiz-adv-x="270" 
d="M146 335v377l-117 -37v42l157 50v-432h-40z" />
    <glyph glyph-name="two.numr" horiz-adv-x="379" 
d="M40 382q20 20 46 45.5t53 52.5t52 53t42 45q23 26 30 44.5t7 36.5q0 14 -3 25.5t-12 20.5q-9 10 -25 15.5t-35 5.5q-21 0 -42 -2.5t-40.5 -6t-34.5 -7.5t-24 -6v40q18 5 58 13t79 8q62 0 94 -33q25 -26 25 -74q0 -32 -11 -56.5t-39 -54.5q-24 -26 -49 -52t-48.5 -48.5
t-43 -41t-32.5 -30.5h245v-40h-292v47z" />
    <glyph glyph-name="three.numr" horiz-adv-x="410" 
d="M57 339v40q25 -5 61.5 -10.5t65.5 -5.5t47 5t29 13q14 9 22.5 26t8.5 39q0 24 -8.5 40.5t-29.5 28.5q-11 6 -28 8.5t-35 2.5h-92v39h143l18 24q12 17 20 33t8 36q0 34 -20 49q-11 8 -27.5 13.5t-44.5 5.5q-19 0 -39 -2.5t-38.5 -6t-33.5 -7t-24 -5.5v40q10 2 25.5 5.5
t34 6.5t38 5.5t37.5 2.5q67 0 101 -30q14 -11 23 -31t9 -45q0 -20 -7 -36.5t-18 -33.5q-7 -10 -15.5 -22t-13.5 -18q30 -18 44 -40.5t14 -59.5q0 -54 -34 -88q-37 -37 -114 -37q-32 0 -69 5.5t-58 9.5z" />
    <glyph glyph-name="four.numr" horiz-adv-x="388" 
d="M238 754h51l-208 -281h185v97h40v-235h-40v98h-235v42z" />
    <glyph glyph-name="five.numr" horiz-adv-x="406" 
d="M75 376q26 -5 55.5 -9t60.5 -4q35 0 57 6.5t36 24.5q10 13 13 28t3 34q0 39 -25 57q-17 12 -47 17t-87 5h-59v219h240v-40h-200v-140h48q77 0 114 -20q27 -14 41.5 -40t14.5 -58q0 -59 -29 -92q-20 -23 -49.5 -31.5t-70.5 -8.5q-34 0 -64 4t-52 8v40z" />
    <glyph glyph-name="six.numr" horiz-adv-x="422" 
d="M141 692q37 29 83 45.5t105 28.5v-41q-49 -9 -91.5 -25.5t-68.5 -36.5q-27 -20 -38 -43t-15 -44q15 1 43.5 2t64.5 1q39 0 64.5 -8.5t42.5 -28.5q16 -17 22 -40t6 -46q0 -49 -28 -84q-18 -23 -48 -35.5t-70 -12.5q-75 0 -114 47q-17 20 -24 47.5t-7 55.5q0 75 13 128
t60 90zM108 477q0 -23 5 -44.5t19 -38.5q26 -31 81 -31q45 0 75.5 22.5t30.5 70.5q0 14 -3 28.5t-11 26.5q-12 17 -33.5 23t-47.5 6q-37 0 -62.5 -0.5t-51.5 -2.5q-2 -13 -2 -28v-32z" />
    <glyph glyph-name="seven.numr" horiz-adv-x="336" 
d="M60 335l207 379h-257v40h302v-43l-205 -376h-47z" />
    <glyph glyph-name="eight.numr" horiz-adv-x="473" 
d="M112 518q20 19 37 30q-23 11 -35 29q-18 27 -18 77q0 26 9.5 48t29.5 36q36 27 103 27q30 0 55 -6t47 -22q20 -14 28.5 -36.5t8.5 -46.5q0 -40 -24 -71q-8 -10 -17.5 -20t-18.5 -19q30 -10 48 -28q29 -29 29 -74q0 -50 -34 -81q-20 -18 -52.5 -27.5t-70.5 -9.5
q-78 0 -119 29q-39 28 -39 89q0 26 8 43t25 33zM148 381q16 -9 39.5 -13.5t49.5 -4.5q32 0 53 5.5t35 15.5q13 8 21 23t8 35q0 24 -11.5 39.5t-41.5 26.5q-23 8 -53.5 14.5t-60.5 11.5q-9 -7 -21 -17t-24 -22q-14 -14 -18.5 -26.5t-4.5 -26.5q0 -44 29 -61zM136 654
q0 -31 7 -47t27 -25q18 -8 45.5 -14t60.5 -12q7 6 18.5 19t20.5 24q10 12 16 25t6 30q0 14 -4.5 28t-17.5 24q-25 20 -77 20q-26 0 -46 -5t-31 -13q-25 -17 -25 -54z" />
    <glyph glyph-name="nine.numr" horiz-adv-x="422" 
d="M63 624q0 23 4 46t17 41q15 22 44.5 38t74.5 16q39 0 69 -13.5t47 -36.5q20 -26 27.5 -69t7.5 -97q0 -31 -1 -57t-6 -49q-11 -49 -39 -77q-19 -19 -47.5 -30.5t-66.5 -11.5q-36 0 -62 4t-53 9v40q25 -5 54 -9.5t65 -4.5q47 0 77 27q24 21 32 58q4 17 5.5 32t1.5 26
q-22 -3 -56 -6.5t-61 -3.5q-40 0 -64.5 7.5t-42.5 26.5q-15 16 -21 39.5t-6 54.5zM103 623q0 -20 2.5 -37t13.5 -28q11 -12 29.5 -17.5t42.5 -5.5q63 0 123 11q0 49 -5.5 86.5t-21.5 58.5q-25 35 -84 35q-52 0 -79 -29q-13 -14 -17 -33.5t-4 -40.5z" />
    <glyph glyph-name="zero.dnom" horiz-adv-x="429" 
d="M68 205q0 66 4 106t24 68q17 23 46.5 37t71.5 14q81 0 118 -56q20 -31 24.5 -72.5t4.5 -96.5q0 -54 -6 -93.5t-24 -66.5q-17 -26 -45.5 -41t-71.5 -15q-41 0 -67.5 10.5t-43.5 31.5q-19 23 -27 61.5t-8 112.5zM108 205q0 -49 3.5 -85.5t18.5 -58.5q13 -19 32.5 -26
t51.5 -7q29 0 51 10t36 35q14 24 17 57t3 75q0 55 -3.5 90t-19.5 58q-26 38 -86 38q-25 0 -46 -7.5t-34 -23.5q-18 -23 -21 -58t-3 -97z" />
    <glyph glyph-name="one.dnom" horiz-adv-x="270" 
d="M146 0v377l-117 -37v42l157 50v-432h-40z" />
    <glyph glyph-name="two.dnom" horiz-adv-x="379" 
d="M40 47q20 20 46 45.5t53 52.5t52 53t42 45q23 26 30 44.5t7 36.5q0 14 -3 25.5t-12 20.5q-9 10 -25 15.5t-35 5.5q-21 0 -42 -2.5t-40.5 -6t-34.5 -7.5t-24 -6v40q18 5 58 13t79 8q62 0 94 -33q25 -26 25 -74q0 -32 -11 -56.5t-39 -54.5q-24 -26 -49 -52t-48.5 -48.5
t-43 -41t-32.5 -30.5h245v-40h-292v47z" />
    <glyph glyph-name="three.dnom" horiz-adv-x="410" 
d="M57 4v40q25 -5 61.5 -10.5t65.5 -5.5t47 5t29 13q14 9 22.5 26t8.5 39q0 24 -8.5 40.5t-29.5 28.5q-11 6 -28 8.5t-35 2.5h-92v39h143l18 24q12 17 20 33t8 36q0 34 -20 49q-11 8 -27.5 13.5t-44.5 5.5q-19 0 -39 -2.5t-38.5 -6t-33.5 -7t-24 -5.5v40q10 2 25.5 5.5
t34 6.5t38 5.5t37.5 2.5q67 0 101 -30q14 -11 23 -31t9 -45q0 -20 -7 -36.5t-18 -33.5q-7 -10 -15.5 -22t-13.5 -18q30 -18 44 -40.5t14 -59.5q0 -54 -34 -88q-37 -37 -114 -37q-32 0 -69 5.5t-58 9.5z" />
    <glyph glyph-name="four.dnom" horiz-adv-x="388" 
d="M238 419h51l-208 -281h185v97h40v-235h-40v98h-235v42z" />
    <glyph glyph-name="five.dnom" horiz-adv-x="406" 
d="M75 41q26 -5 55.5 -9t60.5 -4q35 0 57 6.5t36 24.5q10 13 13 28t3 34q0 39 -25 57q-17 12 -47 17t-87 5h-59v219h240v-40h-200v-140h48q77 0 114 -20q27 -14 41.5 -40t14.5 -58q0 -59 -29 -92q-20 -23 -49.5 -31.5t-70.5 -8.5q-34 0 -64 4t-52 8v40z" />
    <glyph glyph-name="six.dnom" horiz-adv-x="422" 
d="M141 357q37 29 83 45.5t105 28.5v-41q-49 -9 -91.5 -25.5t-68.5 -36.5q-27 -20 -38 -43t-15 -44q15 1 43.5 2t64.5 1q39 0 64.5 -8.5t42.5 -28.5q16 -17 22 -40t6 -46q0 -49 -28 -84q-18 -23 -48 -35.5t-70 -12.5q-75 0 -114 47q-17 20 -24 47.5t-7 55.5q0 75 13 128
t60 90zM108 142q0 -23 5 -44.5t19 -38.5q26 -31 81 -31q45 0 75.5 22.5t30.5 70.5q0 14 -3 28.5t-11 26.5q-12 17 -33.5 23t-47.5 6q-37 0 -62.5 -0.5t-51.5 -2.5q-2 -13 -2 -28v-32z" />
    <glyph glyph-name="seven.dnom" horiz-adv-x="336" 
d="M60 0l207 379h-257v40h302v-43l-205 -376h-47z" />
    <glyph glyph-name="eight.dnom" horiz-adv-x="473" 
d="M112 183q20 19 37 30q-23 11 -35 29q-18 27 -18 77q0 26 9.5 48t29.5 36q36 27 103 27q30 0 55 -6t47 -22q20 -14 28.5 -36.5t8.5 -46.5q0 -40 -24 -71q-8 -10 -17.5 -20t-18.5 -19q30 -10 48 -28q29 -29 29 -74q0 -50 -34 -81q-20 -18 -52.5 -27.5t-70.5 -9.5
q-78 0 -119 29q-39 28 -39 89q0 26 8 43t25 33zM148 46q16 -9 39.5 -13.5t49.5 -4.5q32 0 53 5.5t35 15.5q13 8 21 23t8 35q0 24 -11.5 39.5t-41.5 26.5q-23 8 -53.5 14.5t-60.5 11.5q-9 -7 -21 -17t-24 -22q-14 -14 -18.5 -26.5t-4.5 -26.5q0 -44 29 -61zM136 319
q0 -31 7 -47t27 -25q18 -8 45.5 -14t60.5 -12q7 6 18.5 19t20.5 24q10 12 16 25t6 30q0 14 -4.5 28t-17.5 24q-25 20 -77 20q-26 0 -46 -5t-31 -13q-25 -17 -25 -54z" />
    <glyph glyph-name="nine.dnom" horiz-adv-x="422" 
d="M63 289q0 23 4 46t17 41q15 22 44.5 38t74.5 16q39 0 69 -13.5t47 -36.5q20 -26 27.5 -69t7.5 -97q0 -31 -1 -57t-6 -49q-11 -49 -39 -77q-19 -19 -47.5 -30.5t-66.5 -11.5q-36 0 -62 4t-53 9v40q25 -5 54 -9.5t65 -4.5q47 0 77 27q24 21 32 58q4 17 5.5 32t1.5 26
q-22 -3 -56 -6.5t-61 -3.5q-40 0 -64.5 7.5t-42.5 26.5q-15 16 -21 39.5t-6 54.5zM103 288q0 -20 2.5 -37t13.5 -28q11 -12 29.5 -17.5t42.5 -5.5q63 0 123 11q0 49 -5.5 86.5t-21.5 58.5q-25 35 -84 35q-52 0 -79 -29q-13 -14 -17 -33.5t-4 -40.5z" />
    <glyph glyph-name="IJacute" horiz-adv-x="595" 
d="M110 0v754h41v-754h-41zM225 -42q13 4 33.5 11t43 15.5t43.5 18t36 17.5q22 12 35.5 24.5t20.5 31.5q8 22 9 58t1 76v544h41v-539q0 -53 -1.5 -88t-9.5 -62q-12 -39 -51 -65q-20 -13 -46.5 -25.5t-54.5 -23.5t-54.5 -20t-45.5 -15v42zM93 818l114 132h57l-115 -132h-56z
M423 818l114 132h57l-115 -132h-56z" />
    <glyph glyph-name="ijacute" horiz-adv-x="431" 
d="M70 622l114 132h57l-115 -132h-56zM284 622l114 132h57l-115 -132h-56zM88 0v528h40v-528h-40zM168 -167l21 10.5t27 14t27 15.5t21 15q14 12 20.5 23t11.5 25t6.5 40.5t1.5 49.5v502h40v-496q0 -29 -1 -59t-6 -47q-7 -24 -20 -42t-38 -36q-21 -16 -55 -32.5t-56 -26.5
v44z" />
    <glyph glyph-name="space.tf" horiz-adv-x="325" 
 />
    <glyph glyph-name="period.tf" horiz-adv-x="325" 
d="M132 0v125h59v-125h-59z" />
    <glyph glyph-name="comma.tf" horiz-adv-x="325" 
d="M108 -169q6 26 10 49t7 49t4.5 57.5t1.5 75.5v63h55v-100q0 -55 -11 -102t-28 -92h-39z" />
    <glyph glyph-name="colon.tf" horiz-adv-x="325" 
d="M127 403v125h59v-125h-59zM186 125v-125h-59v125h59z" />
    <glyph glyph-name="dollar.tf" horiz-adv-x="650" 
d="M139 699q26 27 66 39.5t103 14.5v104h40v-105q20 -2 45 -6.5t51 -9.5t50 -11t42 -11v-42q-24 6 -52.5 13.5t-57.5 13.5t-57.5 10t-52.5 4q-45 0 -80 -7.5t-57 -26.5q-26 -22 -35.5 -52.5t-9.5 -61.5q0 -29 3.5 -49.5t19.5 -37.5q11 -12 39.5 -25t54.5 -22l168 -59
q40 -14 68.5 -31t46.5 -44q14 -21 19 -47.5t5 -56.5q0 -42 -13.5 -77t-39.5 -60q-32 -29 -70.5 -41.5t-86.5 -15.5v-112h-40v112q-52 2 -109.5 13t-99.5 21v41q22 -5 49 -11t56.5 -11.5t60 -9t58.5 -3.5q48 0 78 7t59 27t42.5 51t13.5 69q0 27 -4 50.5t-21 41.5t-40 29
t-54 22l-155 55q-39 14 -73.5 29.5t-51.5 39.5q-16 23 -20.5 48t-4.5 60q0 29 10 65.5t37 65.5z" />
    <glyph glyph-name="Euro.tf" horiz-adv-x="650" 
d="M93 385q0 98 11.5 162t37.5 111q32 56 85.5 83.5t144.5 27.5q65 0 118.5 -9.5t94.5 -18.5v-41q-44 10 -97 19.5t-116 9.5q-75 0 -123 -23t-77 -80q-7 -15 -13.5 -36t-11 -43.5t-7.5 -45t-4 -41.5h347v-40h-347q-2 -10 -2 -22v-15v-16t2 -22h347v-40h-346q2 -43 9.5 -89.5
t17.5 -71.5q11 -29 26.5 -51.5t38.5 -38t54.5 -23.5t74.5 -8q61 0 117.5 6.5t109.5 14.5v-41q-51 -8 -106 -14t-115 -6q-53 0 -92 9.5t-67.5 28t-47.5 46t-33 64.5q-14 38 -22.5 101.5t-8.5 152.5z" />
    <glyph glyph-name="sterling.tf" horiz-adv-x="650" 
d="M130 0v572q0 42 5 81.5t28 65.5q27 32 62.5 42t89.5 10q23 0 52 -3t59.5 -7.5t61.5 -10t57 -10.5v-41q-25 5 -54.5 10.5t-60.5 10.5t-60.5 8t-54.5 3q-46 0 -73.5 -8.5t-45.5 -28.5q-18 -21 -21.5 -52.5t-3.5 -67.5v-114h294v-40h-294v-380h421v-40h-462z" />
    <glyph glyph-name="yen.tf" horiz-adv-x="650" 
d="M28 754h49l247 -416l249 416h49l-176 -294h145v-40h-169l-77 -129v-291h-41v290l-78 130h-168v40h145z" />
    <glyph glyph-name="uni20BA.tf" horiz-adv-x="650" 
d="M165 754v-252l337 106v-42l-337 -106v-78l337 106v-42l-337 -106v-317q108 0 169 15t100 52q20 19 33 45.5t21 54.5t11.5 53t4.5 41h41q-1 -20 -4 -47t-11 -55.5t-21 -57t-34 -51.5q-19 -21 -42 -38t-58 -28.5t-86 -17.5t-125 -6h-18.5t-20.5 1v770h40z" />
    <glyph glyph-name="uni20BD.tf" horiz-adv-x="650" 
d="M124 0v754h244q65 0 103 -14t65 -43q24 -26 38 -69t14 -88q0 -47 -7.5 -90t-33.5 -78q-23 -32 -58.5 -48t-85.5 -21q-33 -3 -91.5 -4t-146.5 -1v-75h310v-40h-310v-183h-41zM165 338h136.5t97.5 5q42 5 71 18.5t49 44.5q16 25 21.5 59t5.5 75q0 42 -12.5 78.5t-35.5 58.5
t-55.5 29.5t-77.5 7.5h-200v-376z" />
    <glyph glyph-name="parenleft.case" horiz-adv-x="306" 
d="M97 610q0 43 4 85t29 79q23 35 58.5 58.5t81.5 37.5v-42q-36 -15 -62 -33.5t-45 -47.5q-19 -30 -22 -66t-3 -78v-452q0 -42 3 -78.5t22 -66.5q20 -31 45.5 -48.5t61.5 -31.5v-42q-46 14 -81.5 37t-58.5 58q-25 37 -29 79.5t-4 85.5v466z" />
    <glyph glyph-name="parenright.case" horiz-adv-x="306" 
d="M36 -116v42q36 14 61.5 31.5t45.5 48.5q19 30 22 66.5t3 78.5v452q0 42 -3 78t-22 66q-19 29 -45 47.5t-62 33.5v42q46 -14 81.5 -37.5t58.5 -58.5q25 -37 29 -79t4 -85v-466q0 -43 -4 -85.5t-29 -79.5q-23 -35 -58.5 -58t-81.5 -37z" />
    <glyph glyph-name="bracketleft.case" horiz-adv-x="301" 
d="M260 850v-40h-119v-866h119v-40h-160v946h160z" />
    <glyph glyph-name="bracketright.case" horiz-adv-x="301" 
d="M201 850v-946h-160v40h119v866h-119v40h160z" />
    <glyph glyph-name="braceleft.case" horiz-adv-x="319" 
d="M37 358v37q11 5 21 9t24 10q20 9 31.5 23t11.5 45v264q0 66 32 87q14 9 41.5 13t59.5 4h21v-40h-33q-19 0 -38 -3t-28 -13q-10 -11 -12 -28.5t-2 -47.5v-231q0 -31 -8 -51.5t-24 -34.5q-9 -8 -20 -13.5t-22 -10.5q15 -6 28 -13t24 -19q22 -26 22 -80v-229q0 -30 2 -47.5
t12 -28.5q9 -10 28 -13t38 -3h33v-40h-21q-32 0 -59.5 4t-41.5 13q-32 21 -32 87v261q0 32 -8.5 45.5t-30.5 23.5q-14 6 -23.5 10t-25.5 10z" />
    <glyph glyph-name="braceright.case" horiz-adv-x="319" 
d="M39 810v40h21q32 0 59.5 -4t41.5 -13q32 -21 32 -87v-264q0 -31 11.5 -45t31.5 -23q14 -6 24 -10t21 -9v-37q-16 -6 -25.5 -9.5t-23.5 -10.5q-22 -11 -30.5 -24t-8.5 -45v-261q0 -66 -32 -87q-14 -9 -41.5 -13t-59.5 -4h-21v40h33q19 0 38 3t28 13q10 11 12 28.5t2 47.5
v229q0 54 22 80q11 12 24 19t28 13q-11 5 -22 10.5t-20 13.5q-16 14 -24 34.5t-8 51.5v231q0 30 -2 47.5t-12 28.5q-9 10 -28 13t-38 3h-33z" />
    <glyph glyph-name="hyphen.case" horiz-adv-x="398" 
d="M75 355v42h248v-42h-248z" />
    <glyph glyph-name="endash.case" horiz-adv-x="600" 
d="M50 356v40h500v-40h-500z" />
    <glyph glyph-name="emdash.case" horiz-adv-x="1000" 
d="M0 356v40h1000v-40h-1000z" />
    <glyph glyph-name="guillemotleft.case" horiz-adv-x="486" 
d="M407 582h55l-167 -206l167 -206h-55l-167 206zM69 376l168 206h55l-168 -206l168 -206h-55z" />
    <glyph glyph-name="guillemotright.case" horiz-adv-x="486" 
d="M249 582l168 -206l-168 -206h-55l168 206l-168 206h55zM24 582h55l167 -206l-167 -206h-55l167 206z" />
    <glyph glyph-name="guilsinglleft.case" horiz-adv-x="316" 
d="M237 170l-168 206l168 206h55l-168 -206l168 -206h-55z" />
    <glyph glyph-name="guilsinglright.case" horiz-adv-x="316" 
d="M192 376l-168 206h55l168 -206l-168 -206h-55z" />
    <glyph glyph-name="questiondown.case" horiz-adv-x="495" 
d="M71 149q0 45 13 81t34 65q18 26 36.5 48t51.5 58q21 23 35 40.5t23 30.5t13.5 23t7.5 19h46q-7 -17 -13.5 -31.5t-16 -29.5t-23.5 -32.5t-35 -40.5q-30 -32 -50 -54.5t-37 -48.5q-23 -33 -33 -61.5t-10 -66.5q0 -26 6 -50.5t29 -45.5q33 -30 102 -30q36 0 82.5 10.5
t86.5 21.5v-41q-37 -11 -84 -21t-82 -10q-87 0 -133 40q-26 23 -37.5 55t-11.5 71zM280 754h58v-125h-58v125z" />
    <glyph glyph-name="exclamdown.case" horiz-adv-x="263" 
d="M101 514h40q0 -11 0.5 -49.5t0.5 -93v-120v-131.5v-120h-42v120v131.5v120t0.5 93t0.5 49.5zM92 754h58v-125h-58v125z" />
    </font>
</defs>
</svg>
