<?xml version="1.0" standalone="no"?>
<!DOCTYPE svg PUBLIC "-//W3C//DTD SVG 1.1//EN" "http://www.w3.org/Graphics/SVG/1.1/DTD/svg11.dtd" >
<svg xmlns="http://www.w3.org/2000/svg" xmlns:xlink="http://www.w3.org/1999/xlink" version="1.1">
<metadata>
Created by FontForge 20170731 at Wed Dec  4 13:10:48 2019
 By Aleksey,,,
(c) Bayerische Motoren Werke AG (BMW AG) 2019. The font is subject to copyright protection and other intellectual property rights. All rights reserved.
</metadata>
<defs>
<font id="BMWTypeNextLatinTT-Regular" horiz-adv-x="590" >
  <font-face 
    font-family="BMWTypeNext Latin TT Regular"
    font-weight="400"
    font-stretch="normal"
    units-per-em="1000"
    panose-1="0 0 0 0 0 0 0 0 0 0"
    ascent="800"
    descent="-200"
    x-height="528"
    cap-height="754"
    bbox="-158 -280 1438 1062"
    underline-thickness="50"
    underline-position="-276"
    unicode-range="U+000D-FB02"
  />
<missing-glyph horiz-adv-x="600" 
d="M50 754h500v-754h-500v754zM515 63v627l-194 -313zM85 690v-627l194 314zM491 720h-382l191 -309zM109 34h382l-191 309z" />
    <glyph glyph-name=".notdef" horiz-adv-x="600" 
d="M50 754h500v-754h-500v754zM515 63v627l-194 -313zM85 690v-627l194 314zM491 720h-382l191 -309zM109 34h382l-191 309z" />
    <glyph glyph-name=".null" horiz-adv-x="0" 
 />
    <glyph glyph-name=".null" horiz-adv-x="0" 
 />
    <glyph glyph-name="uni000D" unicode="&#xd;" horiz-adv-x="251" 
 />
    <glyph glyph-name="space" unicode=" " horiz-adv-x="249" 
 />
    <glyph glyph-name="exclam" unicode="!" horiz-adv-x="291" 
d="M106 754h98v-144v-114.5t-0.5 -113.5t-1 -92t-0.5 -50h-94q0 11 -0.5 50t-1 92t-0.5 113.5v114.5v144zM100 152h110v-152h-110v152z" />
    <glyph glyph-name="quotedbl" unicode="&#x22;" horiz-adv-x="439" 
d="M260 754h102v-90q0 -24 -1.5 -59.5t-3.5 -71t-3.5 -65t-2.5 -40.5h-80q-1 11 -2.5 41t-3.5 66t-3.5 71.5t-1.5 57.5v90zM78 664v90h102v-90q0 -24 -1.5 -59.5t-3.5 -71t-3.5 -65t-2.5 -40.5h-80q-1 11 -2.5 41t-3.5 66t-3.5 71.5t-1.5 57.5z" />
    <glyph glyph-name="numbersign" unicode="#" horiz-adv-x="650" 
d="M28 192v80h121l34 212h-109v80h121l30 191h83l-30 -191h152l30 191h83l-30 -191h109v-80h-121l-34 -212h109v-80h-121l-30 -192h-83l30 192h-152l-30 -192h-83l30 192h-109zM384 272l34 212h-152l-34 -212h152z" />
    <glyph glyph-name="dollar" unicode="$" horiz-adv-x="678" 
d="M135 710q28 24 66.5 35.5t92.5 13.5v98h89v-100q51 -5 106 -16.5t93 -20.5v-95q-27 6 -59 13.5t-65.5 14t-66 10.5t-59.5 4q-47 0 -78.5 -5.5t-50.5 -20.5q-18 -14 -25 -34.5t-7 -46.5q0 -23 4.5 -40.5t20.5 -29.5t40.5 -21.5t59.5 -21.5l136 -45q49 -16 78 -32t51 -39
q44 -47 44 -126q0 -48 -16 -87t-48 -66q-31 -26 -68.5 -38.5t-89.5 -16.5v-110h-89v109q-55 3 -113 13t-101 18v95q56 -11 123 -22.5t130 -11.5q43 0 75 5t56 21q22 14 32.5 37.5t10.5 50.5q0 23 -4.5 38.5t-17.5 28.5q-14 14 -39 24t-63 23l-145 49q-41 14 -71 28.5
t-49 34.5q-45 48 -45 128q0 46 14 85t48 69z" />
    <glyph glyph-name="percent" unicode="%" horiz-adv-x="1073" 
d="M700 377q20 26 55 39.5t79 13.5q86 0 129 -50q26 -31 34.5 -72t8.5 -100q0 -57 -9.5 -97t-33.5 -69q-21 -26 -52.5 -39.5t-76.5 -13.5q-43 0 -74.5 10.5t-53.5 33.5q-25 27 -34 67.5t-9 107.5q0 61 7.5 100.5t29.5 68.5zM747 208q0 -42 3.5 -71.5t17.5 -46.5
q11 -14 26.5 -18.5t39.5 -4.5q23 0 39 6.5t28 23.5q14 19 17.5 46t3.5 65q0 41 -3.5 68.5t-15.5 45.5q-20 30 -69 30q-24 0 -40.5 -6t-27.5 -21q-14 -18 -16.5 -45.5t-2.5 -71.5zM293 0l392 754h100l-393 -754h-99zM104 712q20 26 55 39.5t79 13.5q86 0 129 -50
q26 -31 34.5 -72t8.5 -100q0 -57 -9.5 -97t-33.5 -69q-21 -26 -52.5 -39.5t-76.5 -13.5q-43 0 -74.5 10.5t-53.5 33.5q-25 27 -34 67.5t-9 107.5q0 61 7.5 100.5t29.5 68.5zM151 543q0 -42 3.5 -71.5t17.5 -46.5q11 -14 26.5 -18.5t39.5 -4.5q23 0 39 6.5t28 23.5
q14 19 17.5 46t3.5 65q0 41 -3.5 68.5t-15.5 45.5q-20 30 -69 30q-24 0 -40.5 -6t-27.5 -21q-14 -18 -16.5 -45.5t-2.5 -71.5z" />
    <glyph glyph-name="ampersand" unicode="&#x26;" horiz-adv-x="765" 
d="M55 186q0 45 13 82t48 78q19 22 43.5 43t48.5 40q-12 13 -20 23.5t-16 23.5q-15 24 -25 52t-10 63t10.5 68.5t39.5 62.5t69.5 39t97.5 10q22 0 47 -2.5t50 -7t48 -9t41 -9.5v-96q-39 10 -90.5 20.5t-95.5 10.5q-32 0 -54 -4.5t-38 -19.5q-17 -15 -22 -31.5t-5 -38.5
q0 -30 13 -50.5t37 -49.5q14 -16 35.5 -39t46 -48.5t49.5 -50.5l46 -46h-129l-63 63q-21 -16 -39 -31t-38 -36q-22 -24 -31.5 -49t-9.5 -54q0 -30 7.5 -52t27.5 -38q19 -15 41.5 -21t56.5 -6q31 0 56 6t51 22q23 14 47 36.5t45 47.5l95 112h117l-109 -131l164 -169h-133
l-93 96q-21 -22 -39.5 -38.5t-47.5 -34.5q-32 -20 -68 -30t-85 -10q-54 0 -93.5 11t-71.5 37q-30 25 -47.5 64.5t-17.5 90.5z" />
    <glyph glyph-name="quotesingle" unicode="'" horiz-adv-x="258" 
d="M78 754h102v-90q0 -24 -1.5 -59.5t-3.5 -71t-3.5 -65t-2.5 -40.5h-80q-1 11 -2.5 41t-3.5 66t-3.5 71.5t-1.5 57.5v90z" />
    <glyph glyph-name="parenleft" unicode="(" horiz-adv-x="326" 
d="M79 510q0 48 7 91.5t36 78.5q33 41 79 62.5t94 32.5v-88q-29 -11 -54 -24.5t-42 -38.5t-21 -60.5t-4 -76.5v-410q0 -41 3.5 -77.5t21.5 -60.5t42.5 -37.5t53.5 -24.5v-88q-48 11 -94.5 32t-78.5 63q-28 35 -35.5 78.5t-7.5 91.5v456z" />
    <glyph glyph-name="parenright" unicode=")" horiz-adv-x="326" 
d="M31 -211v88q29 11 54 24.5t42 37.5t21 60.5t4 77.5v410q0 41 -3.5 76.5t-21.5 60.5t-42.5 38.5t-53.5 24.5v88q48 -11 94.5 -32t78.5 -63q28 -35 35.5 -78.5t7.5 -91.5v-456q0 -48 -7 -91.5t-36 -78.5q-33 -41 -79 -62.5t-94 -32.5z" />
    <glyph glyph-name="asterisk" unicode="*" horiz-adv-x="554" 
d="M89 613v84l154 -92l-2 149h73l-3 -149l154 92v-84l-114 -66l114 -65v-84l-154 92l3 -149h-73l2 149l-154 -92v84l114 65z" />
    <glyph glyph-name="plus" unicode="+" horiz-adv-x="700" 
d="M303 423v232h94v-232h227v-92h-227v-232h-94v232h-227v92h227z" />
    <glyph glyph-name="comma" unicode="," horiz-adv-x="271" 
d="M63 -179q5 22 9.5 44t7.5 47t5 54t2 66v120h106v-127q0 -63 -18.5 -114.5t-35.5 -89.5h-76z" />
    <glyph glyph-name="hyphen" unicode="-" horiz-adv-x="429" 
d="M62 218v95h304v-95h-304z" />
    <glyph glyph-name="period" unicode="." horiz-adv-x="271" 
d="M78 0v152h115v-152h-115z" />
    <glyph glyph-name="slash" unicode="/" horiz-adv-x="397" 
d="M7 0l283 754h100l-282 -754h-101z" />
    <glyph glyph-name="zero" unicode="0" horiz-adv-x="659" 
d="M80 377q0 99 9 175.5t44 128.5q60 90 196 90q60 0 108 -19t80 -62q40 -52 51 -131.5t11 -178.5q0 -103 -10.5 -178t-46.5 -130q-30 -46 -79 -67.5t-115 -21.5q-63 0 -110 17t-78 58q-39 51 -49.5 129t-10.5 190zM177 375q0 -88 6.5 -152.5t30.5 -100.5q18 -27 47.5 -37
t67.5 -10t68.5 13.5t49.5 45.5q22 38 28.5 98t6.5 148t-8 149t-30 97q-17 27 -47 40t-69 13t-68.5 -13t-48.5 -43q-23 -36 -28.5 -97.5t-5.5 -150.5z" />
    <glyph glyph-name="one" unicode="1" horiz-adv-x="384" 
d="M188 0v647l-186 -58v96l282 89v-774h-96z" />
    <glyph glyph-name="two" unicode="2" horiz-adv-x="575" 
d="M29 93q35 37 79 85t87 95.5t80 89t57 65.5q32 39 51 71t19 73q0 23 -5.5 42.5t-22.5 34.5q-19 17 -47 23.5t-70 6.5q-23 0 -51.5 -4t-57 -10t-53.5 -12t-41 -10v95q18 5 43 10.5t53.5 10.5t58 8.5t54.5 3.5q66 0 111 -14t77 -46q26 -26 37.5 -61t11.5 -72
q0 -65 -27.5 -115.5t-75.5 -107.5q-32 -38 -65.5 -76t-65.5 -72t-60 -63.5t-50 -51.5h372v-92h-499v93z" />
    <glyph glyph-name="three" unicode="3" horiz-adv-x="588" 
d="M40 5v93q39 -7 94.5 -15t107.5 -8q41 0 73 7t53 23q24 18 35 44.5t11 58.5q0 42 -16 69t-48 45q-20 11 -45 13t-57 2h-132v91h211l36 49q20 28 32 53.5t12 50.5q0 20 -5.5 36.5t-19.5 30.5q-17 16 -45.5 23.5t-76.5 7.5q-27 0 -57.5 -3.5t-60 -9t-55 -11t-41.5 -9.5v94
q19 4 45.5 9.5t55.5 10t59 8t55 3.5q72 0 116.5 -13t76.5 -44q26 -25 37.5 -58.5t11.5 -69.5q0 -33 -11.5 -63.5t-33.5 -62.5q-13 -19 -25.5 -37t-20.5 -29q13 -8 26 -18.5t27 -26.5q23 -26 34.5 -60.5t11.5 -79.5t-14 -86t-42 -70q-35 -37 -86.5 -53.5t-125.5 -16.5
q-60 0 -114.5 8t-88.5 14z" />
    <glyph glyph-name="four" unicode="4" horiz-adv-x="613" 
d="M387 755h118l-350 -504h279v165h95v-416h-95v159h-397v92z" />
    <glyph glyph-name="five" unicode="5" horiz-adv-x="593" 
d="M80 97q40 -8 88.5 -15t95.5 -7q44 0 76 8.5t53 31.5q20 22 28.5 48.5t8.5 61.5q0 33 -9.5 58.5t-32.5 44.5t-63.5 25.5t-117.5 6.5h-116v394h414v-92h-319v-210h73q70 0 116 -12.5t75 -35.5q38 -30 57.5 -77t19.5 -101q0 -108 -57 -172q-35 -38 -84.5 -54.5t-117.5 -16.5
q-54 0 -101.5 6.5t-86.5 13.5v94z" />
    <glyph glyph-name="six" unicode="6" horiz-adv-x="636" 
d="M192 642q60 54 146.5 82.5t185.5 42.5v-93q-73 -12 -138 -32t-107 -51q-40 -29 -60.5 -66t-27.5 -76q20 1 54.5 2t67.5 1q77 0 125 -15.5t78 -47.5q29 -31 42 -72.5t13 -89.5q0 -45 -11 -87t-39 -78q-30 -38 -76.5 -58.5t-118.5 -20.5q-69 0 -116 18t-79 60
q-29 38 -41.5 91t-12.5 119q0 54 4.5 106.5t17 100.5t35 89.5t58.5 74.5zM174 263q0 -49 6.5 -81t23.5 -58t48.5 -38t73.5 -12q40 0 68 10t48 34q19 23 25.5 50t6.5 59q0 29 -6.5 53.5t-24.5 44.5q-21 23 -54.5 30t-84.5 7q-35 0 -71 -1t-55 -2q-2 -19 -3 -40.5t-1 -55.5z
" />
    <glyph glyph-name="seven" unicode="7" horiz-adv-x="525" 
d="M56 0l339 662h-386v92h496v-91l-339 -663h-110z" />
    <glyph glyph-name="eight" unicode="8" horiz-adv-x="686" 
d="M127 334q30 34 63 58q-36 17 -59 49q-18 25 -25.5 55t-7.5 70q0 45 14 85t49 67q67 53 184 53q126 0 192 -66q27 -27 39.5 -62.5t12.5 -76.5q0 -71 -42 -123q-11 -14 -25 -29.5t-28 -29.5q20 -11 36.5 -22.5t30.5 -26.5q25 -26 36 -61t11 -74q0 -46 -15 -85.5t-48 -69.5
q-37 -33 -86 -47.5t-116 -14.5q-66 0 -114 12t-83 39q-68 54 -68 166q0 37 11.5 71t37.5 63zM212 104q23 -18 56 -25t76 -7q39 0 70 6.5t52 23.5q45 35 45 100q0 35 -13 59.5t-46 43.5q-26 15 -72 26.5t-110 23.5q-14 -11 -30.5 -26t-30.5 -32q-34 -41 -34 -94
q0 -32 7 -56.5t30 -42.5zM235 466q23 -14 72 -26t107 -24q7 7 21.5 23.5t27.5 33.5q14 20 21.5 41t7.5 49q0 26 -6.5 46t-23.5 37q-20 19 -50 27.5t-68 8.5q-78 0 -118 -34q-19 -17 -25 -37.5t-6 -47.5q0 -37 8.5 -60t31.5 -37z" />
    <glyph glyph-name="nine" unicode="9" horiz-adv-x="636" 
d="M65 518q0 50 9.5 92t35.5 79q28 39 75 60.5t119 21.5q137 0 195 -85q32 -46 46 -118.5t14 -175.5q0 -60 -3 -104t-11 -88q-8 -42 -26.5 -80t-47.5 -67q-34 -34 -84 -52t-121 -18q-45 0 -93 7t-83 14v94q36 -8 83.5 -15.5t89.5 -7.5q36 0 67.5 7t53.5 22q26 17 41.5 43
t23.5 58q7 27 10 53t3 44q-34 -4 -78.5 -7.5t-92.5 -3.5q-132 0 -182 68q-25 33 -34.5 71t-9.5 88zM162 518q0 -35 4.5 -58t20.5 -43q18 -23 49.5 -29.5t68.5 -6.5q38 0 83 4t74 8q0 77 -6.5 135t-30.5 96q-18 29 -49 42.5t-70 13.5q-38 0 -67.5 -11t-46.5 -34
q-19 -25 -24.5 -52t-5.5 -65z" />
    <glyph glyph-name="colon" unicode=":" horiz-adv-x="271" 
d="M78 0v152h115v-152h-115zM193 528v-152h-115v152h115z" />
    <glyph glyph-name="semicolon" unicode=";" horiz-adv-x="271" 
d="M63 -179q5 23 9.5 45t7.5 46.5t5 53.5t2 66v121h106v-128q0 -63 -18.5 -114.5t-35.5 -89.5h-76zM78 528h115v-152h-115v152z" />
    <glyph glyph-name="less" unicode="&#x3c;" horiz-adv-x="700" 
d="M624 654v-98l-424 -179l424 -179v-98l-548 233v88z" />
    <glyph glyph-name="equal" unicode="=" horiz-adv-x="700" 
d="M76 225v91h548v-91h-548zM624 528v-91h-548v91h548z" />
    <glyph glyph-name="greater" unicode="&#x3e;" horiz-adv-x="700" 
d="M624 421v-88l-548 -233v98l424 179l-424 179v98z" />
    <glyph glyph-name="question" unicode="?" horiz-adv-x="528" 
d="M257 771q51 0 88.5 -10t66.5 -34t44 -61t15 -76q0 -48 -14 -84.5t-44 -74.5q-20 -25 -40.5 -49.5t-49.5 -56.5t-40.5 -51.5t-16.5 -33.5h-106q11 30 25 57t46 62q26 29 50 56.5t44 52.5q21 27 35 54.5t14 62.5q0 20 -6 37t-24 33q-15 14 -39.5 19t-58.5 5
q-39 0 -86.5 -9.5t-91.5 -20.5v94q40 10 88.5 19t100.5 9zM157 0v152h111v-152h-111z" />
    <glyph glyph-name="at" unicode="@" horiz-adv-x="955" 
d="M178 558q23 24 50 43t62.5 31.5t81.5 19t107 6.5q48 0 101.5 -10.5t105.5 -25.5t99 -31.5t80 -28.5v-301q0 -48 -7.5 -94t-34.5 -81q-29 -38 -71 -58.5t-90 -30.5q-23 -5 -45 -6.5t-36 -1.5v77q-11 -10 -21.5 -18.5t-24.5 -19.5q-27 -20 -51 -30.5t-56 -10.5
q-47 0 -76.5 18.5t-46.5 50.5t-24 74.5t-7 99.5q0 45 8 92t29 79q26 39 63 55t103 16q45 0 92.5 -14t100.5 -32v-347q25 8 48 21t40 38t20 57.5t3 75.5v236q-22 8 -58 20t-78 23.5t-85 19.5t-81 8q-92 0 -143.5 -16.5t-86.5 -51.5q-48 -48 -67 -122t-19 -158q0 -112 23 -182
t71 -112q52 -44 137 -65v-85q-125 27 -199 94q-68 61 -92.5 149t-24.5 201q0 45 5 90.5t17 88t31 81t47 68.5zM364 230q0 -33 3 -64t12 -51q10 -22 23 -31.5t38 -9.5q22 0 40.5 10t38.5 25q17 13 33 26t29 24v208q-23 8 -49 14.5t-52 6.5q-35 0 -58 -8t-37 -34
q-12 -22 -16.5 -53t-4.5 -63z" />
    <glyph glyph-name="A" unicode="A" horiz-adv-x="710" 
d="M11 0l280 754h126l282 -754h-105l-65 175h-352l-65 -175h-101zM209 267h287l-143 389z" />
    <glyph glyph-name="B" unicode="B" horiz-adv-x="728" 
d="M408 754q58 0 98 -5.5t72 -25.5q35 -22 55 -58.5t20 -84.5q0 -35 -10.5 -64t-28.5 -59q-11 -17 -21.5 -34.5t-19.5 -31.5q18 -12 33.5 -25.5t29.5 -31.5q15 -20 24.5 -50t9.5 -68q0 -106 -68 -163q-32 -27 -80 -40t-121 -13h-311v754h318zM186 339v-247h216q49 0 79.5 7
t50.5 22q40 30 40 95q0 34 -11.5 58.5t-37.5 42.5q-19 13 -43 17.5t-56 4.5h-238zM493 431q8 14 16 27l16 26q14 23 22 43.5t8 44.5q0 51 -41 74q-18 10 -46 13t-66 3h-216v-231h307z" />
    <glyph glyph-name="C" unicode="C" horiz-adv-x="658" 
d="M75 370q0 85 11.5 157.5t41.5 123.5q16 27 37 49t50 38t68.5 24.5t91.5 8.5q33 0 65.5 -4t61.5 -10q31 -6 59 -13t47 -12v-96q-29 8 -59.5 15.5t-62.5 13.5q-26 5 -52 9t-52 4q-70 0 -111 -20.5t-65 -68.5q-18 -36 -25.5 -94t-7.5 -124q0 -63 7 -116t23 -87
q23 -48 65 -70t114 -22q52 0 113 11.5t113 22.5v-95q-53 -11 -113.5 -21.5t-122.5 -10.5q-56 0 -97 10t-70.5 27.5t-50.5 42.5t-36 55q-22 43 -32.5 109t-10.5 143z" />
    <glyph glyph-name="D" unicode="D" horiz-adv-x="742" 
d="M352 754q81 0 134.5 -15.5t93.5 -56.5q45 -46 66 -121.5t21 -180.5q0 -106 -23 -183.5t-74 -125.5q-42 -41 -95.5 -56t-130.5 -15h-254v754h262zM345 93q65 0 103.5 15t66.5 49t41 91t13 132q0 73 -12 133t-45 97q-29 32 -67.5 41.5t-92.5 9.5h-166v-568h159z" />
    <glyph glyph-name="E" unicode="E" horiz-adv-x="654" 
d="M600 754v-93h-414v-230h392v-93h-392v-245h430v-93h-526v754h510z" />
    <glyph glyph-name="F" unicode="F" horiz-adv-x="627" 
d="M598 754v-93h-412v-240h377v-93h-377v-327h-96v753h508z" />
    <glyph glyph-name="G" unicode="G" horiz-adv-x="731" 
d="M75 370q0 88 12 159.5t42 122.5q17 27 38 49t50.5 37.5t68 24t90.5 8.5q32 0 63 -4.5t59 -9.5q34 -6 65 -13t54 -13v-96q-30 8 -65.5 16t-70.5 15q-25 5 -49.5 8.5t-48.5 3.5q-71 0 -111.5 -20t-64.5 -69q-18 -36 -26 -93t-8 -125q0 -69 7 -120t24 -86q22 -46 64 -67.5
t114 -21.5q43 0 89.5 4.5t75.5 8.5v314h96v-395q-58 -9 -130 -17t-141 -8q-56 0 -96 9.5t-69.5 27t-49.5 41t-36 51.5q-24 43 -35 108t-11 150z" />
    <glyph glyph-name="H" unicode="H" horiz-adv-x="757" 
d="M186 754v-310h385v310h96v-754h-96v351h-385v-351h-96v754h96z" />
    <glyph glyph-name="I" unicode="I" horiz-adv-x="276" 
d="M90 0v754h96v-754h-96z" />
    <glyph glyph-name="J" unicode="J" horiz-adv-x="385" 
d="M-16 -6q14 4 34 11t41 15t41.5 17.5t36.5 18.5q20 12 33 24t20 32q8 22 9 54t1 64v524h96v-527q0 -51 -1.5 -89.5t-12.5 -69.5q-16 -44 -63 -74q-24 -15 -55.5 -30t-64.5 -28t-63.5 -23.5t-51.5 -16.5v98z" />
    <glyph glyph-name="K" unicode="K" horiz-adv-x="661" 
d="M186 754v-358l333 358h128l-345 -371l377 -383h-134l-359 364v-364h-96v754h96z" />
    <glyph glyph-name="L" unicode="L" horiz-adv-x="612" 
d="M90 0v754h96v-661h398v-93h-494z" />
    <glyph glyph-name="M" unicode="M" horiz-adv-x="881" 
d="M224 754l217 -490l217 490h133v-754h-95v623l-209 -473h-93l-209 473v-623h-95v754h134z" />
    <glyph glyph-name="N" unicode="N" horiz-adv-x="756" 
d="M209 754l362 -615v615h95v-754h-119l-362 615v-615h-95v754h119z" />
    <glyph glyph-name="O" unicode="O" horiz-adv-x="789" 
d="M126 642q35 59 97.5 94t171.5 35q96 0 154.5 -26.5t98.5 -82.5q18 -25 31 -58.5t20.5 -71t11 -77.5t3.5 -79q0 -38 -3.5 -77t-11 -76t-19.5 -70t-30 -58q-42 -60 -101.5 -86t-153.5 -26q-55 0 -96.5 7t-72.5 21.5t-54 35.5t-40 49q-30 48 -43.5 123t-13.5 157
q0 36 2.5 73t8.5 72t16 66t24 55zM173 376q0 -29 1.5 -60.5t6 -61.5t12 -56.5t18.5 -45.5q29 -48 76.5 -62t107.5 -14q53 0 94.5 12.5t72.5 50.5q32 40 43 105t11 132q0 63 -9 123t-34 100q-28 45 -73 62t-105 17t-108.5 -17.5t-77.5 -68.5q-21 -37 -28.5 -96.5t-7.5 -119.5
z" />
    <glyph glyph-name="P" unicode="P" horiz-adv-x="670" 
d="M90 0v754h298q65 0 107 -14t73 -45q29 -29 43.5 -74t14.5 -95q0 -52 -12 -97t-44 -80q-29 -32 -69.5 -46t-93.5 -18q-33 -2 -92.5 -2.5t-128.5 -0.5v-282h-96zM397 379q37 3 62.5 11.5t42.5 30.5q15 20 20.5 46t5.5 59q0 34 -9 61.5t-27 44.5q-19 18 -46 23.5t-67 5.5
h-193v-286q60 0 116.5 0.5t94.5 3.5z" />
    <glyph glyph-name="Q" unicode="Q" horiz-adv-x="789" 
d="M126 642q35 59 97.5 94t171.5 35q96 0 154.5 -26.5t98.5 -82.5q18 -25 31 -58.5t20.5 -71t11 -77.5t3.5 -79q0 -38 -3.5 -77t-11 -76t-19.5 -69.5t-30 -58.5q-41 -59 -104 -86l161 -40v-90l-374 96q-52 14 -103 36.5t-83 65.5q-23 31 -37 67.5t-22 76t-10.5 79t-2.5 76.5
q0 36 2.5 73t8.5 72t16 66t24 55zM211 152q28 -48 76 -62t108 -14q53 0 94.5 12.5t72.5 50.5q32 40 43 105t11 132q0 63 -9 123t-34 100q-28 45 -73 62t-105 17t-108.5 -17.5t-77.5 -68.5q-21 -37 -28.5 -96.5t-7.5 -119.5q0 -29 1.5 -60.5t6 -61.5t12 -56.5t18.5 -45.5z
" />
    <glyph glyph-name="R" unicode="R" horiz-adv-x="704" 
d="M90 0v754h287q74 0 121 -9.5t82 -36.5q34 -26 51 -67.5t17 -90.5q0 -51 -18.5 -88t-48.5 -70q-20 -23 -43 -46.5t-39 -39.5l187 -306h-114l-177 291h-209v-291h-96zM186 661v-277h262q15 16 29 31t26 29q20 23 33.5 48.5t13.5 57.5q0 30 -10 52.5t-34 37.5
q-20 13 -51.5 17t-85.5 4h-183z" />
    <glyph glyph-name="S" unicode="S" horiz-adv-x="644" 
d="M52 562q0 47 15 86.5t50 71.5q33 30 79 40.5t112 10.5q63 0 133 -14.5t130 -28.5v-96q-26 6 -60 14t-70 15t-70 12t-61 5q-45 0 -74 -5.5t-50 -22.5q-20 -17 -28 -38t-8 -46t5 -42.5t19 -30.5q14 -12 37 -21.5t56 -20.5l150 -50q49 -17 79 -31.5t51 -37.5q45 -48 45 -133
q0 -48 -16 -87.5t-49 -68.5q-37 -32 -87 -46t-125 -14q-32 0 -66.5 3.5t-68.5 9t-65.5 12t-56.5 11.5v95q28 -6 61.5 -12.5t68.5 -12.5t69 -9.5t62 -3.5q49 0 79 6.5t53 23.5q43 33 43 90q0 23 -4.5 40.5t-18.5 31.5t-39.5 24t-63.5 23l-151 51q-41 14 -67.5 27t-48.5 33
q-49 46 -49 136z" />
    <glyph glyph-name="T" unicode="T" horiz-adv-x="668" 
d="M19 754h630v-93h-267v-661h-96v661h-267v93z" />
    <glyph glyph-name="U" unicode="U" horiz-adv-x="739" 
d="M184 754v-467q0 -66 8 -107t37 -68q24 -23 59.5 -29.5t81.5 -6.5q45 0 79.5 7.5t59.5 28.5q30 26 38 67.5t8 107.5v467h96v-467q0 -86 -12.5 -144.5t-58.5 -98.5q-38 -34 -88.5 -47.5t-121.5 -13.5q-73 0 -124.5 12.5t-89.5 50.5q-42 40 -55 99t-13 142v467h96z" />
    <glyph glyph-name="V" unicode="V" horiz-adv-x="680" 
d="M-1 754h105l236 -638l237 638h104l-282 -754h-118z" />
    <glyph glyph-name="W" unicode="W" horiz-adv-x="914" 
d="M24 754h98l133 -641l148 527h109l149 -527l132 641h97l-155 -754h-133l-145 514l-144 -514h-133z" />
    <glyph glyph-name="X" unicode="X" horiz-adv-x="668" 
d="M1 0l259 382l-244 372h117l201 -308l202 308h114l-242 -366l259 -388h-118l-215 324l-218 -324h-115z" />
    <glyph glyph-name="Y" unicode="Y" horiz-adv-x="628" 
d="M102 754l213 -362l213 362h111l-277 -467v-287h-96v287l-277 467h113z" />
    <glyph glyph-name="Z" unicode="Z" horiz-adv-x="653" 
d="M45 0v94l433 567h-418v93h541v-94l-433 -567h440v-93h-563z" />
    <glyph glyph-name="bracketleft" unicode="[" horiz-adv-x="339" 
d="M304 754v-89h-121v-768h121v-89h-216v946h216z" />
    <glyph glyph-name="backslash" unicode="\" horiz-adv-x="397" 
d="M290 0l-283 754h101l282 -754h-100z" />
    <glyph glyph-name="bracketright" unicode="]" horiz-adv-x="339" 
d="M250 754v-946h-216v89h121v768h-121v89h216z" />
    <glyph glyph-name="asciicircum" unicode="^" horiz-adv-x="819" 
d="M366 754h89l312 -419h-120l-237 320l-238 -320h-120z" />
    <glyph glyph-name="underscore" unicode="_" horiz-adv-x="500" 
d="M0 -146v93h500v-93h-500z" />
    <glyph glyph-name="grave" unicode="`" horiz-adv-x="439" 
d="M217 610l-129 144h112l124 -144h-107z" />
    <glyph glyph-name="a" unicode="a" 
d="M98 458q29 48 74.5 67.5t114.5 19.5q54 0 108.5 -16.5t118.5 -39.5v-489h-94v81q-12 -11 -26 -22.5t-31 -23.5q-33 -23 -62 -37.5t-67 -14.5q-56 0 -88.5 22t-53.5 59q-19 33 -27.5 85t-8.5 112q0 57 9.5 108.5t32.5 88.5zM169 123q21 -50 78 -50q24 0 49.5 13.5
t49.5 32.5q20 15 39 31t35 30v246q-29 11 -62 20.5t-67 9.5q-42 0 -69.5 -12.5t-44.5 -42.5q-14 -26 -20 -60.5t-6 -79.5q0 -40 4 -77.5t14 -60.5z" />
    <glyph glyph-name="b" unicode="b" horiz-adv-x="594" 
d="M76 21v733h94v-270q8 5 30 15.5t39 18.5q23 11 50.5 19t59.5 8q54 0 89 -20.5t58 -59.5q42 -70 42 -198q0 -126 -46 -197q-28 -43 -69 -65t-115 -22q-31 0 -58 3.5t-57 8.5q-37 7 -67 14t-50 12zM225 80q19 -4 38 -6t42 -2q77 0 108 53q17 28 23.5 61.5t6.5 78.5t-5 80
t-19 62q-14 28 -36 38.5t-49 10.5q-23 0 -44 -7t-43 -17t-41.5 -20t-35.5 -19v-300q11 -3 24 -6.5t31 -6.5z" />
    <glyph glyph-name="c" unicode="c" horiz-adv-x="487" 
d="M56 261q0 53 7 99.5t24 79.5q12 25 28.5 44.5t39.5 33t54.5 20.5t74.5 7q41 0 86 -10t80 -19v-92q-32 9 -77.5 20.5t-80.5 11.5q-48 0 -76 -12.5t-45 -48.5q-11 -25 -15.5 -60t-4.5 -72q0 -39 6 -75.5t19 -61.5q16 -31 44.5 -42.5t71.5 -11.5q38 0 82 10t76 18v-92
q-33 -8 -79.5 -16.5t-85.5 -8.5q-78 0 -119 21.5t-68 65.5q-22 35 -32 85.5t-10 105.5z" />
    <glyph glyph-name="d" unicode="d" horiz-adv-x="595" 
d="M94 460q26 46 67.5 65.5t100.5 19.5q43 0 88.5 -11.5t74.5 -20.5v241h94v-754h-94v66q-10 -8 -26 -19t-36 -23q-29 -18 -60 -29.5t-68 -11.5q-57 0 -90.5 23.5t-52.5 60.5q-36 71 -36 196q0 60 8 109.5t30 87.5zM151 264q0 -47 4 -80t15 -59q11 -27 29 -39t52 -12
q26 0 51.5 11.5t46.5 24.5q23 14 41.5 27.5t34.5 25.5v261q-36 11 -75 21.5t-73 10.5q-38 0 -64 -11.5t-40 -42.5q-13 -27 -17.5 -61t-4.5 -77z" />
    <glyph glyph-name="e" unicode="e" horiz-adv-x="567" 
d="M56 261q0 49 6.5 98t30.5 92t71.5 68.5t126.5 25.5q77 0 122 -23t70 -61q22 -33 26.5 -69.5t4.5 -63.5q0 -20 -2.5 -51t-7.5 -55h-355q0 -23 4 -48t17 -47q19 -32 52 -45t88 -13q48 0 96.5 7.5t80.5 13.5v-87q-32 -6 -82 -13t-101 -7q-44 0 -77 5.5t-57.5 17t-42 27.5
t-31.5 37q-23 35 -31.5 79t-8.5 112zM149 297h270q1 5 2 17t1 25q0 18 -3 37t-13 35q-31 51 -115 51q-45 0 -74 -13t-46 -44q-12 -22 -17 -54t-5 -54z" />
    <glyph glyph-name="f" unicode="f" horiz-adv-x="319" 
d="M76 0v520q0 23 1 51.5t7 55.5q5 23 17.5 43.5t32.5 36.5q34 26 82 41.5t98 26.5v-92q-32 -8 -65.5 -18.5t-54.5 -31.5q-12 -12 -16 -24.5t-6 -26.5q-2 -18 -2 -32.5v-28.5h145v-89h-145v-432h-94z" />
    <glyph glyph-name="g" unicode="g" horiz-adv-x="591" 
d="M57 267q0 60 9 108t29 83q28 49 73 68t115 19q27 0 57 -5t60.5 -13t60 -17.5t54.5 -18.5v-443q0 -66 -15 -111t-45 -77t-82 -50.5t-123 -18.5q-48 0 -93 4.5t-80 9.5v88q14 -2 33.5 -4.5t43 -5t48 -4t48.5 -1.5q43 0 77.5 11.5t55.5 33.5t29.5 50.5t8.5 60.5v18
q-20 -10 -65 -28q-26 -11 -54 -17.5t-60 -6.5q-60 0 -93.5 22t-53.5 54q-19 32 -28.5 81t-9.5 110zM152 267q0 -85 20 -131q11 -26 31.5 -36.5t54.5 -10.5q23 0 45 5.5t44 14.5q23 9 40 17l34 16v285q-25 8 -64 18.5t-72 10.5q-43 0 -69.5 -12t-41.5 -43q-12 -24 -17 -58
t-5 -76z" />
    <glyph glyph-name="h" unicode="h" horiz-adv-x="587" 
d="M76 0v754h94v-257q44 17 89 32.5t87 15.5q44 0 74 -10t53 -36t31 -64t8 -102v-333h-94v329q0 32 -3 58t-16 43q-12 15 -29 19.5t-42 4.5q-18 0 -38.5 -4.5t-41.5 -11.5t-41 -15.5t-37 -15.5v-407h-94z" />
    <glyph glyph-name="i" unicode="i" horiz-adv-x="246" 
d="M76 0v528h94v-528h-94zM75 613v141h96v-141h-96z" />
    <glyph glyph-name="j" unicode="j" horiz-adv-x="258" 
d="M-46 -211v94q9 3 22 8.5t26.5 11.5t25.5 13t20 13q27 21 34 48q5 17 5.5 41t0.5 47v463h94v-473q0 -26 -1.5 -60t-8.5 -54q-16 -50 -66 -84q-31 -21 -75.5 -39.5t-76.5 -28.5zM183 754v-141h-96v141h96z" />
    <glyph glyph-name="k" unicode="k" horiz-adv-x="531" 
d="M170 754v-454l222 228h128l-237 -243l257 -285h-127l-243 270v-270h-94v754h94z" />
    <glyph glyph-name="l" unicode="l" horiz-adv-x="246" 
d="M76 0v754h94v-754h-94z" />
    <glyph glyph-name="m" unicode="m" horiz-adv-x="889" 
d="M170 528v-37q38 18 83 36t87 18q39 0 62.5 -7.5t42.5 -23.5q9 -8 15.5 -17t9.5 -17q18 10 40 21.5t45.5 21t48.5 16t49 6.5q44 0 72.5 -10t50.5 -35q23 -26 30.5 -65.5t7.5 -102.5v-332h-94v328q0 32 -2.5 58t-14.5 43q-11 16 -27.5 20.5t-37.5 4.5q-17 0 -37 -5.5
t-39.5 -14t-37.5 -17.5t-32 -17v-400h-94v339q0 32 -2.5 54t-11.5 36q-11 16 -26 20.5t-37 4.5q-35 0 -77 -18t-74 -34v-402h-94v528h94z" />
    <glyph glyph-name="n" unicode="n" 
d="M76 0v528h94v-35q42 17 91.5 34.5t90.5 17.5q42 0 71.5 -10t52.5 -36t31 -65t8 -101v-333h-94v330q0 32 -2.5 57t-15.5 42q-11 15 -28.5 20t-40.5 5q-19 0 -40.5 -5t-43.5 -12.5t-42.5 -16t-37.5 -16.5v-404h-94z" />
    <glyph glyph-name="o" unicode="o" 
d="M89 438q26 50 73 78.5t133 28.5q69 0 115 -19.5t76 -61.5q29 -39 38.5 -92t9.5 -108q0 -57 -10 -105.5t-29 -79.5q-27 -45 -74 -70.5t-126 -25.5q-78 0 -122 21.5t-73 63.5q-21 31 -32.5 83t-11.5 110q0 50 8 97.5t25 79.5zM151 262q0 -41 6 -76t20 -59q18 -32 47 -43.5
t71 -11.5q40 0 69 12t46 40q15 25 22 61.5t7 81.5q0 41 -5.5 74t-21.5 60q-18 31 -46.5 43t-70.5 12q-45 0 -74.5 -14t-46.5 -48q-13 -26 -18 -59.5t-5 -72.5z" />
    <glyph glyph-name="p" unicode="p" horiz-adv-x="594" 
d="M76 -192v720h94v-54q14 10 31 21t36 21q23 12 49.5 20.5t56.5 8.5q55 0 90.5 -20t61.5 -62q20 -33 31.5 -84t11.5 -114q0 -62 -10.5 -112.5t-33.5 -86.5q-25 -38 -63 -60.5t-101 -22.5q-42 0 -85 14t-75 29v-218h-94zM170 119q31 -15 69.5 -30.5t76.5 -15.5q35 0 59 11.5
t40 39.5q28 49 28 140q0 44 -5.5 79.5t-19.5 61.5q-15 29 -37 40t-53 11q-20 0 -40 -7.5t-40 -18.5t-40.5 -24.5t-37.5 -25.5v-261z" />
    <glyph glyph-name="q" unicode="q" horiz-adv-x="595" 
d="M56 262q0 62 9.5 111.5t31.5 84.5q29 47 75 67t115 20q29 0 62.5 -6t66 -14.5t60 -17.5t43.5 -15v-684h-94v237q-13 -8 -32.5 -17.5t-42.5 -20.5q-24 -11 -51.5 -17.5t-57.5 -6.5q-60 0 -93 22.5t-55 60.5q-20 34 -28.5 85t-8.5 111zM170 125q12 -28 32 -40t55 -12
q26 0 49.5 7t46.5 18q20 10 38 19.5t34 20.5v290q-32 11 -67.5 19.5t-69.5 8.5q-40 0 -68 -12.5t-44 -41.5q-13 -24 -19 -59.5t-6 -80.5q0 -89 19 -137z" />
    <glyph glyph-name="r" unicode="r" horiz-adv-x="365" 
d="M76 528h94v-64q17 13 33 23.5t36 19.5q48 22 118 33v-95q-29 -5 -54 -13t-50 -18q-24 -10 -45 -22t-38 -24v-368h-94v528z" />
    <glyph glyph-name="s" unicode="s" horiz-adv-x="515" 
d="M51 391q0 34 11 63.5t38 51.5t62.5 30.5t89.5 8.5q23 0 51 -3.5t54.5 -8.5t49.5 -10t36 -9v-90q-15 4 -38.5 9.5t-50 11t-53 9t-47.5 3.5q-34 0 -53 -3.5t-31 -12.5q-14 -10 -19 -22t-5 -28q0 -15 4.5 -26.5t16.5 -19.5q11 -7 26 -12t38 -12l96 -29q39 -12 61.5 -22.5
t39.5 -27.5t26.5 -44t9.5 -56q0 -36 -12.5 -66t-40.5 -52q-29 -22 -67.5 -31.5t-96.5 -9.5q-25 0 -52.5 3t-53 6.5t-47.5 8t-37 7.5v90q36 -8 91 -17.5t105 -9.5q28 0 49 2.5t38 13.5q29 19 29 54q0 27 -17 43q-11 9 -29.5 15.5t-44.5 14.5l-93 28q-36 11 -58.5 21.5
t-38.5 25.5q-18 17 -27.5 43.5t-9.5 58.5z" />
    <glyph glyph-name="t" unicode="t" horiz-adv-x="345" 
d="M75 664h94v-143h162v-89h-162v-219q0 -26 0.5 -43.5t2.5 -34.5q2 -15 10 -25t26 -16q19 -6 44.5 -8t53.5 -4v-89q-45 2 -85 6.5t-69 13.5q-28 9 -43 23t-23 35q-8 23 -9.5 53t-1.5 87v453z" />
    <glyph glyph-name="u" unicode="u" horiz-adv-x="583" 
d="M75 207v321h94v-319q0 -33 2.5 -62.5t16.5 -46.5q12 -16 31 -22t50 -6q45 0 81 7t63 15v434h94v-503q-54 -15 -114.5 -28.5t-131.5 -13.5q-54 0 -88.5 13.5t-57.5 39.5t-31.5 68t-8.5 103z" />
    <glyph glyph-name="v" unicode="v" horiz-adv-x="519" 
d="M5 528h102l154 -442l154 442h99l-188 -528h-133z" />
    <glyph glyph-name="w" unicode="w" horiz-adv-x="813" 
d="M12 528h96l119 -431l125 431h111l125 -431l120 431h93l-148 -528h-126l-121 420l-121 -420h-126z" />
    <glyph glyph-name="x" unicode="x" horiz-adv-x="531" 
d="M4 0l195 269l-186 259h113l139 -197l143 197h110l-186 -252l195 -276h-113l-148 213l-153 -213h-109z" />
    <glyph glyph-name="y" unicode="y" horiz-adv-x="537" 
d="M109 528l160 -403l160 403h102l-291 -720h-100l78 194l-212 526h103z" />
    <glyph glyph-name="z" unicode="z" horiz-adv-x="516" 
d="M35 0v82l308 357h-294v89h423v-82l-308 -357h319v-89h-448z" />
    <glyph glyph-name="braceleft" unicode="{" horiz-adv-x="373" 
d="M82 347q22 9 32.5 23t10.5 40v209q0 38 11.5 68t32.5 46q13 10 37 15.5t50 5.5h84v-88h-52q-20 0 -35.5 -5t-23.5 -17q-5 -8 -7 -22.5t-2 -34.5v-199q0 -33 -10.5 -54t-30.5 -35q-18 -12 -51 -18q41 -9 61 -26q15 -14 23 -34t8 -49v-197q0 -41 11 -60t57 -19h52v-88h-84
q-29 0 -55 7.5t-41 21.5q-17 15 -26 43t-9 63v207q0 28 -11 42t-38 24q-12 5 -24 8t-23 5v104q15 3 27 6t26 8z" />
    <glyph glyph-name="bar" unicode="|" horiz-adv-x="262" 
d="M88 -192v946h86v-946h-86z" />
    <glyph glyph-name="braceright" unicode="}" horiz-adv-x="373" 
d="M117 754q26 0 50 -5.5t37 -15.5q21 -16 32.5 -46t11.5 -68v-209q0 -26 10.5 -40.5t32.5 -22.5q14 -5 26 -8t27 -6v-104q-11 -2 -23 -5.5t-24 -7.5q-27 -9 -38 -23.5t-11 -42.5v-207q0 -35 -9 -63t-26 -43q-15 -14 -41 -21.5t-55 -7.5h-84v88h52q18 0 33.5 4.5t23.5 14.5
q7 8 9 23.5t2 36.5v197q0 29 8 49t23 34q20 17 61 26q-33 6 -51 18q-41 26 -41 89v199q0 20 -2 34.5t-7 22.5q-8 12 -23.5 17t-35.5 5h-52v88h84z" />
    <glyph glyph-name="asciitilde" unicode="~" horiz-adv-x="819" 
d="M37 198q9 65 25 116.5t39 82.5q45 62 137 62q47 0 87 -19.5t82 -55.5l59 -52q26 -23 53.5 -40t61.5 -17q27 0 43.5 12.5t29.5 39.5q11 22 18 50t13 64h97q-8 -59 -21.5 -106t-33.5 -79q-26 -41 -62.5 -58.5t-82.5 -17.5q-52 0 -93 19.5t-86 59.5l-54 48q-26 23 -51 40
t-58 17q-30 0 -47 -13.5t-29 -38.5q-11 -23 -18 -50.5t-12 -63.5h-97z" />
    <glyph glyph-name="uni00A0" unicode="&#xa0;" horiz-adv-x="249" 
 />
    <glyph glyph-name="exclamdown" unicode="&#xa1;" horiz-adv-x="291" 
d="M89 322h94q0 -11 0.5 -50t1 -92t0.5 -113.5v-114.5v-144h-98v144v114.5t0.5 113.5t1 92t0.5 50zM191 562v-152h-110v152h110z" />
    <glyph glyph-name="cent" unicode="&#xa2;" horiz-adv-x="529" 
d="M100 430q19 41 55.5 68.5t92.5 32.5v107h87v-106q34 -4 68.5 -12t61.5 -16v-92q-35 10 -78.5 20.5t-81.5 10.5q-43 0 -73.5 -10.5t-47.5 -48.5q-11 -24 -13.5 -55t-2.5 -66t4 -68t17 -56q18 -33 48 -43t68 -10q39 0 82.5 9t77.5 17v-91q-26 -7 -61 -13.5t-69 -9.5v-111
h-87v112q-50 5 -82.5 26.5t-52.5 53.5q-22 34 -31 80.5t-9 101.5q0 49 6 92.5t21 76.5z" />
    <glyph glyph-name="sterling" unicode="&#xa3;" horiz-adv-x="628" 
d="M105 570q0 38 7 77.5t34 68.5q29 32 66 43.5t98 11.5q47 0 106 -10t112 -22v-94q-25 6 -53 12t-56.5 11t-54.5 8t-47 3q-36 0 -58.5 -6t-37.5 -24q-14 -16 -17 -38.5t-3 -45.5v-91h212v-87h-212v-295h366v-92h-462v570z" />
    <glyph glyph-name="currency" unicode="&#xa4;" horiz-adv-x="777" 
d="M189 660l81 -92q50 25 119 25q65 0 117 -27l82 94h106l-127 -143q38 -53 38 -138q0 -89 -37 -142l125 -143h-106l-79 90q-23 -13 -53.5 -18.5t-65.5 -5.5t-66 6t-55 18l-79 -90h-106l126 142q-17 26 -25 61t-8 79q0 48 7.5 81t25.5 59l-126 144h106zM300 271
q14 -13 37.5 -19t52.5 -6q30 0 56 8t40 24q14 17 23 42.5t9 59.5q0 36 -9.5 60t-26.5 38q-15 14 -39.5 21.5t-53.5 7.5q-24 0 -49 -6.5t-39 -17.5q-20 -16 -29 -40.5t-9 -65.5q0 -75 37 -106z" />
    <glyph glyph-name="yen" unicode="&#xa5;" horiz-adv-x="678" 
d="M14 754h113l215 -362l211 362h111l-166 -280h134v-87h-185l-59 -100v-287h-96v287l-59 100h-186v87h134z" />
    <glyph glyph-name="brokenbar" unicode="&#xa6;" horiz-adv-x="262" 
d="M88 336v418h86v-418h-86zM174 226v-418h-86v418h86z" />
    <glyph glyph-name="section" unicode="&#xa7;" horiz-adv-x="650" 
d="M111 445q11 17 25 33.5t24 27.5q-12 10 -20.5 18.5t-15.5 19.5q-18 30 -18 79q0 35 12 63.5t41 48.5q30 21 69.5 28.5t99.5 7.5q22 0 51 -3t58.5 -7.5t57.5 -9t49 -8.5v-89q-19 4 -47 9t-58 9.5t-59.5 8t-52.5 3.5q-42 0 -64.5 -3.5t-37.5 -13.5q-23 -15 -23 -48
q0 -16 5 -24.5t15 -17.5q11 -10 31 -20.5t45 -22.5l119 -58q38 -18 64.5 -33t45.5 -31q21 -17 32 -41.5t11 -52.5q0 -24 -8.5 -45t-24.5 -43q-13 -17 -26 -32.5t-25 -28.5q13 -11 23 -21t18 -24t12.5 -32t4.5 -42q0 -32 -14 -62t-41 -50q-58 -43 -178 -43q-22 0 -50 2.5
t-56 6t-54.5 8t-46.5 7.5v90q23 -4 50.5 -9t56 -9t55.5 -6.5t48 -2.5q38 0 64 4t42 15q28 18 28 50q0 25 -19 44q-11 11 -30.5 21.5t-42.5 21.5l-136 66q-33 16 -61.5 33t-45.5 34q-14 14 -23.5 35.5t-9.5 52.5q0 18 7 40t24 46zM198 319q11 -9 29 -19t40 -21l147 -71
q21 24 37 44q12 16 18.5 30t6.5 28q0 27 -27 48q-12 9 -29 18.5t-47 23.5l-140 67q-8 -8 -18.5 -19.5t-21.5 -26.5t-15 -28t-4 -25q0 -18 5.5 -28.5t18.5 -20.5z" />
    <glyph glyph-name="dieresis" unicode="&#xa8;" horiz-adv-x="439" 
d="M278 754h92v-141h-92v141zM161 754v-141h-92v141h92z" />
    <glyph glyph-name="copyright" unicode="&#xa9;" horiz-adv-x="930" 
d="M72 377q0 89 27 162t77.5 124.5t123.5 79.5t165 28t165 -28t123.5 -79.5t77.5 -124.5t27 -162t-27 -161.5t-77.5 -124.5t-123.5 -80t-165 -28t-165 28t-123.5 80t-77.5 124.5t-27 161.5zM465 55q76 0 135.5 22.5t100 64.5t61.5 101.5t21 133.5t-21 133.5t-61.5 101.5
t-100 64.5t-135.5 22.5t-135.5 -22.5t-100 -64.5t-61.5 -101.5t-21 -133.5t21 -133.5t61.5 -101.5t100 -64.5t135.5 -22.5zM305 535q23 33 59.5 52t106.5 19q21 0 42 -2.5t40 -5.5t39 -7.5t34 -8.5v-72q-15 4 -38 9t-44 9q-17 3 -34.5 5t-35.5 2q-42 0 -67 -9t-42 -36
q-13 -21 -17 -48.5t-4 -65.5q0 -34 3.5 -57.5t14.5 -43.5q14 -27 41 -38.5t74 -11.5q35 0 77 7t72 13v-72q-36 -7 -76 -13t-79 -6q-75 0 -112.5 21.5t-58.5 56.5q-31 51 -31 144q0 50 8 90t28 69z" />
    <glyph glyph-name="ordfeminine" unicode="&#xaa;" horiz-adv-x="486" 
d="M52 563q0 44 7 79.5t27 64.5q24 35 60.5 49.5t90.5 14.5q43 0 88.5 -12t96.5 -28v-365h-83v64l-41 -33q-23 -19 -48 -30.5t-56 -11.5q-44 0 -70 17.5t-42 43.5q-17 27 -23.5 62.5t-6.5 84.5zM137 563q0 -29 2 -52t10 -40q8 -18 21 -25t36 -7q21 0 40 10.5t39 24.5
q15 11 29 22.5t24 20.5v154q-26 8 -49 14t-49 6q-32 0 -53 -8t-33 -29q-11 -19 -14 -41t-3 -50z" />
    <glyph glyph-name="guillemotleft" unicode="&#xab;" horiz-adv-x="580" 
d="M451 470h115l-172 -206l172 -206h-115l-172 206zM51 264l172 206h115l-172 -206l172 -206h-115z" />
    <glyph glyph-name="logicalnot" unicode="&#xac;" horiz-adv-x="700" 
d="M530 197v241h-454v90h548v-331h-94z" />
    <glyph glyph-name="registered" unicode="&#xae;" horiz-adv-x="930" 
d="M72 377q0 89 27 161.5t77.5 124.5t123.5 80t165 28t165 -28t123.5 -80t77.5 -124.5t27 -161.5t-27 -162t-77.5 -124.5t-123.5 -79.5t-165 -28t-165 28t-123.5 79.5t-77.5 124.5t-27 162zM147 377q0 -74 21 -133.5t61.5 -101.5t100 -64.5t135.5 -22.5t135 22.5t99.5 64.5
t62 101.5t21.5 133.5t-21.5 133.5t-62 101.5t-99.5 64.5t-135 22.5t-135.5 -22.5t-100 -64.5t-61.5 -101.5t-21 -133.5zM300 595h190q41 0 70 -5t51 -22q43 -32 43 -91q0 -29 -9 -51.5t-27 -43.5q-12 -14 -26 -28.5t-22 -22.5l99 -167h-86l-89 153h-121v-153h-73v431z
M373 526v-140h155q4 4 11.5 13t14.5 17q12 14 18.5 27t6.5 30q0 32 -23 44q-13 7 -31 8t-42 1h-110z" />
    <glyph glyph-name="macron" unicode="&#xaf;" horiz-adv-x="439" 
d="M51 637v73h337v-73h-337z" />
    <glyph glyph-name="degree" unicode="&#xb0;" horiz-adv-x="469" 
d="M52 592q0 83 49 131t134 48q84 0 133 -48t49 -131q0 -82 -49 -128.5t-133 -46.5q-85 0 -134 46.5t-49 128.5zM134 594q0 -46 26.5 -72.5t74.5 -26.5q45 0 72.5 26t27.5 73q0 46 -27.5 72.5t-72.5 26.5q-48 0 -74.5 -26.5t-26.5 -72.5z" />
    <glyph glyph-name="plusminus" unicode="&#xb1;" horiz-adv-x="700" 
d="M303 423v232h94v-232h227v-92h-227v-205h-94v205h-227v92h227zM76 92h548v-92h-548v92z" />
    <glyph glyph-name="twosuperior" unicode="&#xb2;" horiz-adv-x="409" 
d="M41 525q20 17 43 37.5l46 41t43.5 39.5t35.5 34q26 26 36 42t10 33q0 22 -13 35q-15 15 -53 15q-20 0 -40.5 -2.5t-39.5 -6t-34 -7.5t-24 -6v80q21 5 60.5 12.5t80.5 7.5q72 0 110 -32q17 -14 27 -37t10 -49q0 -33 -10.5 -57t-36.5 -52q-35 -38 -71.5 -71.5t-60.5 -54.5
h202v-77h-321v75z" />
    <glyph glyph-name="threesuperior" unicode="&#xb3;" horiz-adv-x="430" 
d="M53 454v75q25 -5 62 -10.5t68 -5.5q15 0 31.5 1.5t30 7t22 16.5t8.5 31q0 32 -25 46q-11 6 -25.5 7.5t-34.5 1.5h-93v73h142l13 17q10 13 14.5 22.5t4.5 23.5q0 22 -16 34q-17 12 -62 12q-40 0 -79.5 -8t-57.5 -13v75q21 5 61 12.5t81 7.5q45 0 72.5 -8t47.5 -22
q17 -13 26.5 -34t9.5 -42q0 -20 -5 -35t-14 -30q-7 -11 -15.5 -22.5t-12.5 -16.5q19 -14 32 -31q21 -28 21 -72q0 -53 -37 -90q-20 -19 -52.5 -28.5t-81.5 -9.5q-33 0 -73 5t-63 10z" />
    <glyph glyph-name="acute" unicode="&#xb4;" horiz-adv-x="439" 
d="M109 610l128 144h111l-131 -144h-108z" />
    <glyph glyph-name="uni00B5" unicode="&#xb5;" horiz-adv-x="579" 
d="M76 528h94v-202q0 -35 0.5 -72.5t4.5 -72.5q2 -19 8.5 -38t19.5 -35t32.5 -26t47.5 -10q38 0 69 6.5t57 14.5v435h94v-503q-52 -15 -108 -28.5t-112 -13.5q-36 0 -66.5 10.5t-46.5 35.5v-221h-94v720z" />
    <glyph glyph-name="paragraph" unicode="&#xb6;" horiz-adv-x="701" 
d="M119 702q31 29 72.5 40.5t95.5 11.5h318v-946h-78v871h-105v-871h-78v465q-82 0 -133.5 9.5t-89.5 43.5q-36 33 -51.5 82.5t-15.5 106.5q0 59 15 107t50 80z" />
    <glyph glyph-name="periodcentered" unicode="&#xb7;" horiz-adv-x="271" 
d="M78 189v152h115v-152h-115z" />
    <glyph glyph-name="cedilla" unicode="&#xb8;" horiz-adv-x="439" 
d="M124 -197l86 137h101l-85 -137h-102z" />
    <glyph glyph-name="onesuperior" unicode="&#xb9;" horiz-adv-x="301" 
d="M141 450v323l-116 -33v82l202 60v-432h-86z" />
    <glyph glyph-name="ordmasculine" unicode="&#xba;" horiz-adv-x="484" 
d="M79 692q22 36 59.5 57.5t103.5 21.5q56 0 90 -14.5t58 -43.5t33.5 -69t9.5 -82t-10 -78.5t-27 -61.5q-22 -31 -57.5 -49t-96.5 -18q-59 0 -94 15t-58 44q-18 23 -28.5 63t-10.5 84q0 37 6 71.5t22 59.5zM136 562q0 -58 20 -91q13 -20 35 -28t51 -8q61 0 83 35
q23 35 23 94q0 28 -4.5 50t-16.5 40q-14 20 -33.5 28.5t-51.5 8.5t-54 -9t-35 -32q-9 -17 -13 -39.5t-4 -48.5z" />
    <glyph glyph-name="guillemotright" unicode="&#xbb;" horiz-adv-x="580" 
d="M242 58l172 206l-172 206h115l172 -206l-172 -206h-115zM186 264l-172 206h115l172 -206l-172 -206h-115z" />
    <glyph glyph-name="onequarter" unicode="&#xbc;" horiz-adv-x="890" 
d="M690 419h103l-195 -263h136v79h83v-235h-83v79h-240v77zM143 0l392 754h100l-393 -754h-99zM141 335v323l-116 -33v82l202 60v-432h-86z" />
    <glyph glyph-name="onehalf" unicode="&#xbd;" horiz-adv-x="875" 
d="M507 75q20 17 43 37.5l46 41t43.5 39.5t35.5 34q26 26 36 42t10 33q0 22 -13 35q-15 15 -53 15q-20 0 -40.5 -2.5t-39.5 -6t-34 -7.5t-24 -6v80q21 5 60.5 12.5t80.5 7.5q72 0 110 -32q17 -14 27 -37t10 -49q0 -33 -10.5 -57t-36.5 -52q-35 -38 -71.5 -71.5t-60.5 -54.5
h202v-77h-321v75zM143 0l392 754h100l-393 -754h-99zM141 335v323l-116 -33v82l202 60v-432h-86z" />
    <glyph glyph-name="threequarters" unicode="&#xbe;" horiz-adv-x="1020" 
d="M820 419h103l-195 -263h136v79h83v-235h-83v79h-240v77zM272 0l392 754h100l-393 -754h-99zM53 339v75q25 -5 62 -10.5t68 -5.5q15 0 31.5 1.5t30 7t22 16.5t8.5 31q0 32 -25 46q-11 6 -25.5 7.5t-34.5 1.5h-93v73h142l13 17q10 13 14.5 22.5t4.5 23.5q0 22 -16 34
q-17 12 -62 12q-40 0 -79.5 -8t-57.5 -13v75q21 5 61 12.5t81 7.5q45 0 72.5 -8t47.5 -22q17 -13 26.5 -34t9.5 -42q0 -20 -5 -35t-14 -30q-7 -11 -15.5 -22.5t-12.5 -16.5q19 -14 32 -31q21 -28 21 -72q0 -53 -37 -90q-20 -19 -52.5 -28.5t-81.5 -9.5q-33 0 -73 5t-63 10z
" />
    <glyph glyph-name="questiondown" unicode="&#xbf;" horiz-adv-x="528" 
d="M115 131q20 25 40.5 49.5t49.5 56.5t40.5 51.5t16.5 33.5h106q-11 -30 -25 -57t-46 -62q-26 -29 -50 -56.5t-44 -52.5q-21 -27 -35 -54.5t-14 -62.5q0 -20 6 -37t24 -33q15 -14 39.5 -19t58.5 -5q39 0 86.5 9.5t91.5 20.5v-94q-40 -10 -88.5 -19t-100.5 -9
q-51 0 -88.5 10t-66.5 34t-44 61t-15 76q0 48 14 84.5t44 74.5zM260 410v152h111v-152h-111z" />
    <glyph glyph-name="Agrave" unicode="&#xc0;" horiz-adv-x="710" 
d="M11 0l280 754h126l282 -754h-105l-65 175h-352l-65 -175h-101zM209 267h287l-143 389zM313 806l-129 144h112l124 -144h-107z" />
    <glyph glyph-name="Aacute" unicode="&#xc1;" horiz-adv-x="710" 
d="M11 0l280 754h126l282 -754h-105l-65 175h-352l-65 -175h-101zM209 267h287l-143 389zM292 806l128 144h111l-131 -144h-108z" />
    <glyph glyph-name="Acircumflex" unicode="&#xc2;" horiz-adv-x="710" 
d="M11 0l280 754h126l282 -754h-105l-65 175h-352l-65 -175h-101zM209 267h287l-143 389zM300 950h108l135 -144h-105l-84 88l-84 -88h-104z" />
    <glyph glyph-name="Atilde" unicode="&#xc3;" horiz-adv-x="710" 
d="M11 0l280 754h126l282 -754h-105l-65 175h-352l-65 -175h-101zM209 267h287l-143 389zM157 812q14 36 26.5 61t27 40.5t32.5 22t42 6.5q23 0 44 -8t50 -28q23 -16 35.5 -22.5t27.5 -6.5q19 0 29 12.5t22 38.5h77q-11 -26 -22.5 -48.5t-26 -39t-33.5 -26t-45 -9.5
q-23 0 -44.5 7t-45.5 24q-23 17 -38 25.5t-29 8.5q-21 0 -31 -15t-22 -43h-76z" />
    <glyph glyph-name="Adieresis" unicode="&#xc4;" horiz-adv-x="710" 
d="M291 754h126l282 -754h-105l-65 175h-352l-65 -175h-101zM209 267h287l-143 389zM517 950v-141h-92v141h92zM194 809v141h92v-141h-92z" />
    <glyph glyph-name="Aring" unicode="&#xc5;" horiz-adv-x="710" 
d="M276 712q-9 5 -16 12t-12 15q-21 31 -21 69q0 24 7 45t24 39q16 17 40.5 26.5t56.5 9.5t57 -9.5t41 -26.5q17 -18 23.5 -39t6.5 -45q0 -20 -5.5 -37.5t-14.5 -31.5q-5 -8 -13.5 -15t-16.5 -12l266 -712h-105l-65 175h-352l-65 -175h-101zM209 267h287l-143 389zM293 808
q0 -28 17.5 -42.5t44.5 -14.5q17 0 29 5t20 13t11 18t3 21t-3 22t-12 20q-8 8 -19.5 12.5t-28.5 4.5q-30 0 -48 -18q-8 -8 -11 -19t-3 -22z" />
    <glyph glyph-name="AE" unicode="&#xc6;" horiz-adv-x="1123" 
d="M-2 0l506 754h565v-93h-414v-230h392v-93h-392v-246h430v-92h-526v174h-328l-116 -174h-117zM293 266h266v398z" />
    <glyph glyph-name="Ccedilla" unicode="&#xc7;" horiz-adv-x="658" 
d="M75 370q0 85 11.5 157.5t41.5 123.5q16 27 37 49t50 38t68.5 24.5t91.5 8.5q33 0 65.5 -4t61.5 -10q31 -6 59 -13t47 -12v-96q-29 8 -59.5 15.5t-62.5 13.5q-26 5 -52 9t-52 4q-70 0 -111 -20.5t-65 -68.5q-18 -36 -25.5 -94t-7.5 -124q0 -63 7 -116t23 -87
q23 -48 65 -70t114 -22q52 0 113 11.5t113 22.5v-95q-53 -11 -113.5 -21.5t-122.5 -10.5q-56 0 -97 10t-70.5 27.5t-50.5 42.5t-36 55q-22 43 -32.5 109t-10.5 143zM242 -197l86 137h101l-85 -137h-102z" />
    <glyph glyph-name="Egrave" unicode="&#xc8;" horiz-adv-x="654" 
d="M600 754v-93h-414v-230h392v-93h-392v-245h430v-93h-526v754h510zM315 806l-129 144h112l124 -144h-107z" />
    <glyph glyph-name="Eacute" unicode="&#xc9;" horiz-adv-x="654" 
d="M600 754v-93h-414v-230h392v-93h-392v-245h430v-93h-526v754h510zM252 806l128 144h111l-131 -144h-108z" />
    <glyph glyph-name="Ecircumflex" unicode="&#xca;" horiz-adv-x="654" 
d="M600 754v-93h-414v-230h392v-93h-392v-245h430v-93h-526v754h510zM288 950h108l135 -144h-105l-84 88l-84 -88h-104z" />
    <glyph glyph-name="Edieresis" unicode="&#xcb;" horiz-adv-x="654" 
d="M600 754v-93h-414v-230h392v-93h-392v-245h430v-93h-526v754h510zM414 809v141h92v-141h-92zM184 809v141h92v-141h-92z" />
    <glyph glyph-name="Igrave" unicode="&#xcc;" horiz-adv-x="276" 
d="M90 0v754h96v-754h-96zM94 806l-129 144h112l124 -144h-107z" />
    <glyph glyph-name="Iacute" unicode="&#xcd;" horiz-adv-x="276" 
d="M90 0v754h96v-754h-96zM79 806l128 144h111l-131 -144h-108z" />
    <glyph glyph-name="Icircumflex" unicode="&#xce;" horiz-adv-x="276" 
d="M90 0v754h96v-754h-96zM85 950h108l135 -144h-105l-84 88l-84 -88h-104z" />
    <glyph glyph-name="Idieresis" unicode="&#xcf;" horiz-adv-x="276" 
d="M90 754h96v-754h-96v754zM177 809v141h92v-141h-92zM99 950v-141h-92v141h92z" />
    <glyph glyph-name="Eth" unicode="&#xd0;" horiz-adv-x="756" 
d="M30 343v91h74v320h262q81 0 134.5 -15.5t93.5 -56.5q45 -46 66 -121.5t21 -180.5q0 -106 -23 -183.5t-74 -125.5q-42 -41 -95.5 -56t-130.5 -15h-254v343h-74zM404 434v-91h-204v-250h159q65 0 103.5 15t66.5 49t41 91t13 132q0 73 -12.5 132.5t-44.5 97.5
q-28 32 -67 41.5t-93 9.5h-166v-227h204z" />
    <glyph glyph-name="Ntilde" unicode="&#xd1;" horiz-adv-x="756" 
d="M209 754l362 -615v615h95v-754h-119l-362 615v-615h-95v754h119zM179 812q14 36 26.5 61t27 40.5t32.5 22t42 6.5q23 0 44 -8t50 -28q23 -16 35.5 -22.5t27.5 -6.5q19 0 29 12.5t22 38.5h77q-11 -26 -22.5 -48.5t-26 -39t-33.5 -26t-45 -9.5q-23 0 -44.5 7t-45.5 24
q-23 17 -38 25.5t-29 8.5q-21 0 -31 -15t-22 -43h-76z" />
    <glyph glyph-name="Ograve" unicode="&#xd2;" horiz-adv-x="789" 
d="M126 642q35 59 97.5 94t171.5 35q96 0 154.5 -26.5t98.5 -82.5q18 -25 31 -58.5t20.5 -71t11 -77.5t3.5 -79q0 -38 -3.5 -77t-11 -76t-19.5 -70t-30 -58q-42 -60 -101.5 -86t-153.5 -26q-55 0 -96.5 7t-72.5 21.5t-54 35.5t-40 49q-30 48 -43.5 123t-13.5 157
q0 36 2.5 73t8.5 72t16 66t24 55zM173 376q0 -29 1.5 -60.5t6 -61.5t12 -56.5t18.5 -45.5q29 -48 76.5 -62t107.5 -14q53 0 94.5 12.5t72.5 50.5q32 40 43 105t11 132q0 63 -9 123t-34 100q-28 45 -73 62t-105 17t-108.5 -17.5t-77.5 -68.5q-21 -37 -28.5 -96.5t-7.5 -119.5
zM364 806l-129 144h112l124 -144h-107z" />
    <glyph glyph-name="Oacute" unicode="&#xd3;" horiz-adv-x="789" 
d="M126 642q35 59 97.5 94t171.5 35q96 0 154.5 -26.5t98.5 -82.5q18 -25 31 -58.5t20.5 -71t11 -77.5t3.5 -79q0 -38 -3.5 -77t-11 -76t-19.5 -70t-30 -58q-42 -60 -101.5 -86t-153.5 -26q-55 0 -96.5 7t-72.5 21.5t-54 35.5t-40 49q-30 48 -43.5 123t-13.5 157
q0 36 2.5 73t8.5 72t16 66t24 55zM173 376q0 -29 1.5 -60.5t6 -61.5t12 -56.5t18.5 -45.5q29 -48 76.5 -62t107.5 -14q53 0 94.5 12.5t72.5 50.5q32 40 43 105t11 132q0 63 -9 123t-34 100q-28 45 -73 62t-105 17t-108.5 -17.5t-77.5 -68.5q-21 -37 -28.5 -96.5t-7.5 -119.5
zM308 806l128 144h111l-131 -144h-108z" />
    <glyph glyph-name="Ocircumflex" unicode="&#xd4;" horiz-adv-x="789" 
d="M126 642q35 59 97.5 94t171.5 35q96 0 154.5 -26.5t98.5 -82.5q18 -25 31 -58.5t20.5 -71t11 -77.5t3.5 -79q0 -38 -3.5 -77t-11 -76t-19.5 -70t-30 -58q-42 -60 -101.5 -86t-153.5 -26q-55 0 -96.5 7t-72.5 21.5t-54 35.5t-40 49q-30 48 -43.5 123t-13.5 157
q0 36 2.5 73t8.5 72t16 66t24 55zM173 376q0 -29 1.5 -60.5t6 -61.5t12 -56.5t18.5 -45.5q29 -48 76.5 -62t107.5 -14q53 0 94.5 12.5t72.5 50.5q32 40 43 105t11 132q0 63 -9 123t-34 100q-28 45 -73 62t-105 17t-108.5 -17.5t-77.5 -68.5q-21 -37 -28.5 -96.5t-7.5 -119.5
zM341 950h108l135 -144h-105l-84 88l-84 -88h-104z" />
    <glyph glyph-name="Otilde" unicode="&#xd5;" horiz-adv-x="789" 
d="M126 642q35 59 97.5 94t171.5 35q96 0 154.5 -26.5t98.5 -82.5q18 -25 31 -58.5t20.5 -71t11 -77.5t3.5 -79q0 -38 -3.5 -77t-11 -76t-19.5 -70t-30 -58q-42 -60 -101.5 -86t-153.5 -26q-55 0 -96.5 7t-72.5 21.5t-54 35.5t-40 49q-30 48 -43.5 123t-13.5 157
q0 36 2.5 73t8.5 72t16 66t24 55zM173 376q0 -29 1.5 -60.5t6 -61.5t12 -56.5t18.5 -45.5q29 -48 76.5 -62t107.5 -14q53 0 94.5 12.5t72.5 50.5q32 40 43 105t11 132q0 63 -9 123t-34 100q-28 45 -73 62t-105 17t-108.5 -17.5t-77.5 -68.5q-21 -37 -28.5 -96.5t-7.5 -119.5
zM191 812q14 36 26.5 61t27 40.5t32.5 22t42 6.5q23 0 44 -8t50 -28q23 -16 35.5 -22.5t27.5 -6.5q19 0 29 12.5t22 38.5h77q-11 -26 -22.5 -48.5t-26 -39t-33.5 -26t-45 -9.5q-23 0 -44.5 7t-45.5 24q-23 17 -38 25.5t-29 8.5q-21 0 -31 -15t-22 -43h-76z" />
    <glyph glyph-name="Odieresis" unicode="&#xd6;" horiz-adv-x="789" 
d="M126 642q35 59 97.5 94t171.5 35q96 0 154.5 -26.5t98.5 -82.5q18 -25 31 -58.5t20.5 -71t11 -77.5t3.5 -79q0 -38 -3.5 -77t-11 -76t-19.5 -70t-30 -58q-42 -60 -101.5 -86t-153.5 -26q-55 0 -96.5 7t-72.5 21.5t-54 35.5t-40 49q-30 48 -43.5 123t-13.5 157
q0 36 2.5 73t8.5 72t16 66t24 55zM211 152q28 -48 76 -62t108 -14q53 0 94.5 12.5t72.5 50.5q32 40 43 105t11 132q0 63 -9 123t-34 100q-28 45 -73 62t-105 17t-108.5 -17.5t-77.5 -68.5q-21 -37 -28.5 -96.5t-7.5 -119.5q0 -29 1.5 -60.5t6 -61.5t12 -56.5t18.5 -45.5z
M565 950v-141h-92v141h92zM225 809v141h92v-141h-92z" />
    <glyph glyph-name="multiply" unicode="&#xd7;" horiz-adv-x="700" 
d="M86 132l205 245l-205 245h115l149 -180l150 180h114l-205 -245l205 -245h-115l-149 180l-150 -180h-114z" />
    <glyph glyph-name="Oslash" unicode="&#xd8;" horiz-adv-x="789" 
d="M126 642q35 59 97.5 94t171.5 35q96 0 154.5 -27t98.5 -82q19 -25 31.5 -58.5t20 -71t11 -77.5t3.5 -79q0 -38 -3.5 -77t-11 -76t-19.5 -70t-30 -58q-42 -60 -101.5 -86t-153.5 -26q-55 0 -96.5 7t-72.5 21.5t-54 35.5t-40 49q-30 48 -43.5 123t-13.5 157q0 36 2.5 73
t8.5 72t16 66t24 55zM395 75q53 0 94.5 13t72.5 51q33 40 44 105t11 132q0 61 -9 119.5t-31 97.5l-315 -491q27 -17 61 -22t72 -5zM172 376q0 -29 1.5 -60t5.5 -60t11 -54t17 -42l314 490q-26 16 -57 22.5t-69 6.5q-60 0 -109.5 -18t-78.5 -69q-20 -36 -27.5 -96t-7.5 -120z
" />
    <glyph glyph-name="Ugrave" unicode="&#xd9;" horiz-adv-x="739" 
d="M184 754v-467q0 -66 8 -107t37 -68q24 -23 59.5 -29.5t81.5 -6.5q45 0 79.5 7.5t59.5 28.5q30 26 38 67.5t8 107.5v467h96v-467q0 -86 -12.5 -144.5t-58.5 -98.5q-38 -34 -88.5 -47.5t-121.5 -13.5q-73 0 -124.5 12.5t-89.5 50.5q-42 40 -55 99t-13 142v467h96zM351 806
l-129 144h112l124 -144h-107z" />
    <glyph glyph-name="Uacute" unicode="&#xda;" horiz-adv-x="739" 
d="M184 754v-467q0 -66 8 -107t37 -68q24 -23 59.5 -29.5t81.5 -6.5q45 0 79.5 7.5t59.5 28.5q30 26 38 67.5t8 107.5v467h96v-467q0 -86 -12.5 -144.5t-58.5 -98.5q-38 -34 -88.5 -47.5t-121.5 -13.5q-73 0 -124.5 12.5t-89.5 50.5q-42 40 -55 99t-13 142v467h96zM280 806
l128 144h111l-131 -144h-108z" />
    <glyph glyph-name="Ucircumflex" unicode="&#xdb;" horiz-adv-x="739" 
d="M184 754v-467q0 -66 8 -107t37 -68q24 -23 59.5 -29.5t81.5 -6.5q45 0 79.5 7.5t59.5 28.5q30 26 38 67.5t8 107.5v467h96v-467q0 -86 -12.5 -144.5t-58.5 -98.5q-38 -34 -88.5 -47.5t-121.5 -13.5q-73 0 -124.5 12.5t-89.5 50.5q-42 40 -55 99t-13 142v467h96zM315 950
h108l135 -144h-105l-84 88l-84 -88h-104z" />
    <glyph glyph-name="Udieresis" unicode="&#xdc;" horiz-adv-x="739" 
d="M88 754h96v-467q0 -66 8 -107t37 -68q24 -23 59.5 -29.5t81.5 -6.5q45 0 79.5 7.5t59.5 28.5q30 26 38 67.5t8 107.5v467h96v-467q0 -86 -12.5 -144.5t-58.5 -98.5q-38 -34 -88.5 -47.5t-121.5 -13.5q-73 0 -124.5 12.5t-89.5 50.5q-42 40 -55 99t-13 142v467zM442 950
h92v-141h-92v141zM205 950h92v-141h-92v141z" />
    <glyph glyph-name="Yacute" unicode="&#xdd;" horiz-adv-x="628" 
d="M102 754l213 -362l213 362h111l-277 -467v-287h-96v287l-277 467h113zM224 806l128 144h111l-131 -144h-108z" />
    <glyph glyph-name="Thorn" unicode="&#xde;" horiz-adv-x="662" 
d="M90 0v754h96v-134h198q62 0 104 -13t72 -45q28 -29 41.5 -72.5t13.5 -91.5q0 -51 -12.5 -94.5t-42.5 -76.5q-29 -32 -69 -46t-93 -18q-33 -2 -88 -2.5t-124 -0.5v-160h-96zM186 253q60 0 113 0.5t91 3.5q36 3 60 11.5t41 29.5q15 20 20.5 45t5.5 55t-7.5 56t-25.5 43
q-19 18 -46.5 24t-68.5 6h-183v-274z" />
    <glyph glyph-name="germandbls" unicode="&#xdf;" horiz-adv-x="616" 
d="M76 511q0 23 1.5 50t6.5 55q5 24 16.5 47t30.5 41q30 28 72 44t91 16q44 0 78 -9.5t57 -25.5q64 -44 64 -131q0 -39 -11 -65.5t-31 -50.5q-17 -22 -33 -40t-29 -32l88 -78q43 -37 69 -76q27 -40 27 -97q0 -73 -54 -120q-26 -23 -66.5 -35.5t-88.5 -12.5q-31 0 -58 2.5
t-54 6.5v90q28 -5 52 -7.5t53 -2.5q24 0 48.5 5t40.5 16q32 22 32 59q0 16 -2.5 26.5t-10.5 22.5q-7 11 -22 26t-36 35l-147 129q23 25 51 55t48 55t29.5 42.5t9.5 40.5q0 20 -5 34t-19 27q-25 22 -80 22q-31 0 -58.5 -11.5t-44.5 -35.5q-10 -14 -13 -29.5t-5 -29.5
q-2 -19 -2.5 -34t-0.5 -29v-506h-94v511z" />
    <glyph glyph-name="agrave" unicode="&#xe0;" 
d="M98 458q29 48 74.5 67.5t114.5 19.5q54 0 108.5 -16.5t118.5 -39.5v-489h-94v81q-12 -11 -26 -22.5t-31 -23.5q-33 -23 -62 -37.5t-67 -14.5q-56 0 -88.5 22t-53.5 59q-19 33 -27.5 85t-8.5 112q0 57 9.5 108.5t32.5 88.5zM169 123q21 -50 78 -50q24 0 49.5 13.5
t49.5 32.5q20 15 39 31t35 30v246q-29 11 -62 20.5t-67 9.5q-42 0 -69.5 -12.5t-44.5 -42.5q-14 -26 -20 -60.5t-6 -79.5q0 -40 4 -77.5t14 -60.5zM278 610l-129 144h112l124 -144h-107z" />
    <glyph glyph-name="aacute" unicode="&#xe1;" 
d="M98 458q29 48 74.5 67.5t114.5 19.5q54 0 108.5 -16.5t118.5 -39.5v-489h-94v81q-12 -11 -26 -22.5t-31 -23.5q-33 -23 -62 -37.5t-67 -14.5q-56 0 -88.5 22t-53.5 59q-19 33 -27.5 85t-8.5 112q0 57 9.5 108.5t32.5 88.5zM169 123q21 -50 78 -50q24 0 49.5 13.5
t49.5 32.5q20 15 39 31t35 30v246q-29 11 -62 20.5t-67 9.5q-42 0 -69.5 -12.5t-44.5 -42.5q-14 -26 -20 -60.5t-6 -79.5q0 -40 4 -77.5t14 -60.5zM215 610l128 144h111l-131 -144h-108z" />
    <glyph glyph-name="acircumflex" unicode="&#xe2;" 
d="M98 458q29 48 74.5 67.5t114.5 19.5q54 0 108.5 -16.5t118.5 -39.5v-489h-94v81q-12 -11 -26 -22.5t-31 -23.5q-33 -23 -62 -37.5t-67 -14.5q-56 0 -88.5 22t-53.5 59q-19 33 -27.5 85t-8.5 112q0 57 9.5 108.5t32.5 88.5zM169 123q21 -50 78 -50q24 0 49.5 13.5
t49.5 32.5q20 15 39 31t35 30v246q-29 11 -62 20.5t-67 9.5q-42 0 -69.5 -12.5t-44.5 -42.5q-14 -26 -20 -60.5t-6 -79.5q0 -40 4 -77.5t14 -60.5zM245 754h108l135 -144h-105l-84 88l-84 -88h-104z" />
    <glyph glyph-name="atilde" unicode="&#xe3;" 
d="M98 458q29 48 74.5 67.5t114.5 19.5q54 0 108.5 -16.5t118.5 -39.5v-489h-94v81q-12 -11 -26 -22.5t-31 -23.5q-33 -23 -62 -37.5t-67 -14.5q-56 0 -88.5 22t-53.5 59q-19 33 -27.5 85t-8.5 112q0 57 9.5 108.5t32.5 88.5zM169 123q21 -50 78 -50q24 0 49.5 13.5
t49.5 32.5q20 15 39 31t35 30v246q-29 11 -62 20.5t-67 9.5q-42 0 -69.5 -12.5t-44.5 -42.5q-14 -26 -20 -60.5t-6 -79.5q0 -40 4 -77.5t14 -60.5zM100 619q14 36 26.5 61t27 40.5t32.5 22t42 6.5q23 0 44 -8t50 -28q23 -16 35.5 -22.5t27.5 -6.5q19 0 29 12.5t22 38.5h77
q-11 -26 -22.5 -48.5t-26 -39t-33.5 -26t-45 -9.5q-23 0 -44.5 7t-45.5 24q-23 17 -38 25.5t-29 8.5q-21 0 -31 -15t-22 -43h-76z" />
    <glyph glyph-name="adieresis" unicode="&#xe4;" 
d="M98 458q29 48 74.5 67.5t114.5 19.5q54 0 108.5 -16.5t118.5 -39.5v-489h-94v81q-12 -11 -26 -22.5t-31 -23.5q-33 -23 -62 -37.5t-67 -14.5q-56 0 -88.5 22t-53.5 59q-19 33 -27.5 85t-8.5 112q0 57 9.5 108.5t32.5 88.5zM151 261q0 -40 4 -77.5t14 -60.5q21 -50 78 -50
q24 0 49.5 13.5t49.5 32.5q20 15 39 31t35 30v246q-29 11 -62 20.5t-67 9.5q-42 0 -69.5 -12.5t-44.5 -42.5q-14 -26 -20 -60.5t-6 -79.5zM352 754h92v-141h-92v141zM148 754h92v-141h-92v141z" />
    <glyph glyph-name="aring" unicode="&#xe5;" 
d="M98 458q29 48 74.5 67.5t114.5 19.5q54 0 108.5 -16.5t118.5 -39.5v-489h-94v81q-12 -11 -26 -22.5t-31 -23.5q-33 -23 -62 -37.5t-67 -14.5q-56 0 -88.5 22t-53.5 59q-19 33 -27.5 85t-8.5 112q0 57 9.5 108.5t32.5 88.5zM169 123q21 -50 78 -50q24 0 49.5 13.5
t49.5 32.5q20 15 39 31t35 30v246q-29 11 -62 20.5t-67 9.5q-42 0 -69.5 -12.5t-44.5 -42.5q-14 -26 -20 -60.5t-6 -79.5q0 -40 4 -77.5t14 -60.5zM201 784q16 17 40.5 26.5t56.5 9.5t57 -9.5t41 -26.5q17 -18 23.5 -39t6.5 -45q0 -51 -31 -82q-16 -17 -40.5 -26.5
t-56.5 -9.5t-56 9.5t-41 26.5q-31 31 -31 82q0 24 7 45t24 39zM236 700q0 -23 13 -38q17 -19 49 -19q17 0 29 5t20 13t11 18t3 21t-3 22t-12 20q-8 8 -19.5 12.5t-28.5 4.5q-30 0 -48 -18q-8 -8 -11 -19t-3 -22z" />
    <glyph glyph-name="ae" unicode="&#xe6;" horiz-adv-x="918" 
d="M52 138q0 44 14 79t46 54q26 15 63.5 20.5t91.5 5.5h143v55q0 25 -3 44t-14 32q-15 18 -40 25t-65 7q-24 0 -53.5 -3.5t-59 -9t-55.5 -11t-42 -9.5v87q19 5 46 10.5t56.5 10t59 7.5t53.5 3q63 0 108.5 -15t67.5 -53q23 30 63.5 49t109.5 19q76 0 121.5 -23t69.5 -61
q22 -34 27 -70t5 -63q0 -20 -2.5 -51t-7.5 -55h-355q0 -30 3 -51.5t16 -43.5q19 -32 52 -45t90 -13q48 0 96.5 7.5t80.5 13.5v-87q-34 -6 -85 -13t-98 -7q-78 0 -131.5 20.5t-82.5 75.5q-21 -16 -45 -32t-44 -27q-27 -16 -58 -26.5t-69 -10.5q-42 0 -73.5 7.5t-54.5 27.5
t-34 51t-11 69zM770 297q1 5 2 17t1 25q0 18 -4 37t-13 35q-15 26 -44 38.5t-70 12.5q-46 0 -74.5 -13t-46.5 -44q-13 -22 -17 -50t-4 -58h270zM166 82q12 -10 27 -13.5t38 -3.5q31 0 58.5 11t53.5 27q17 11 33.5 21.5t33.5 22.5v75h-130q-36 0 -63.5 -2.5t-46.5 -16.5
q-14 -11 -19 -26.5t-5 -35.5t4 -34t16 -25z" />
    <glyph glyph-name="ccedilla" unicode="&#xe7;" horiz-adv-x="487" 
d="M56 261q0 53 7 99.5t24 79.5q12 25 28.5 44.5t39.5 33t54.5 20.5t74.5 7q41 0 86 -10t80 -19v-92q-32 9 -77.5 20.5t-80.5 11.5q-48 0 -76 -12.5t-45 -48.5q-11 -25 -15.5 -60t-4.5 -72q0 -39 6 -75.5t19 -61.5q16 -31 44.5 -42.5t71.5 -11.5q38 0 82 10t76 18v-92
q-33 -8 -79.5 -16.5t-85.5 -8.5q-78 0 -119 21.5t-68 65.5q-22 35 -32 85.5t-10 105.5zM144 -197l86 137h101l-85 -137h-102z" />
    <glyph glyph-name="egrave" unicode="&#xe8;" horiz-adv-x="567" 
d="M56 261q0 49 6.5 98t30.5 92t71.5 68.5t126.5 25.5q77 0 122 -23t70 -61q22 -33 26.5 -69.5t4.5 -63.5q0 -20 -2.5 -51t-7.5 -55h-355q0 -23 4 -48t17 -47q19 -32 52 -45t88 -13q48 0 96.5 7.5t80.5 13.5v-87q-32 -6 -82 -13t-101 -7q-44 0 -77 5.5t-57.5 17t-42 27.5
t-31.5 37q-23 35 -31.5 79t-8.5 112zM149 297h270q1 5 2 17t1 25q0 18 -3 37t-13 35q-31 51 -115 51q-45 0 -74 -13t-46 -44q-12 -22 -17 -54t-5 -54zM267 610l-129 144h112l124 -144h-107z" />
    <glyph glyph-name="eacute" unicode="&#xe9;" horiz-adv-x="567" 
d="M56 261q0 49 6.5 98t30.5 92t71.5 68.5t126.5 25.5q77 0 122 -23t70 -61q22 -33 26.5 -69.5t4.5 -63.5q0 -20 -2.5 -51t-7.5 -55h-355q0 -23 4 -48t17 -47q19 -32 52 -45t88 -13q48 0 96.5 7.5t80.5 13.5v-87q-32 -6 -82 -13t-101 -7q-44 0 -77 5.5t-57.5 17t-42 27.5
t-31.5 37q-23 35 -31.5 79t-8.5 112zM149 297h270q1 5 2 17t1 25q0 18 -3 37t-13 35q-31 51 -115 51q-45 0 -74 -13t-46 -44q-12 -22 -17 -54t-5 -54zM205 610l128 144h111l-131 -144h-108z" />
    <glyph glyph-name="ecircumflex" unicode="&#xea;" horiz-adv-x="567" 
d="M56 261q0 49 6.5 98t30.5 92t71.5 68.5t126.5 25.5q77 0 122 -23t70 -61q22 -33 26.5 -69.5t4.5 -63.5q0 -20 -2.5 -51t-7.5 -55h-355q0 -23 4 -48t17 -47q19 -32 52 -45t88 -13q48 0 96.5 7.5t80.5 13.5v-87q-32 -6 -82 -13t-101 -7q-44 0 -77 5.5t-57.5 17t-42 27.5
t-31.5 37q-23 35 -31.5 79t-8.5 112zM149 297h270q1 5 2 17t1 25q0 18 -3 37t-13 35q-31 51 -115 51q-45 0 -74 -13t-46 -44q-12 -22 -17 -54t-5 -54zM235 754h108l135 -144h-105l-84 88l-84 -88h-104z" />
    <glyph glyph-name="edieresis" unicode="&#xeb;" horiz-adv-x="567" 
d="M56 261q0 49 6.5 98t30.5 92t71.5 68.5t126.5 25.5q77 0 122 -23t70 -61q22 -33 26.5 -69.5t4.5 -63.5q0 -20 -2.5 -51t-7.5 -55h-355q0 -23 4 -48t17 -47q19 -32 52 -45t88 -13q48 0 96.5 7.5t80.5 13.5v-87q-32 -6 -82 -13t-101 -7q-44 0 -77 5.5t-57.5 17t-42 27.5
t-31.5 37q-23 35 -31.5 79t-8.5 112zM149 297h270q1 5 2 17t1 25q0 18 -3 37t-13 35q-31 51 -115 51q-45 0 -74 -13t-46 -44q-12 -22 -17 -54t-5 -54zM342 754h92v-141h-92v141zM236 754v-141h-92v141h92z" />
    <glyph glyph-name="igrave" unicode="&#xec;" horiz-adv-x="246" 
d="M78 610l-129 144h112l124 -144h-107zM76 0v528h94v-528h-94z" />
    <glyph glyph-name="iacute" unicode="&#xed;" horiz-adv-x="246" 
d="M58 610l128 144h111l-131 -144h-108zM76 0v528h94v-528h-94z" />
    <glyph glyph-name="icircumflex" unicode="&#xee;" horiz-adv-x="246" 
d="M69 754h108l135 -144h-105l-84 88l-84 -88h-104zM76 0v528h94v-528h-94z" />
    <glyph glyph-name="idieresis" unicode="&#xef;" horiz-adv-x="246" 
d="M76 528h94v-528h-94v528zM156 613v141h93v-141h-93zM89 754v-141h-92v141h92z" />
    <glyph glyph-name="eth" unicode="&#xf0;" horiz-adv-x="601" 
d="M87 398q24 47 66 72.5t122 25.5q36 0 73 -9t66 -18q-5 24 -19 63t-45 74l-164 -73v73l107 49q-26 16 -55 25t-52 14v81q54 -9 104 -27.5t95 -52.5l130 59v-74l-78 -36q29 -37 48 -85t30 -100.5t15 -106t4 -103.5q0 -53 -10 -96.5t-28 -72.5q-28 -45 -75 -71t-126 -26
q-78 0 -123.5 21t-73.5 64q-42 64 -42 176q0 47 7 84.5t24 69.5zM176 126q18 -32 47.5 -43t71.5 -11q41 0 70 11.5t46 39.5q15 25 21.5 54.5t6.5 72.5q0 40 -2.5 69t-7.5 57q-10 4 -27 9.5t-36.5 11t-40.5 9t-40 3.5q-45 0 -72 -12.5t-42 -42.5q-13 -25 -16.5 -50t-3.5 -59
q0 -40 5.5 -67.5t19.5 -51.5z" />
    <glyph glyph-name="ntilde" unicode="&#xf1;" 
d="M76 0v528h94v-35q42 17 91.5 34.5t90.5 17.5q42 0 71.5 -10t52.5 -36t31 -65t8 -101v-333h-94v330q0 32 -2.5 57t-15.5 42q-11 15 -28.5 20t-40.5 5q-19 0 -40.5 -5t-43.5 -12.5t-42.5 -16t-37.5 -16.5v-404h-94zM95 619q14 36 26.5 61t27 40.5t32.5 22t42 6.5
q23 0 44 -8t50 -28q23 -16 35.5 -22.5t27.5 -6.5q19 0 29 12.5t22 38.5h77q-11 -26 -22.5 -48.5t-26 -39t-33.5 -26t-45 -9.5q-23 0 -44.5 7t-45.5 24q-23 17 -38 25.5t-29 8.5q-21 0 -31 -15t-22 -43h-76z" />
    <glyph glyph-name="ograve" unicode="&#xf2;" 
d="M89 438q26 50 73 78.5t133 28.5q69 0 115 -19.5t76 -61.5q29 -39 38.5 -92t9.5 -108q0 -57 -10 -105.5t-29 -79.5q-27 -45 -74 -70.5t-126 -25.5q-78 0 -122 21.5t-73 63.5q-21 31 -32.5 83t-11.5 110q0 50 8 97.5t25 79.5zM151 262q0 -41 6 -76t20 -59q18 -32 47 -43.5
t71 -11.5q40 0 69 12t46 40q15 25 22 61.5t7 81.5q0 41 -5.5 74t-21.5 60q-18 31 -46.5 43t-70.5 12q-45 0 -74.5 -14t-46.5 -48q-13 -26 -18 -59.5t-5 -72.5zM268 610l-129 144h112l124 -144h-107z" />
    <glyph glyph-name="oacute" unicode="&#xf3;" 
d="M89 438q26 50 73 78.5t133 28.5q69 0 115 -19.5t76 -61.5q29 -39 38.5 -92t9.5 -108q0 -57 -10 -105.5t-29 -79.5q-27 -45 -74 -70.5t-126 -25.5q-78 0 -122 21.5t-73 63.5q-21 31 -32.5 83t-11.5 110q0 50 8 97.5t25 79.5zM151 262q0 -41 6 -76t20 -59q18 -32 47 -43.5
t71 -11.5q40 0 69 12t46 40q15 25 22 61.5t7 81.5q0 41 -5.5 74t-21.5 60q-18 31 -46.5 43t-70.5 12q-45 0 -74.5 -14t-46.5 -48q-13 -26 -18 -59.5t-5 -72.5zM203 610l128 144h111l-131 -144h-108z" />
    <glyph glyph-name="ocircumflex" unicode="&#xf4;" 
d="M89 438q26 50 73 78.5t133 28.5q69 0 115 -19.5t76 -61.5q29 -39 38.5 -92t9.5 -108q0 -57 -10 -105.5t-29 -79.5q-27 -45 -74 -70.5t-126 -25.5q-78 0 -122 21.5t-73 63.5q-21 31 -32.5 83t-11.5 110q0 50 8 97.5t25 79.5zM151 262q0 -41 6 -76t20 -59q18 -32 47 -43.5
t71 -11.5q40 0 69 12t46 40q15 25 22 61.5t7 81.5q0 41 -5.5 74t-21.5 60q-18 31 -46.5 43t-70.5 12q-45 0 -74.5 -14t-46.5 -48q-13 -26 -18 -59.5t-5 -72.5zM241 754h108l135 -144h-105l-84 88l-84 -88h-104z" />
    <glyph glyph-name="otilde" unicode="&#xf5;" 
d="M89 438q26 50 73 78.5t133 28.5q69 0 115 -19.5t76 -61.5q29 -39 38.5 -92t9.5 -108q0 -57 -10 -105.5t-29 -79.5q-27 -45 -74 -70.5t-126 -25.5q-78 0 -122 21.5t-73 63.5q-21 31 -32.5 83t-11.5 110q0 50 8 97.5t25 79.5zM151 262q0 -41 6 -76t20 -59q18 -32 47 -43.5
t71 -11.5q40 0 69 12t46 40q15 25 22 61.5t7 81.5q0 41 -5.5 74t-21.5 60q-18 31 -46.5 43t-70.5 12q-45 0 -74.5 -14t-46.5 -48q-13 -26 -18 -59.5t-5 -72.5zM93 619q14 36 26.5 61t27 40.5t32.5 22t42 6.5q23 0 44 -8t50 -28q23 -16 35.5 -22.5t27.5 -6.5q19 0 29 12.5
t22 38.5h77q-11 -26 -22.5 -48.5t-26 -39t-33.5 -26t-45 -9.5q-23 0 -44.5 7t-45.5 24q-23 17 -38 25.5t-29 8.5q-21 0 -31 -15t-22 -43h-76z" />
    <glyph glyph-name="odieresis" unicode="&#xf6;" 
d="M56 261q0 50 8 97.5t25 79.5q26 50 73 78.5t133 28.5q69 0 115 -19.5t76 -61.5q29 -39 38.5 -92t9.5 -108q0 -57 -10 -105.5t-29 -79.5q-27 -45 -74 -70.5t-126 -25.5q-78 0 -122 21.5t-73 63.5q-21 31 -32.5 83t-11.5 110zM177 127q18 -32 47 -43.5t71 -11.5q40 0 69 12
t46 40q15 25 22 61.5t7 81.5q0 41 -5.5 74t-21.5 60q-18 31 -46.5 43t-70.5 12q-45 0 -74.5 -14t-46.5 -48q-13 -26 -18 -59.5t-5 -72.5q0 -41 6 -76t20 -59zM443 754v-141h-92v141h92zM148 613v141h92v-141h-92z" />
    <glyph glyph-name="divide" unicode="&#xf7;" horiz-adv-x="700" 
d="M624 423v-92h-548v92h548zM297 242h106v-132h-106v132zM297 512v132h106v-132h-106z" />
    <glyph glyph-name="oslash" unicode="&#xf8;" 
d="M89 438q26 50 73 78.5t133 28.5q69 0 115 -19.5t76 -61.5q29 -39 38.5 -92t9.5 -108q0 -57 -10 -105.5t-29 -79.5q-27 -45 -74 -70.5t-126 -25.5q-78 0 -122 21.5t-73 63.5q-21 31 -32.5 83t-11.5 110q0 50 8 97.5t25 79.5zM149 262q0 -37 5.5 -70t16.5 -56l205 305
q-31 17 -81 17q-46 0 -76 -14t-47 -48q-13 -25 -18 -59.5t-5 -74.5zM295 70q84 0 117 52q16 25 22.5 62.5t6.5 82.5q0 87 -20 127l-207 -308q17 -10 36.5 -13t44.5 -3z" />
    <glyph glyph-name="ugrave" unicode="&#xf9;" horiz-adv-x="583" 
d="M75 207v321h94v-319q0 -33 2.5 -62.5t16.5 -46.5q12 -16 31 -22t50 -6q45 0 81 7t63 15v434h94v-503q-54 -15 -114.5 -28.5t-131.5 -13.5q-54 0 -88.5 13.5t-57.5 39.5t-31.5 68t-8.5 103zM274 610l-129 144h112l124 -144h-107z" />
    <glyph glyph-name="uacute" unicode="&#xfa;" horiz-adv-x="583" 
d="M75 207v321h94v-319q0 -33 2.5 -62.5t16.5 -46.5q12 -16 31 -22t50 -6q45 0 81 7t63 15v434h94v-503q-54 -15 -114.5 -28.5t-131.5 -13.5q-54 0 -88.5 13.5t-57.5 39.5t-31.5 68t-8.5 103zM206 610l128 144h111l-131 -144h-108z" />
    <glyph glyph-name="ucircumflex" unicode="&#xfb;" horiz-adv-x="583" 
d="M75 207v321h94v-319q0 -33 2.5 -62.5t16.5 -46.5q12 -16 31 -22t50 -6q45 0 81 7t63 15v434h94v-503q-54 -15 -114.5 -28.5t-131.5 -13.5q-54 0 -88.5 13.5t-57.5 39.5t-31.5 68t-8.5 103zM235 754h108l135 -144h-105l-84 88l-84 -88h-104z" />
    <glyph glyph-name="udieresis" unicode="&#xfc;" horiz-adv-x="583" 
d="M169 528v-319q0 -33 2.5 -62.5t16.5 -46.5q12 -16 31 -22t50 -6q45 0 81 7t63 15v434h94v-503q-54 -15 -114.5 -28.5t-131.5 -13.5q-54 0 -88.5 13.5t-57.5 39.5t-31.5 68t-8.5 103v321h94zM349 613v141h92v-141h-92zM142 613v141h92v-141h-92z" />
    <glyph glyph-name="yacute" unicode="&#xfd;" horiz-adv-x="537" 
d="M109 528l160 -403l160 403h102l-291 -720h-100l78 194l-212 526h103zM180 610l128 144h111l-131 -144h-108z" />
    <glyph glyph-name="thorn" unicode="&#xfe;" horiz-adv-x="594" 
d="M76 -192v946h94v-280q14 10 31 21t36 21q23 12 49.5 20.5t56.5 8.5q55 0 90.5 -20t61.5 -62q20 -33 31.5 -84t11.5 -114q0 -62 -10.5 -112.5t-33.5 -86.5q-25 -38 -63 -60.5t-101 -22.5q-42 0 -84.5 14t-75.5 29v-218h-94zM170 119q33 -15 70.5 -30.5t75.5 -15.5
q35 0 59 11.5t40 39.5q28 49 28 140q0 44 -5.5 79.5t-19.5 61.5q-15 29 -37 40t-53 11q-20 0 -40 -7.5t-40 -18.5t-40.5 -24.5t-37.5 -25.5v-261z" />
    <glyph glyph-name="ydieresis" unicode="&#xff;" horiz-adv-x="537" 
d="M6 528h103l160 -403l160 403h102l-291 -720h-100l78 194zM416 754v-141h-92v141h92zM120 613v141h92v-141h-92z" />
    <glyph glyph-name="Amacron" unicode="&#x100;" horiz-adv-x="710" 
d="M11 0l280 754h126l282 -754h-105l-65 175h-352l-65 -175h-101zM209 267h287l-143 389zM186 832v73h337v-73h-337z" />
    <glyph glyph-name="amacron" unicode="&#x101;" 
d="M98 458q29 48 74.5 67.5t114.5 19.5q54 0 108.5 -16.5t118.5 -39.5v-489h-94v81q-12 -11 -26 -22.5t-31 -23.5q-33 -23 -62 -37.5t-67 -14.5q-56 0 -88.5 22t-53.5 59q-19 33 -27.5 85t-8.5 112q0 57 9.5 108.5t32.5 88.5zM169 123q21 -50 78 -50q24 0 49.5 13.5
t49.5 32.5q20 15 39 31t35 30v246q-29 11 -62 20.5t-67 9.5q-42 0 -69.5 -12.5t-44.5 -42.5q-14 -26 -20 -60.5t-6 -79.5q0 -40 4 -77.5t14 -60.5zM132 637v73h337v-73h-337z" />
    <glyph glyph-name="Abreve" unicode="&#x102;" horiz-adv-x="710" 
d="M11 0l280 754h126l282 -754h-105l-65 175h-352l-65 -175h-101zM209 267h287l-143 389zM270 950q4 -14 9.5 -28.5t14.5 -25.5q19 -26 60 -26q23 0 37.5 7.5t23.5 18.5t15 26.5t9 27.5h84q-8 -29 -20.5 -58.5t-33.5 -48.5q-20 -20 -48 -30.5t-67 -10.5q-75 0 -115 40
q-19 19 -32 48.5t-21 59.5h84z" />
    <glyph glyph-name="abreve" unicode="&#x103;" 
d="M98 458q29 48 74.5 67.5t114.5 19.5q54 0 108.5 -16.5t118.5 -39.5v-489h-94v81q-12 -11 -26 -22.5t-31 -23.5q-33 -23 -62 -37.5t-67 -14.5q-56 0 -88.5 22t-53.5 59q-19 33 -27.5 85t-8.5 112q0 57 9.5 108.5t32.5 88.5zM169 123q21 -50 78 -50q24 0 49.5 13.5
t49.5 32.5q20 15 39 31t35 30v246q-29 11 -62 20.5t-67 9.5q-42 0 -69.5 -12.5t-44.5 -42.5q-14 -26 -20 -60.5t-6 -79.5q0 -40 4 -77.5t14 -60.5zM209 754q4 -14 9.5 -28.5t14.5 -25.5q19 -26 60 -26q23 0 37.5 7.5t23.5 18.5t15 26.5t9 27.5h84q-8 -29 -20.5 -58.5
t-33.5 -48.5q-20 -20 -48 -30.5t-67 -10.5q-75 0 -115 40q-19 19 -32 48.5t-21 59.5h84z" />
    <glyph glyph-name="Aogonek" unicode="&#x104;" horiz-adv-x="710" 
d="M291 754h126l282 -754q-16 -12 -36 -28.5t-35 -31.5q-14 -14 -19.5 -25.5t-5.5 -22.5q0 -21 28 -21q16 0 35.5 6.5t36.5 13.5v-74q-18 -7 -42.5 -13t-49.5 -6q-30 0 -49 5.5t-32 16.5q-23 20 -23 60q0 34 26 69q13 17 28 30.5t31 25.5l-63 170h-352l-65 -175h-101z
M496 267l-143 389l-144 -389h287z" />
    <glyph glyph-name="aogonek" unicode="&#x105;" 
d="M98 458q29 48 74.5 67.5t114.5 19.5q54 0 108.5 -16.5t118.5 -39.5v-489q-16 -12 -37 -28.5t-37 -32.5q-25 -25 -25 -47q0 -21 28 -21q17 0 35.5 6.5t35.5 13.5v-74q-19 -8 -42 -13.5t-49 -5.5q-30 0 -49 5.5t-32 16.5q-23 20 -23 60q0 18 6.5 35t23.5 34q15 15 35.5 31
t35.5 27v74q-12 -11 -26 -22.5t-31 -23.5q-33 -23 -62 -37.5t-67 -14.5q-56 0 -88.5 22t-53.5 59q-19 33 -27.5 85t-8.5 112q0 57 9.5 108.5t32.5 88.5zM169 123q21 -50 78 -50q24 0 49.5 13.5t49.5 32.5q20 15 39 31t35 30v246q-29 11 -62 20.5t-67 9.5q-42 0 -69.5 -12.5
t-44.5 -42.5q-14 -26 -20 -60.5t-6 -79.5q0 -40 4 -77.5t14 -60.5z" />
    <glyph glyph-name="Cacute" unicode="&#x106;" horiz-adv-x="658" 
d="M75 370q0 85 11.5 157.5t41.5 123.5q16 27 37 49t50 38t68.5 24.5t91.5 8.5q33 0 65.5 -4t61.5 -10q31 -6 59 -13t47 -12v-96q-29 8 -59.5 15.5t-62.5 13.5q-26 5 -52 9t-52 4q-70 0 -111 -20.5t-65 -68.5q-18 -36 -25.5 -94t-7.5 -124q0 -63 7 -116t23 -87
q23 -48 65 -70t114 -22q52 0 113 11.5t113 22.5v-95q-53 -11 -113.5 -21.5t-122.5 -10.5q-56 0 -97 10t-70.5 27.5t-50.5 42.5t-36 55q-22 43 -32.5 109t-10.5 143zM277 806l128 144h111l-131 -144h-108z" />
    <glyph glyph-name="cacute" unicode="&#x107;" horiz-adv-x="487" 
d="M56 261q0 53 7 99.5t24 79.5q12 25 28.5 44.5t39.5 33t54.5 20.5t74.5 7q41 0 86 -10t80 -19v-92q-32 9 -77.5 20.5t-80.5 11.5q-48 0 -76 -12.5t-45 -48.5q-11 -25 -15.5 -60t-4.5 -72q0 -39 6 -75.5t19 -61.5q16 -31 44.5 -42.5t71.5 -11.5q38 0 82 10t76 18v-92
q-33 -8 -79.5 -16.5t-85.5 -8.5q-78 0 -119 21.5t-68 65.5q-22 35 -32 85.5t-10 105.5zM178 610l128 144h111l-131 -144h-108z" />
    <glyph glyph-name="Ccircumflex" unicode="&#x108;" horiz-adv-x="658" 
d="M75 370q0 85 11.5 157.5t41.5 123.5q16 27 37 49t50 38t68.5 24.5t91.5 8.5q33 0 65.5 -4t61.5 -10q31 -6 59 -13t47 -12v-96q-29 8 -59.5 15.5t-62.5 13.5q-26 5 -52 9t-52 4q-70 0 -111 -20.5t-65 -68.5q-18 -36 -25.5 -94t-7.5 -124q0 -63 7 -116t23 -87
q23 -48 65 -70t114 -22q52 0 113 11.5t113 22.5v-95q-53 -11 -113.5 -21.5t-122.5 -10.5q-56 0 -97 10t-70.5 27.5t-50.5 42.5t-36 55q-22 43 -32.5 109t-10.5 143zM313 950h108l135 -144h-105l-84 88l-84 -88h-104z" />
    <glyph glyph-name="ccircumflex" unicode="&#x109;" horiz-adv-x="487" 
d="M56 261q0 53 7 99.5t24 79.5q12 25 28.5 44.5t39.5 33t54.5 20.5t74.5 7q41 0 86 -10t80 -19v-92q-32 9 -77.5 20.5t-80.5 11.5q-48 0 -76 -12.5t-45 -48.5q-11 -25 -15.5 -60t-4.5 -72q0 -39 6 -75.5t19 -61.5q16 -31 44.5 -42.5t71.5 -11.5q38 0 82 10t76 18v-92
q-33 -8 -79.5 -16.5t-85.5 -8.5q-78 0 -119 21.5t-68 65.5q-22 35 -32 85.5t-10 105.5zM214 754h108l135 -144h-105l-84 88l-84 -88h-104z" />
    <glyph glyph-name="Cdotaccent" unicode="&#x10a;" horiz-adv-x="658" 
d="M75 370q0 85 11.5 157.5t41.5 123.5q16 27 37 49t50 38t68.5 24.5t91.5 8.5q33 0 65.5 -4t61.5 -10q31 -6 59 -13t47 -12v-96q-29 8 -59.5 15.5t-62.5 13.5q-26 5 -52 9t-52 4q-70 0 -111 -20.5t-65 -68.5q-18 -36 -25.5 -94t-7.5 -124q0 -63 7 -116t23 -87
q23 -48 65 -70t114 -22q52 0 113 11.5t113 22.5v-95q-53 -11 -113.5 -21.5t-122.5 -10.5q-56 0 -97 10t-70.5 27.5t-50.5 42.5t-36 55q-22 43 -32.5 109t-10.5 143zM311 809v141h97v-141h-97z" />
    <glyph glyph-name="cdotaccent" unicode="&#x10b;" horiz-adv-x="487" 
d="M56 261q0 53 7 99.5t24 79.5q12 25 28.5 44.5t39.5 33t54.5 20.5t74.5 7q41 0 86 -10t80 -19v-92q-32 9 -77.5 20.5t-80.5 11.5q-48 0 -76 -12.5t-45 -48.5q-11 -25 -15.5 -60t-4.5 -72q0 -39 6 -75.5t19 -61.5q16 -31 44.5 -42.5t71.5 -11.5q38 0 82 10t76 18v-92
q-33 -8 -79.5 -16.5t-85.5 -8.5q-78 0 -119 21.5t-68 65.5q-22 35 -32 85.5t-10 105.5zM219 613v141h97v-141h-97z" />
    <glyph glyph-name="Ccaron" unicode="&#x10c;" horiz-adv-x="658" 
d="M75 370q0 85 11.5 157.5t41.5 123.5q16 27 37 49t50 38t68.5 24.5t91.5 8.5q33 0 65.5 -4t61.5 -10q31 -6 59 -13t47 -12v-96q-29 8 -59.5 15.5t-62.5 13.5q-26 5 -52 9t-52 4q-70 0 -111 -20.5t-65 -68.5q-18 -36 -25.5 -94t-7.5 -124q0 -63 7 -116t23 -87
q23 -48 65 -70t114 -22q52 0 113 11.5t113 22.5v-95q-53 -11 -113.5 -21.5t-122.5 -10.5q-56 0 -97 10t-70.5 27.5t-50.5 42.5t-36 55q-22 43 -32.5 109t-10.5 143zM174 950h105l84 -88l84 88h104l-135 -144h-108z" />
    <glyph glyph-name="ccaron" unicode="&#x10d;" horiz-adv-x="487" 
d="M56 261q0 53 7 99.5t24 79.5q12 25 28.5 44.5t39.5 33t54.5 20.5t74.5 7q41 0 86 -10t80 -19v-92q-32 9 -77.5 20.5t-80.5 11.5q-48 0 -76 -12.5t-45 -48.5q-11 -25 -15.5 -60t-4.5 -72q0 -39 6 -75.5t19 -61.5q16 -31 44.5 -42.5t71.5 -11.5q38 0 82 10t76 18v-92
q-33 -8 -79.5 -16.5t-85.5 -8.5q-78 0 -119 21.5t-68 65.5q-22 35 -32 85.5t-10 105.5zM76 754h105l84 -88l84 88h104l-135 -144h-108z" />
    <glyph glyph-name="Dcaron" unicode="&#x10e;" horiz-adv-x="742" 
d="M352 754q81 0 134.5 -15.5t93.5 -56.5q45 -46 66 -121.5t21 -180.5q0 -106 -23 -183.5t-74 -125.5q-42 -41 -95.5 -56t-130.5 -15h-254v754h262zM345 93q65 0 103.5 15t66.5 49t41 91t13 132q0 73 -12 133t-45 97q-29 32 -67.5 41.5t-92.5 9.5h-166v-568h159zM142 950
h105l84 -88l84 88h104l-135 -144h-108z" />
    <glyph glyph-name="dcaron" unicode="&#x10f;" horiz-adv-x="648" 
d="M56 263q0 60 8 109.5t30 87.5q26 46 67.5 65.5t100.5 19.5q43 0 88.5 -11.5t74.5 -20.5v241h94v-754h-94v66q-10 -8 -26 -19t-36 -23q-29 -18 -60 -29.5t-68 -11.5q-57 0 -90.5 23.5t-52.5 60.5q-36 71 -36 196zM170 125q11 -27 29 -39t52 -12q26 0 51.5 11.5t46.5 24.5
q23 14 41.5 27.5t34.5 25.5v261q-36 11 -75 21.5t-73 10.5q-38 0 -64 -11.5t-40 -42.5q-13 -27 -17.5 -61t-4.5 -77q0 -47 4 -80t15 -59zM576 754h84v-65q0 -32 -4.5 -64t-12.5 -68h-67v197z" />
    <glyph glyph-name="Dcroat" unicode="&#x110;" horiz-adv-x="756" 
d="M30 343v91h74v320h262q81 0 134.5 -15.5t93.5 -56.5q45 -46 66 -121.5t21 -180.5q0 -106 -23 -183.5t-74 -125.5q-42 -41 -95.5 -56t-130.5 -15h-254v343h-74zM404 434v-91h-204v-250h159q65 0 103.5 15t66.5 49t41 91t13 132q0 73 -12.5 132.5t-44.5 97.5
q-28 32 -67 41.5t-93 9.5h-166v-227h204z" />
    <glyph glyph-name="dcroat" unicode="&#x111;" horiz-adv-x="595" 
d="M94 460q26 46 68 65t101 19q41 0 87 -11.5t75 -19.5v79h-161v77h161v85h94v-85h79v-77h-79v-592h-93v66q-10 -8 -26.5 -19t-35.5 -23q-29 -18 -60.5 -29.5t-67.5 -11.5q-58 0 -90.5 23t-52.5 60q-37 70 -37 197q0 60 8 109.5t30 87.5zM151 264q0 -47 4.5 -80t15.5 -59
q11 -27 29 -39t52 -12q26 0 51 11t47 25q23 14 41 27.5l34 25.5v261q-37 11 -75 21t-73 10q-38 0 -64 -11.5t-40 -42.5q-13 -27 -17.5 -60.5t-4.5 -76.5z" />
    <glyph glyph-name="Emacron" unicode="&#x112;" horiz-adv-x="654" 
d="M600 754v-93h-414v-230h392v-93h-392v-245h430v-93h-526v754h510zM176 832v73h337v-73h-337z" />
    <glyph glyph-name="emacron" unicode="&#x113;" horiz-adv-x="567" 
d="M56 261q0 49 6.5 98t30.5 92t71.5 68.5t126.5 25.5q77 0 122 -23t70 -61q22 -33 26.5 -69.5t4.5 -63.5q0 -20 -2.5 -51t-7.5 -55h-355q0 -23 4 -48t17 -47q19 -32 52 -45t88 -13q48 0 96.5 7.5t80.5 13.5v-87q-32 -6 -82 -13t-101 -7q-44 0 -77 5.5t-57.5 17t-42 27.5
t-31.5 37q-23 35 -31.5 79t-8.5 112zM149 297h270q1 5 2 17t1 25q0 18 -3 37t-13 35q-31 51 -115 51q-45 0 -74 -13t-46 -44q-12 -22 -17 -54t-5 -54zM123 637v73h337v-73h-337z" />
    <glyph glyph-name="Ebreve" unicode="&#x114;" horiz-adv-x="654" 
d="M600 754v-93h-414v-230h392v-93h-392v-245h430v-93h-526v754h510zM254 950q4 -14 9.5 -28.5t14.5 -25.5q19 -26 60 -26q23 0 37.5 7.5t23.5 18.5t15 26.5t9 27.5h84q-8 -29 -20.5 -58.5t-33.5 -48.5q-20 -20 -48 -30.5t-67 -10.5q-75 0 -115 40q-19 19 -32 48.5t-21 59.5
h84z" />
    <glyph glyph-name="ebreve" unicode="&#x115;" horiz-adv-x="567" 
d="M56 261q0 49 6.5 98t30.5 92t71.5 68.5t126.5 25.5q77 0 122 -23t70 -61q22 -33 26.5 -69.5t4.5 -63.5q0 -20 -2.5 -51t-7.5 -55h-355q0 -23 4 -48t17 -47q19 -32 52 -45t88 -13q48 0 96.5 7.5t80.5 13.5v-87q-32 -6 -82 -13t-101 -7q-44 0 -77 5.5t-57.5 17t-42 27.5
t-31.5 37q-23 35 -31.5 79t-8.5 112zM149 297h270q1 5 2 17t1 25q0 18 -3 37t-13 35q-31 51 -115 51q-45 0 -74 -13t-46 -44q-12 -22 -17 -54t-5 -54zM205 754q4 -14 9.5 -28.5t14.5 -25.5q19 -26 60 -26q23 0 37.5 7.5t23.5 18.5t15 26.5t9 27.5h84q-8 -29 -20.5 -58.5
t-33.5 -48.5q-20 -20 -48 -30.5t-67 -10.5q-75 0 -115 40q-19 19 -32 48.5t-21 59.5h84z" />
    <glyph glyph-name="Edotaccent" unicode="&#x116;" horiz-adv-x="654" 
d="M600 754v-93h-414v-230h392v-93h-392v-245h430v-93h-526v754h510zM292 809v141h97v-141h-97z" />
    <glyph glyph-name="edotaccent" unicode="&#x117;" horiz-adv-x="567" 
d="M56 261q0 49 6.5 98t30.5 92t71.5 68.5t126.5 25.5q77 0 122 -23t70 -61q22 -33 26.5 -69.5t4.5 -63.5q0 -20 -2.5 -51t-7.5 -55h-355q0 -23 4 -48t17 -47q19 -32 52 -45t88 -13q48 0 96.5 7.5t80.5 13.5v-87q-32 -6 -82 -13t-101 -7q-44 0 -77 5.5t-57.5 17t-42 27.5
t-31.5 37q-23 35 -31.5 79t-8.5 112zM149 297h270q1 5 2 17t1 25q0 18 -3 37t-13 35q-31 51 -115 51q-45 0 -74 -13t-46 -44q-12 -22 -17 -54t-5 -54zM238 613v141h97v-141h-97z" />
    <glyph glyph-name="Eogonek" unicode="&#x118;" horiz-adv-x="654" 
d="M600 754v-93h-414v-230h392v-93h-392v-245h430v-93q-16 -12 -37 -28t-38 -33q-25 -25 -25 -47q0 -21 28 -21q16 0 35.5 6.5t36.5 13.5v-74q-19 -7 -43 -13t-49 -6q-30 0 -49 5.5t-32 16.5q-23 20 -23 60q0 18 6.5 35t23.5 34q15 15 32.5 28t31.5 23h-424v754h510z" />
    <glyph glyph-name="eogonek" unicode="&#x119;" horiz-adv-x="567" 
d="M56 261q0 49 6.5 98t30.5 92t71.5 68.5t126.5 25.5q77 0 122 -23t70 -61q22 -33 26.5 -69.5t4.5 -63.5q0 -20 -2.5 -51t-7.5 -55h-355q0 -23 4 -48t17 -47q19 -32 52 -45t88 -13q48 0 96.5 7.5t80.5 13.5v-87q-16 -12 -36.5 -29t-37.5 -34q-25 -25 -25 -48q0 -21 28 -21
q16 0 35.5 6.5t36.5 13.5v-74q-19 -7 -43 -13t-49 -6q-30 0 -49 5.5t-32 16.5q-23 20 -23 60q0 18 6.5 35t23.5 34q9 9 20.5 19t22.5 18q-30 -3 -61 -3q-44 0 -77 5.5t-57.5 17t-42 27.5t-31.5 37q-23 35 -31.5 79t-8.5 112zM149 297h270q1 5 2 17t1 25q0 18 -3 37t-13 35
q-31 51 -115 51q-45 0 -74 -13t-46 -44q-12 -22 -17 -54t-5 -54z" />
    <glyph glyph-name="Ecaron" unicode="&#x11a;" horiz-adv-x="654" 
d="M600 754v-93h-414v-230h392v-93h-392v-245h430v-93h-526v754h510zM153 950h105l84 -88l84 88h104l-135 -144h-108z" />
    <glyph glyph-name="ecaron" unicode="&#x11b;" horiz-adv-x="567" 
d="M56 261q0 49 6.5 98t30.5 92t71.5 68.5t126.5 25.5q77 0 122 -23t70 -61q22 -33 26.5 -69.5t4.5 -63.5q0 -20 -2.5 -51t-7.5 -55h-355q0 -23 4 -48t17 -47q19 -32 52 -45t88 -13q48 0 96.5 7.5t80.5 13.5v-87q-32 -6 -82 -13t-101 -7q-44 0 -77 5.5t-57.5 17t-42 27.5
t-31.5 37q-23 35 -31.5 79t-8.5 112zM149 297h270q1 5 2 17t1 25q0 18 -3 37t-13 35q-31 51 -115 51q-45 0 -74 -13t-46 -44q-12 -22 -17 -54t-5 -54zM97 754h105l84 -88l84 88h104l-135 -144h-108z" />
    <glyph glyph-name="Gcircumflex" unicode="&#x11c;" horiz-adv-x="731" 
d="M75 370q0 88 12 159.5t42 122.5q17 27 38 49t50.5 37.5t68 24t90.5 8.5q32 0 63 -4.5t59 -9.5q34 -6 65 -13t54 -13v-96q-30 8 -65.5 16t-70.5 15q-25 5 -49.5 8.5t-48.5 3.5q-71 0 -111.5 -20t-64.5 -69q-18 -36 -26 -93t-8 -125q0 -69 7 -120t24 -86q22 -46 64 -67.5
t114 -21.5q43 0 89.5 4.5t75.5 8.5v314h96v-395q-58 -9 -130 -17t-141 -8q-56 0 -96 9.5t-69.5 27t-49.5 41t-36 51.5q-24 43 -35 108t-11 150zM318 950h108l135 -144h-105l-84 88l-84 -88h-104z" />
    <glyph glyph-name="gcircumflex" unicode="&#x11d;" horiz-adv-x="591" 
d="M57 267q0 60 9 108t29 83q28 49 73 68t115 19q27 0 57 -5t60.5 -13t60 -17.5t54.5 -18.5v-443q0 -66 -15 -111t-45 -77t-82 -50.5t-123 -18.5q-48 0 -93 4.5t-80 9.5v88q14 -2 33.5 -4.5t43 -5t48 -4t48.5 -1.5q43 0 77.5 11.5t55.5 33.5t29.5 50.5t8.5 60.5v18
q-20 -10 -65 -28q-26 -11 -54 -17.5t-60 -6.5q-60 0 -93.5 22t-53.5 54q-19 32 -28.5 81t-9.5 110zM152 267q0 -85 20 -131q11 -26 31.5 -36.5t54.5 -10.5q23 0 45 5.5t44 14.5q23 9 40 17l34 16v285q-25 8 -64 18.5t-72 10.5q-43 0 -69.5 -12t-41.5 -43q-12 -24 -17 -58
t-5 -76zM240 754h108l135 -144h-105l-84 88l-84 -88h-104z" />
    <glyph glyph-name="Gbreve" unicode="&#x11e;" horiz-adv-x="731" 
d="M75 370q0 88 12 159.5t42 122.5q17 27 38 49t50.5 37.5t68 24t90.5 8.5q32 0 63 -4.5t59 -9.5q34 -6 65 -13t54 -13v-96q-30 8 -65.5 16t-70.5 15q-25 5 -49.5 8.5t-48.5 3.5q-71 0 -111.5 -20t-64.5 -69q-18 -36 -26 -93t-8 -125q0 -69 7 -120t24 -86q22 -46 64 -67.5
t114 -21.5q43 0 89.5 4.5t75.5 8.5v314h96v-395q-58 -9 -130 -17t-141 -8q-56 0 -96 9.5t-69.5 27t-49.5 41t-36 51.5q-24 43 -35 108t-11 150zM287 950q4 -14 9.5 -28.5t14.5 -25.5q19 -26 60 -26q23 0 37.5 7.5t23.5 18.5t15 26.5t9 27.5h84q-8 -29 -20.5 -58.5
t-33.5 -48.5q-20 -20 -48 -30.5t-67 -10.5q-75 0 -115 40q-19 19 -32 48.5t-21 59.5h84z" />
    <glyph glyph-name="gbreve" unicode="&#x11f;" horiz-adv-x="591" 
d="M57 267q0 60 9 108t29 83q28 49 73 68t115 19q27 0 57 -5t60.5 -13t60 -17.5t54.5 -18.5v-443q0 -66 -15 -111t-45 -77t-82 -50.5t-123 -18.5q-48 0 -93 4.5t-80 9.5v88q14 -2 33.5 -4.5t43 -5t48 -4t48.5 -1.5q43 0 77.5 11.5t55.5 33.5t29.5 50.5t8.5 60.5v18
q-20 -10 -65 -28q-26 -11 -54 -17.5t-60 -6.5q-60 0 -93.5 22t-53.5 54q-19 32 -28.5 81t-9.5 110zM152 267q0 -85 20 -131q11 -26 31.5 -36.5t54.5 -10.5q23 0 45 5.5t44 14.5q23 9 40 17l34 16v285q-25 8 -64 18.5t-72 10.5q-43 0 -69.5 -12t-41.5 -43q-12 -24 -17 -58
t-5 -76zM207 754q4 -14 9.5 -28.5t14.5 -25.5q19 -26 60 -26q23 0 37.5 7.5t23.5 18.5t15 26.5t9 27.5h84q-8 -29 -20.5 -58.5t-33.5 -48.5q-20 -20 -48 -30.5t-67 -10.5q-75 0 -115 40q-19 19 -32 48.5t-21 59.5h84z" />
    <glyph glyph-name="Gdotaccent" unicode="&#x120;" horiz-adv-x="731" 
d="M75 370q0 88 12 159.5t42 122.5q17 27 38 49t50.5 37.5t68 24t90.5 8.5q32 0 63 -4.5t59 -9.5q34 -6 65 -13t54 -13v-96q-30 8 -65.5 16t-70.5 15q-25 5 -49.5 8.5t-48.5 3.5q-71 0 -111.5 -20t-64.5 -69q-18 -36 -26 -93t-8 -125q0 -69 7 -120t24 -86q22 -46 64 -67.5
t114 -21.5q43 0 89.5 4.5t75.5 8.5v314h96v-395q-58 -9 -130 -17t-141 -8q-56 0 -96 9.5t-69.5 27t-49.5 41t-36 51.5q-24 43 -35 108t-11 150zM322 809v141h97v-141h-97z" />
    <glyph glyph-name="gdotaccent" unicode="&#x121;" horiz-adv-x="591" 
d="M57 267q0 60 9 108t29 83q28 49 73 68t115 19q27 0 57 -5t60.5 -13t60 -17.5t54.5 -18.5v-443q0 -66 -15 -111t-45 -77t-82 -50.5t-123 -18.5q-48 0 -93 4.5t-80 9.5v88q14 -2 33.5 -4.5t43 -5t48 -4t48.5 -1.5q43 0 77.5 11.5t55.5 33.5t29.5 50.5t8.5 60.5v18
q-20 -10 -65 -28q-26 -11 -54 -17.5t-60 -6.5q-60 0 -93.5 22t-53.5 54q-19 32 -28.5 81t-9.5 110zM152 267q0 -85 20 -131q11 -26 31.5 -36.5t54.5 -10.5q23 0 45 5.5t44 14.5q23 9 40 17l34 16v285q-25 8 -64 18.5t-72 10.5q-43 0 -69.5 -12t-41.5 -43q-12 -24 -17 -58
t-5 -76zM243 613v141h97v-141h-97z" />
    <glyph glyph-name="uni0122" unicode="&#x122;" horiz-adv-x="731" 
d="M75 370q0 88 12 159.5t42 122.5q17 27 38 49t50.5 37.5t68 24t90.5 8.5q32 0 63 -4.5t59 -9.5q34 -6 65 -13t54 -13v-96q-30 8 -65.5 16t-70.5 15q-25 5 -49.5 8.5t-48.5 3.5q-71 0 -111.5 -20t-64.5 -69q-18 -36 -26 -93t-8 -125q0 -69 7 -120t24 -86q22 -46 64 -67.5
t114 -21.5q43 0 89.5 4.5t75.5 8.5v314h96v-395q-58 -9 -130 -17t-141 -8q-56 0 -96 9.5t-69.5 27t-49.5 41t-36 51.5q-24 43 -35 108t-11 150zM323 -279q10 43 13 78t3 83v63h85v-59q0 -51 -8.5 -90t-23.5 -75h-69z" />
    <glyph glyph-name="uni0123" unicode="&#x123;" horiz-adv-x="591" 
d="M95 458q28 49 73 68t115 19q27 0 57 -5t60.5 -13t60 -17.5t54.5 -18.5v-443q0 -66 -15 -111t-45 -77t-82 -50.5t-123 -18.5q-48 0 -93 4.5t-80 9.5v88q14 -2 33.5 -4.5t43 -5t48 -4t48.5 -1.5q43 0 77.5 11.5t55.5 33.5t29.5 50.5t8.5 60.5v18q-20 -10 -65 -28
q-26 -11 -54 -17.5t-60 -6.5q-60 0 -93.5 22t-53.5 54q-19 32 -28.5 81t-9.5 110q0 60 9 108t29 83zM172 136q11 -26 31.5 -36.5t54.5 -10.5q23 0 45 5.5t44 14.5q23 9 40 17l34 16v285q-25 8 -64 18.5t-72 10.5q-43 0 -69.5 -12t-41.5 -43q-12 -24 -17 -58t-5 -76
q0 -85 20 -131zM246 596v67q0 51 8.5 92t23.5 76h69q-10 -43 -13 -79.5t-3 -84.5v-71h-85z" />
    <glyph glyph-name="Hcircumflex" unicode="&#x124;" horiz-adv-x="757" 
d="M186 754v-310h385v310h96v-754h-96v351h-385v-351h-96v754h96zM324 950h108l135 -144h-105l-84 88l-84 -88h-104z" />
    <glyph glyph-name="hcircumflex" unicode="&#x125;" horiz-adv-x="587" 
d="M76 0v754h94v-257q44 17 89 32.5t87 15.5q44 0 74 -10t53 -36t31 -64t8 -102v-333h-94v329q0 32 -3 58t-16 43q-12 15 -29 19.5t-42 4.5q-18 0 -38.5 -4.5t-41.5 -11.5t-41 -15.5t-37 -15.5v-407h-94zM71 950h108l135 -144h-105l-84 88l-84 -88h-104z" />
    <glyph glyph-name="Hbar" unicode="&#x126;" horiz-adv-x="757" 
d="M90 755h96v-128h385v128h96v-755h-96v337h-385v-337h-96v755zM186 535v-106h385v106h-385z" />
    <glyph glyph-name="hbar" unicode="&#x127;" horiz-adv-x="587" 
d="M0 592v77h76v84h94v-84h165v-77h-165v-94q43 17 88.5 31.5t87.5 14.5q43 0 73.5 -10t53.5 -36t31 -63.5t8 -101.5v-333h-94v328q0 32 -3 58.5t-16 42.5q-13 15 -30 19.5t-41 4.5q-36 0 -80 -16t-78 -30v-407h-94v592h-76z" />
    <glyph glyph-name="Itilde" unicode="&#x128;" horiz-adv-x="276" 
d="M90 0v754h96v-754h-96zM-64 818q14 36 26.5 61t27 40.5t32.5 22t42 6.5q23 0 44 -8t50 -28q23 -16 35.5 -22.5t27.5 -6.5q19 0 29 12.5t22 38.5h77q-11 -26 -22.5 -48.5t-26 -39t-33.5 -26t-45 -9.5q-23 0 -44.5 7t-45.5 24q-23 17 -38 25.5t-29 8.5q-21 0 -31 -15
t-22 -43h-76z" />
    <glyph glyph-name="itilde" unicode="&#x129;" horiz-adv-x="246" 
d="M76 0v528h94v-528h-94zM-81 619q14 36 26.5 61t27 40.5t32.5 22t42 6.5q23 0 44 -8t50 -28q23 -16 35.5 -22.5t27.5 -6.5q19 0 29 12.5t22 38.5h77q-11 -26 -22.5 -48.5t-26 -39t-33.5 -26t-45 -9.5q-23 0 -44.5 7t-45.5 24q-23 17 -38 25.5t-29 8.5q-21 0 -31 -15
t-22 -43h-76z" />
    <glyph glyph-name="Imacron" unicode="&#x12a;" horiz-adv-x="276" 
d="M90 0v754h96v-754h-96zM-31 832v73h337v-73h-337z" />
    <glyph glyph-name="imacron" unicode="&#x12b;" horiz-adv-x="246" 
d="M76 0v528h94v-528h-94zM-45 637v73h337v-73h-337z" />
    <glyph glyph-name="Ibreve" unicode="&#x12c;" horiz-adv-x="276" 
d="M90 0v754h96v-754h-96zM54 950q4 -14 9.5 -28.5t14.5 -25.5q19 -26 60 -26q23 0 37.5 7.5t23.5 18.5t15 26.5t9 27.5h84q-8 -29 -20.5 -58.5t-33.5 -48.5q-20 -20 -48 -30.5t-67 -10.5q-75 0 -115 40q-19 19 -32 48.5t-21 59.5h84z" />
    <glyph glyph-name="ibreve" unicode="&#x12d;" horiz-adv-x="246" 
d="M76 0v528h94v-528h-94zM39 754q4 -14 9.5 -28.5t14.5 -25.5q19 -26 60 -26q23 0 37.5 7.5t23.5 18.5t15 26.5t9 27.5h84q-8 -29 -20.5 -58.5t-33.5 -48.5q-20 -20 -48 -30.5t-67 -10.5q-75 0 -115 40q-19 19 -32 48.5t-21 59.5h84z" />
    <glyph glyph-name="Iogonek" unicode="&#x12e;" horiz-adv-x="276" 
d="M56 -52q8 16 17 28.5t17 23.5v754h96v-754q-8 -11 -19 -26.5t-19 -30.5q-15 -30 -15 -51t28 -21q16 0 35 6.5t36 13.5v-74q-18 -7 -42 -13t-49 -6q-21 0 -40 3t-33.5 11.5t-22.5 24t-8 40.5q0 34 19 71z" />
    <glyph glyph-name="iogonek" unicode="&#x12f;" horiz-adv-x="246" 
d="M21 -123q0 17 4 35t15 36q9 16 18.5 28.5t17.5 23.5v528h94v-528q-8 -11 -19.5 -26.5t-19.5 -30.5q-14 -28 -14 -51q0 -21 28 -21q16 0 35.5 6.5t36.5 13.5v-74q-18 -7 -42.5 -13t-49.5 -6q-30 0 -49 5.5t-32 16.5q-23 20 -23 57zM75 754h96v-144h-96v144z" />
    <glyph glyph-name="Idotaccent" unicode="&#x130;" horiz-adv-x="276" 
d="M90 0v754h96v-754h-96zM90 809v141h97v-141h-97z" />
    <glyph glyph-name="dotlessi" unicode="&#x131;" horiz-adv-x="246" 
d="M76 0v528h94v-528h-94z" />
    <glyph glyph-name="IJ" unicode="&#x132;" horiz-adv-x="646" 
d="M90 0v754h96v-754h-96zM245 -6q14 4 34 11t41 15t41.5 17.5t36.5 18.5q20 12 33 24t20 32q8 22 9 54t1 64v524h96v-527q0 -51 -1.5 -89.5t-12.5 -69.5q-16 -44 -63 -74q-24 -15 -55.5 -30t-64.5 -28t-63.5 -23.5t-51.5 -16.5v98z" />
    <glyph glyph-name="ij" unicode="&#x133;" horiz-adv-x="496" 
d="M76 0v528h94v-528h-94zM75 613v141h96v-141h-96zM192 -211v94q9 3 22 8.5t26.5 11.5t25.5 13t20 13q27 21 34 48q5 17 5.5 41t0.5 47v463h94v-473q0 -26 -1.5 -60t-8.5 -54q-16 -50 -66 -84q-31 -21 -75.5 -39.5t-76.5 -28.5zM421 754v-141h-96v141h96z" />
    <glyph glyph-name="Jcircumflex" unicode="&#x134;" horiz-adv-x="385" 
d="M-16 -6q14 4 34 11t41 15t41.5 17.5t36.5 18.5q20 12 33 24t20 32q8 22 9 54t1 64v524h96v-527q0 -51 -1.5 -89.5t-12.5 -69.5q-16 -44 -63 -74q-24 -15 -55.5 -30t-64.5 -28t-63.5 -23.5t-51.5 -16.5v98zM188 950h108l135 -144h-105l-84 88l-84 -88h-104z" />
    <glyph glyph-name="jcircumflex" unicode="&#x135;" horiz-adv-x="258" 
d="M72 754h108l135 -144h-105l-84 88l-84 -88h-104zM-46 -123q8 3 20.5 8.5t26 12.5t26 14t20.5 13q14 11 21 22t12 26q5 17 6 42.5t1 48.5v464h95v-475q0 -26 -1 -59.5t-7 -53.5q-16 -50 -68 -85q-31 -21 -75.5 -39t-76.5 -28v89z" />
    <glyph glyph-name="uni0136" unicode="&#x136;" horiz-adv-x="661" 
d="M186 754v-358l333 358h128l-345 -371l377 -383h-134l-359 364v-364h-96v754h96zM255 -280q10 43 13 78t3 83v63h85v-59q0 -51 -8.5 -90t-23.5 -75h-69z" />
    <glyph glyph-name="uni0137" unicode="&#x137;" horiz-adv-x="531" 
d="M170 754v-454l222 228h128l-237 -243l257 -285h-127l-243 270v-270h-94v754h94zM198 -280q10 43 13 78t3 83v63h85v-59q0 -51 -8.5 -90t-23.5 -75h-69z" />
    <glyph glyph-name="kgreenlandic" unicode="&#x138;" horiz-adv-x="541" 
d="M170 528v-234q42 14 90 35.5t85 56.5q23 22 39 58t26 84h96q-14 -68 -32.5 -115.5t-50.5 -80.5q-25 -26 -55 -45t-60 -34l235 -253h-128l-245 265v-265h-94v528h94z" />
    <glyph glyph-name="Lacute" unicode="&#x139;" horiz-adv-x="612" 
d="M90 0v754h96v-661h398v-93h-494zM78 806l128 144h111l-131 -144h-108z" />
    <glyph glyph-name="lacute" unicode="&#x13a;" horiz-adv-x="246" 
d="M76 0v754h94v-754h-94zM58 806l128 144h111l-131 -144h-108z" />
    <glyph glyph-name="uni013B" unicode="&#x13b;" horiz-adv-x="612" 
d="M90 0v754h96v-661h398v-93h-494zM270 -280q10 43 13 78t3 83v63h85v-59q0 -51 -8.5 -90t-23.5 -75h-69z" />
    <glyph glyph-name="uni013C" unicode="&#x13c;" horiz-adv-x="246" 
d="M76 0v754h94v-754h-94zM66 -280q10 43 13 78t3 83v63h85v-59q0 -51 -8.5 -90t-23.5 -75h-69z" />
    <glyph glyph-name="Lcaron" unicode="&#x13d;" horiz-adv-x="612" 
d="M90 754h96v-661h398v-93h-494v754zM332 557v197h84v-65q0 -32 -4.5 -64t-12.5 -68h-67z" />
    <glyph glyph-name="lcaron" unicode="&#x13e;" horiz-adv-x="299" 
d="M170 754v-754h-94v754h94zM227 754h84v-65q0 -32 -4.5 -64t-12.5 -68h-67v197z" />
    <glyph glyph-name="Ldot" unicode="&#x13f;" horiz-adv-x="612" 
d="M90 0v754h96v-661h398v-93h-494zM393 319v141h97v-141h-97z" />
    <glyph glyph-name="ldot" unicode="&#x140;" horiz-adv-x="343" 
d="M76 0v754h94v-754h-94zM246 319v141h97v-141h-97z" />
    <glyph glyph-name="Lslash" unicode="&#x141;" horiz-adv-x="612" 
d="M90 395v359h96v-299l156 100v-92l-156 -101v-269h398v-93h-494v302l-80 -52v93z" />
    <glyph glyph-name="lslash" unicode="&#x142;" horiz-adv-x="276" 
d="M91 407v347h94v-286l78 51v-92l-78 -51v-376h-94v316l-78 -50v91z" />
    <glyph glyph-name="Nacute" unicode="&#x143;" horiz-adv-x="756" 
d="M209 754l362 -615v615h95v-754h-119l-362 615v-615h-95v754h119zM286 806l128 144h111l-131 -144h-108z" />
    <glyph glyph-name="nacute" unicode="&#x144;" 
d="M76 0v528h94v-35q42 17 91.5 34.5t90.5 17.5q42 0 71.5 -10t52.5 -36t31 -65t8 -101v-333h-94v330q0 32 -2.5 57t-15.5 42q-11 15 -28.5 20t-40.5 5q-19 0 -40.5 -5t-43.5 -12.5t-42.5 -16t-37.5 -16.5v-404h-94zM194 610l128 144h111l-131 -144h-108z" />
    <glyph glyph-name="uni0145" unicode="&#x145;" horiz-adv-x="756" 
d="M209 754l362 -615v615h95v-754h-119l-362 615v-615h-95v754h119zM322 -280q10 43 13 78t3 83v63h85v-59q0 -51 -8.5 -90t-23.5 -75h-69z" />
    <glyph glyph-name="uni0146" unicode="&#x146;" 
d="M76 0v528h94v-35q42 17 91.5 34.5t90.5 17.5q42 0 71.5 -10t52.5 -36t31 -65t8 -101v-333h-94v330q0 32 -2.5 57t-15.5 42q-11 15 -28.5 20t-40.5 5q-19 0 -40.5 -5t-43.5 -12.5t-42.5 -16t-37.5 -16.5v-404h-94zM228 -280q10 43 13 78t3 83v63h85v-59q0 -51 -8.5 -90
t-23.5 -75h-69z" />
    <glyph glyph-name="Ncaron" unicode="&#x147;" horiz-adv-x="756" 
d="M209 754l362 -615v615h95v-754h-119l-362 615v-615h-95v754h119zM187 950h105l84 -88l84 88h104l-135 -144h-108z" />
    <glyph glyph-name="ncaron" unicode="&#x148;" 
d="M76 0v528h94v-35q42 17 91.5 34.5t90.5 17.5q42 0 71.5 -10t52.5 -36t31 -65t8 -101v-333h-94v330q0 32 -2.5 57t-15.5 42q-11 15 -28.5 20t-40.5 5q-19 0 -40.5 -5t-43.5 -12.5t-42.5 -16t-37.5 -16.5v-404h-94zM105 754h105l84 -88l84 88h104l-135 -144h-108z" />
    <glyph glyph-name="napostrophe" unicode="&#x149;" horiz-adv-x="634" 
d="M120 0v528h94v-35q42 17 91.5 34.5t90.5 17.5q42 0 71.5 -10t52.5 -36t31 -65t8 -101v-333h-94v330q0 32 -2.5 57t-15.5 42q-11 15 -28.5 20t-40.5 5q-19 0 -40.5 -5t-43.5 -12.5t-42.5 -16t-37.5 -16.5v-404h-94zM-8 530q10 43 13 78t3 83v63h85v-59q0 -51 -8.5 -90
t-23.5 -75h-69z" />
    <glyph glyph-name="Eng" unicode="&#x14a;" horiz-adv-x="756" 
d="M209 754l362 -615v615h95v-649q0 -46 -1.5 -82.5t-11.5 -65.5q-16 -45 -64 -75q-23 -15 -54.5 -29.5t-64.5 -27.5t-63.5 -23.5t-52.5 -16.5v98q13 4 32.5 10.5t40.5 14.5t41.5 16.5t35.5 16.5q20 10 32.5 20t17.5 27l-369 627v-615h-95v754h119z" />
    <glyph glyph-name="eng" unicode="&#x14b;" 
d="M76 528h94v-35q21 9 44.5 18t47.5 16.5t47 12.5t43 5q42 0 71.5 -10t52.5 -36t31 -65t8 -101v-278q0 -28 -1 -58t-9 -56q-14 -49 -66 -84q-31 -21 -75.5 -39.5t-76.5 -28.5v94q9 3 22 8t26.5 11.5t26 13.5t19.5 13q20 15 28 31.5t10 39.5q2 15 2 31.5v33.5v265
q0 32 -2.5 57t-15.5 42q-11 15 -28.5 20t-40.5 5q-19 0 -40.5 -5t-43.5 -12.5t-42.5 -16t-37.5 -16.5v-404h-94v528z" />
    <glyph glyph-name="Omacron" unicode="&#x14c;" horiz-adv-x="789" 
d="M126 642q35 59 97.5 94t171.5 35q96 0 154.5 -26.5t98.5 -82.5q18 -25 31 -58.5t20.5 -71t11 -77.5t3.5 -79q0 -38 -3.5 -77t-11 -76t-19.5 -70t-30 -58q-42 -60 -101.5 -86t-153.5 -26q-55 0 -96.5 7t-72.5 21.5t-54 35.5t-40 49q-30 48 -43.5 123t-13.5 157
q0 36 2.5 73t8.5 72t16 66t24 55zM173 376q0 -29 1.5 -60.5t6 -61.5t12 -56.5t18.5 -45.5q29 -48 76.5 -62t107.5 -14q53 0 94.5 12.5t72.5 50.5q32 40 43 105t11 132q0 63 -9 123t-34 100q-28 45 -73 62t-105 17t-108.5 -17.5t-77.5 -68.5q-21 -37 -28.5 -96.5t-7.5 -119.5
zM225 832v73h337v-73h-337z" />
    <glyph glyph-name="omacron" unicode="&#x14d;" 
d="M89 438q26 50 73 78.5t133 28.5q69 0 115 -19.5t76 -61.5q29 -39 38.5 -92t9.5 -108q0 -57 -10 -105.5t-29 -79.5q-27 -45 -74 -70.5t-126 -25.5q-78 0 -122 21.5t-73 63.5q-21 31 -32.5 83t-11.5 110q0 50 8 97.5t25 79.5zM151 262q0 -41 6 -76t20 -59q18 -32 47 -43.5
t71 -11.5q40 0 69 12t46 40q15 25 22 61.5t7 81.5q0 41 -5.5 74t-21.5 60q-18 31 -46.5 43t-70.5 12q-45 0 -74.5 -14t-46.5 -48q-13 -26 -18 -59.5t-5 -72.5zM128 637v73h337v-73h-337z" />
    <glyph glyph-name="Obreve" unicode="&#x14e;" horiz-adv-x="789" 
d="M126 642q35 59 97.5 94t171.5 35q96 0 154.5 -26.5t98.5 -82.5q18 -25 31 -58.5t20.5 -71t11 -77.5t3.5 -79q0 -38 -3.5 -77t-11 -76t-19.5 -70t-30 -58q-42 -60 -101.5 -86t-153.5 -26q-55 0 -96.5 7t-72.5 21.5t-54 35.5t-40 49q-30 48 -43.5 123t-13.5 157
q0 36 2.5 73t8.5 72t16 66t24 55zM173 376q0 -29 1.5 -60.5t6 -61.5t12 -56.5t18.5 -45.5q29 -48 76.5 -62t107.5 -14q53 0 94.5 12.5t72.5 50.5q32 40 43 105t11 132q0 63 -9 123t-34 100q-28 45 -73 62t-105 17t-108.5 -17.5t-77.5 -68.5q-21 -37 -28.5 -96.5t-7.5 -119.5
zM310 950q4 -14 9.5 -28.5t14.5 -25.5q19 -26 60 -26q23 0 37.5 7.5t23.5 18.5t15 26.5t9 27.5h84q-8 -29 -20.5 -58.5t-33.5 -48.5q-20 -20 -48 -30.5t-67 -10.5q-75 0 -115 40q-19 19 -32 48.5t-21 59.5h84z" />
    <glyph glyph-name="obreve" unicode="&#x14f;" 
d="M89 438q26 50 73 78.5t133 28.5q69 0 115 -19.5t76 -61.5q29 -39 38.5 -92t9.5 -108q0 -57 -10 -105.5t-29 -79.5q-27 -45 -74 -70.5t-126 -25.5q-78 0 -122 21.5t-73 63.5q-21 31 -32.5 83t-11.5 110q0 50 8 97.5t25 79.5zM151 262q0 -41 6 -76t20 -59q18 -32 47 -43.5
t71 -11.5q40 0 69 12t46 40q15 25 22 61.5t7 81.5q0 41 -5.5 74t-21.5 60q-18 31 -46.5 43t-70.5 12q-45 0 -74.5 -14t-46.5 -48q-13 -26 -18 -59.5t-5 -72.5zM211 754q4 -14 9.5 -28.5t14.5 -25.5q19 -26 60 -26q23 0 37.5 7.5t23.5 18.5t15 26.5t9 27.5h84
q-8 -29 -20.5 -58.5t-33.5 -48.5q-20 -20 -48 -30.5t-67 -10.5q-75 0 -115 40q-19 19 -32 48.5t-21 59.5h84z" />
    <glyph glyph-name="Ohungarumlaut" unicode="&#x150;" horiz-adv-x="789" 
d="M126 642q35 59 97.5 94t171.5 35q96 0 154.5 -26.5t98.5 -82.5q18 -25 31 -58.5t20.5 -71t11 -77.5t3.5 -79q0 -38 -3.5 -77t-11 -76t-19.5 -70t-30 -58q-42 -60 -101.5 -86t-153.5 -26q-55 0 -96.5 7t-72.5 21.5t-54 35.5t-40 49q-30 48 -43.5 123t-13.5 157
q0 36 2.5 73t8.5 72t16 66t24 55zM173 376q0 -29 1.5 -60.5t6 -61.5t12 -56.5t18.5 -45.5q29 -48 76.5 -62t107.5 -14q53 0 94.5 12.5t72.5 50.5q32 40 43 105t11 132q0 63 -9 123t-34 100q-28 45 -73 62t-105 17t-108.5 -17.5t-77.5 -68.5q-21 -37 -28.5 -96.5t-7.5 -119.5
zM510 950h96l-99 -144h-92zM248 806l95 144h96l-99 -144h-92z" />
    <glyph glyph-name="ohungarumlaut" unicode="&#x151;" 
d="M89 438q26 50 73 78.5t133 28.5q69 0 115 -19.5t76 -61.5q29 -39 38.5 -92t9.5 -108q0 -57 -10 -105.5t-29 -79.5q-27 -45 -74 -70.5t-126 -25.5q-78 0 -122 21.5t-73 63.5q-21 31 -32.5 83t-11.5 110q0 50 8 97.5t25 79.5zM151 262q0 -41 6 -76t20 -59q18 -32 47 -43.5
t71 -11.5q40 0 69 12t46 40q15 25 22 61.5t7 81.5q0 41 -5.5 74t-21.5 60q-18 31 -46.5 43t-70.5 12q-45 0 -74.5 -14t-46.5 -48q-13 -26 -18 -59.5t-5 -72.5zM409 754h96l-99 -144h-92zM147 610l95 144h96l-99 -144h-92z" />
    <glyph glyph-name="OE" unicode="&#x152;" horiz-adv-x="1149" 
d="M75 376q0 36 2.5 72.5t8.5 71.5t15.5 66t23.5 55q17 30 41 54t56.5 41t75 26t97.5 9q51 0 86.5 -5t61.5 -12h551v-93h-443q4 -5 8 -12t9 -17q9 -20 16 -45t11.5 -52t7 -54t2.5 -50h367v-93h-367q0 -24 -2 -52.5t-6 -57t-10.5 -55t-15.5 -46.5t-20 -34h460v-93h-572
q-28 -8 -63.5 -12.5t-80.5 -4.5q-55 0 -96.5 7.5t-72.5 21.5t-54 35.5t-40 48.5q-31 49 -44 123.5t-13 156.5zM173 376q0 -29 2 -60.5t6.5 -61.5t11.5 -56t18 -45q28 -48 76 -62.5t108 -14.5q57 0 100.5 11t71.5 52q27 39 34.5 99t7.5 138q0 68 -5.5 125.5t-26.5 97.5
q-25 47 -67.5 63t-114.5 16q-60 0 -109 -18t-78 -69q-20 -37 -27.5 -96t-7.5 -119z" />
    <glyph glyph-name="oe" unicode="&#x153;" horiz-adv-x="945" 
d="M89 438q26 50 73 78.5t133 28.5q64 0 111.5 -20t75.5 -69q24 41 66.5 65t120.5 24q77 0 122 -23t70 -61q22 -33 26.5 -69.5t4.5 -63.5q0 -20 -2.5 -51t-7.5 -55h-355q0 -23 4 -49t17 -48q19 -32 52 -44t88 -12q43 0 93 7.5t84 13.5v-87q-33 -6 -84.5 -13t-98.5 -7
q-46 0 -79 6t-56.5 17t-39 27.5t-26.5 37.5q-26 -44 -71 -66t-115 -22q-77 0 -121.5 21.5t-73.5 63.5q-21 31 -32.5 83.5t-11.5 109.5q0 50 8 97.5t25 79.5zM151 263q0 -42 6 -77t20 -59q18 -32 47 -43.5t71 -11.5q80 0 115 53q16 24 22.5 60.5t6.5 81.5q0 41 -5.5 74
t-21.5 60q-18 31 -46.5 43t-70.5 12q-45 0 -74.5 -14t-46.5 -48q-13 -26 -18 -59.5t-5 -71.5zM527 297h270q1 5 2 17t1 25q0 18 -3 37.5t-13 36.5q-31 51 -115 51q-87 0 -120 -59q-12 -22 -17 -54t-5 -54z" />
    <glyph glyph-name="Racute" unicode="&#x154;" horiz-adv-x="704" 
d="M90 0v754h287q74 0 121 -9.5t82 -36.5q34 -26 51 -67.5t17 -90.5q0 -51 -18.5 -88t-48.5 -70q-20 -23 -43 -46.5t-39 -39.5l187 -306h-114l-177 291h-209v-291h-96zM186 661v-277h262q15 16 29 31t26 29q20 23 33.5 48.5t13.5 57.5q0 30 -10 52.5t-34 37.5
q-20 13 -51.5 17t-85.5 4h-183zM252 806l128 144h111l-131 -144h-108z" />
    <glyph glyph-name="racute" unicode="&#x155;" horiz-adv-x="365" 
d="M76 528h94v-64q17 13 33 23.5t36 19.5q48 22 118 33v-95q-29 -5 -54 -13t-50 -18q-24 -10 -45 -22t-38 -24v-368h-94v528zM73 610l128 144h111l-131 -144h-108z" />
    <glyph glyph-name="uni0156" unicode="&#x156;" horiz-adv-x="704" 
d="M90 0v754h287q74 0 121 -9.5t82 -36.5q34 -26 51 -67.5t17 -90.5q0 -51 -18.5 -88t-48.5 -70q-20 -23 -43 -46.5t-39 -39.5l187 -306h-114l-177 291h-209v-291h-96zM186 661v-277h262q15 16 29 31t26 29q20 23 33.5 48.5t13.5 57.5q0 30 -10 52.5t-34 37.5
q-20 13 -51.5 17t-85.5 4h-183zM283 -280q10 43 13 78t3 83v63h85v-59q0 -51 -8.5 -90t-23.5 -75h-69z" />
    <glyph glyph-name="uni0157" unicode="&#x157;" horiz-adv-x="365" 
d="M76 528h94v-64q17 13 33 23.5t36 19.5q48 22 118 33v-95q-29 -5 -54 -13t-50 -18q-24 -10 -45 -22t-38 -24v-368h-94v528zM66 -280q10 43 13 78t3 83v63h85v-59q0 -51 -8.5 -90t-23.5 -75h-69z" />
    <glyph glyph-name="Rcaron" unicode="&#x158;" horiz-adv-x="704" 
d="M90 0v754h287q74 0 121 -9.5t82 -36.5q34 -26 51 -67.5t17 -90.5q0 -51 -18.5 -88t-48.5 -70q-20 -23 -43 -46.5t-39 -39.5l187 -306h-114l-177 291h-209v-291h-96zM186 661v-277h262q15 16 29 31t26 29q20 23 33.5 48.5t13.5 57.5q0 30 -10 52.5t-34 37.5
q-20 13 -51.5 17t-85.5 4h-183zM147 950h105l84 -88l84 88h104l-135 -144h-108z" />
    <glyph glyph-name="rcaron" unicode="&#x159;" horiz-adv-x="365" 
d="M76 528h94v-64q17 13 33 23.5t36 19.5q48 22 118 33v-95q-29 -5 -54 -13t-50 -18q-24 -10 -45 -22t-38 -24v-368h-94v528zM-1 754h105l84 -88l84 88h104l-135 -144h-108z" />
    <glyph glyph-name="Sacute" unicode="&#x15a;" horiz-adv-x="644" 
d="M52 562q0 47 15 86.5t50 71.5q33 30 79 40.5t112 10.5q63 0 133 -14.5t130 -28.5v-96q-26 6 -60 14t-70 15t-70 12t-61 5q-45 0 -74 -5.5t-50 -22.5q-20 -17 -28 -38t-8 -46t5 -42.5t19 -30.5q14 -12 37 -21.5t56 -20.5l150 -50q49 -17 79 -31.5t51 -37.5q45 -48 45 -133
q0 -48 -16 -87.5t-49 -68.5q-37 -32 -87 -46t-125 -14q-32 0 -66.5 3.5t-68.5 9t-65.5 12t-56.5 11.5v95q28 -6 61.5 -12.5t68.5 -12.5t69 -9.5t62 -3.5q49 0 79 6.5t53 23.5q43 33 43 90q0 23 -4.5 40.5t-18.5 31.5t-39.5 24t-63.5 23l-151 51q-41 14 -67.5 27t-48.5 33
q-49 46 -49 136zM225 806l128 144h111l-131 -144h-108z" />
    <glyph glyph-name="sacute" unicode="&#x15b;" horiz-adv-x="515" 
d="M51 391q0 34 11 63.5t38 51.5t62.5 30.5t89.5 8.5q23 0 51 -3.5t54.5 -8.5t49.5 -10t36 -9v-90q-15 4 -38.5 9.5t-50 11t-53 9t-47.5 3.5q-34 0 -53 -3.5t-31 -12.5q-14 -10 -19 -22t-5 -28q0 -15 4.5 -26.5t16.5 -19.5q11 -7 26 -12t38 -12l96 -29q39 -12 61.5 -22.5
t39.5 -27.5t26.5 -44t9.5 -56q0 -36 -12.5 -66t-40.5 -52q-29 -22 -67.5 -31.5t-96.5 -9.5q-25 0 -52.5 3t-53 6.5t-47.5 8t-37 7.5v90q36 -8 91 -17.5t105 -9.5q28 0 49 2.5t38 13.5q29 19 29 54q0 27 -17 43q-11 9 -29.5 15.5t-44.5 14.5l-93 28q-36 11 -58.5 21.5
t-38.5 25.5q-18 17 -27.5 43.5t-9.5 58.5zM164 610l128 144h111l-131 -144h-108z" />
    <glyph glyph-name="Scircumflex" unicode="&#x15c;" horiz-adv-x="644" 
d="M52 562q0 47 15 86.5t50 71.5q33 30 79 40.5t112 10.5q63 0 133 -14.5t130 -28.5v-96q-26 6 -60 14t-70 15t-70 12t-61 5q-45 0 -74 -5.5t-50 -22.5q-20 -17 -28 -38t-8 -46t5 -42.5t19 -30.5q14 -12 37 -21.5t56 -20.5l150 -50q49 -17 79 -31.5t51 -37.5q45 -48 45 -133
q0 -48 -16 -87.5t-49 -68.5q-37 -32 -87 -46t-125 -14q-32 0 -66.5 3.5t-68.5 9t-65.5 12t-56.5 11.5v95q28 -6 61.5 -12.5t68.5 -12.5t69 -9.5t62 -3.5q49 0 79 6.5t53 23.5q43 33 43 90q0 23 -4.5 40.5t-18.5 31.5t-39.5 24t-63.5 23l-151 51q-41 14 -67.5 27t-48.5 33
q-49 46 -49 136zM267 950h108l135 -144h-105l-84 88l-84 -88h-104z" />
    <glyph glyph-name="scircumflex" unicode="&#x15d;" horiz-adv-x="515" 
d="M51 391q0 34 11 63.5t38 51.5t62.5 30.5t89.5 8.5q23 0 51 -3.5t54.5 -8.5t49.5 -10t36 -9v-90q-15 4 -38.5 9.5t-50 11t-53 9t-47.5 3.5q-34 0 -53 -3.5t-31 -12.5q-14 -10 -19 -22t-5 -28q0 -15 4.5 -26.5t16.5 -19.5q11 -7 26 -12t38 -12l96 -29q39 -12 61.5 -22.5
t39.5 -27.5t26.5 -44t9.5 -56q0 -36 -12.5 -66t-40.5 -52q-29 -22 -67.5 -31.5t-96.5 -9.5q-25 0 -52.5 3t-53 6.5t-47.5 8t-37 7.5v90q36 -8 91 -17.5t105 -9.5q28 0 49 2.5t38 13.5q29 19 29 54q0 27 -17 43q-11 9 -29.5 15.5t-44.5 14.5l-93 28q-36 11 -58.5 21.5
t-38.5 25.5q-18 17 -27.5 43.5t-9.5 58.5zM203 754h108l135 -144h-105l-84 88l-84 -88h-104z" />
    <glyph glyph-name="Scedilla" unicode="&#x15e;" horiz-adv-x="644" 
d="M52 562q0 47 15 86.5t50 71.5q33 30 79 40.5t112 10.5q63 0 133 -14.5t130 -28.5v-96q-26 6 -60 14t-70 15t-70 12t-61 5q-45 0 -74 -5.5t-50 -22.5q-20 -17 -28 -38t-8 -46t5 -42.5t19 -30.5q14 -12 37 -21.5t56 -20.5l150 -50q49 -17 79 -31.5t51 -37.5q45 -48 45 -133
q0 -48 -16 -87.5t-49 -68.5q-37 -32 -87 -46t-125 -14q-32 0 -66.5 3.5t-68.5 9t-65.5 12t-56.5 11.5v95q28 -6 61.5 -12.5t68.5 -12.5t69 -9.5t62 -3.5q49 0 79 6.5t53 23.5q43 33 43 90q0 23 -4.5 40.5t-18.5 31.5t-39.5 24t-63.5 23l-151 51q-41 14 -67.5 27t-48.5 33
q-49 46 -49 136zM203 -197l86 137h101l-85 -137h-102z" />
    <glyph glyph-name="scedilla" unicode="&#x15f;" horiz-adv-x="515" 
d="M51 391q0 34 11 63.5t38 51.5t62.5 30.5t89.5 8.5q23 0 51 -3.5t54.5 -8.5t49.5 -10t36 -9v-90q-15 4 -38.5 9.5t-50 11t-53 9t-47.5 3.5q-34 0 -53 -3.5t-31 -12.5q-14 -10 -19 -22t-5 -28q0 -15 4.5 -26.5t16.5 -19.5q11 -7 26 -12t38 -12l96 -29q39 -12 61.5 -22.5
t39.5 -27.5t26.5 -44t9.5 -56q0 -36 -12.5 -66t-40.5 -52q-29 -22 -67.5 -31.5t-96.5 -9.5q-25 0 -52.5 3t-53 6.5t-47.5 8t-37 7.5v90q36 -8 91 -17.5t105 -9.5q28 0 49 2.5t38 13.5q29 19 29 54q0 27 -17 43q-11 9 -29.5 15.5t-44.5 14.5l-93 28q-36 11 -58.5 21.5
t-38.5 25.5q-18 17 -27.5 43.5t-9.5 58.5zM139 -197l86 137h101l-85 -137h-102z" />
    <glyph glyph-name="Scaron" unicode="&#x160;" horiz-adv-x="644" 
d="M52 562q0 47 15 86.5t50 71.5q33 30 79 40.5t112 10.5q63 0 133 -14.5t130 -28.5v-96q-26 6 -60 14t-70 15t-70 12t-61 5q-45 0 -74 -5.5t-50 -22.5q-20 -17 -28 -38t-8 -46t5 -42.5t19 -30.5q14 -12 37 -21.5t56 -20.5l150 -50q49 -17 79 -31.5t51 -37.5q45 -48 45 -133
q0 -48 -16 -87.5t-49 -68.5q-37 -32 -87 -46t-125 -14q-32 0 -66.5 3.5t-68.5 9t-65.5 12t-56.5 11.5v95q28 -6 61.5 -12.5t68.5 -12.5t69 -9.5t62 -3.5q49 0 79 6.5t53 23.5q43 33 43 90q0 23 -4.5 40.5t-18.5 31.5t-39.5 24t-63.5 23l-151 51q-41 14 -67.5 27t-48.5 33
q-49 46 -49 136zM133 950h105l84 -88l84 88h104l-135 -144h-108z" />
    <glyph glyph-name="scaron" unicode="&#x161;" horiz-adv-x="515" 
d="M51 391q0 34 11 63.5t38 51.5t62.5 30.5t89.5 8.5q23 0 51 -3.5t54.5 -8.5t49.5 -10t36 -9v-90q-15 4 -38.5 9.5t-50 11t-53 9t-47.5 3.5q-34 0 -53 -3.5t-31 -12.5q-14 -10 -19 -22t-5 -28q0 -15 4.5 -26.5t16.5 -19.5q11 -7 26 -12t38 -12l96 -29q39 -12 61.5 -22.5
t39.5 -27.5t26.5 -44t9.5 -56q0 -36 -12.5 -66t-40.5 -52q-29 -22 -67.5 -31.5t-96.5 -9.5q-25 0 -52.5 3t-53 6.5t-47.5 8t-37 7.5v90q36 -8 91 -17.5t105 -9.5q28 0 49 2.5t38 13.5q29 19 29 54q0 27 -17 43q-11 9 -29.5 15.5t-44.5 14.5l-93 28q-36 11 -58.5 21.5
t-38.5 25.5q-18 17 -27.5 43.5t-9.5 58.5zM65 754h105l84 -88l84 88h104l-135 -144h-108z" />
    <glyph glyph-name="uni0162" unicode="&#x162;" horiz-adv-x="668" 
d="M19 754h630v-93h-267v-661h-96v661h-267v93zM216 -197l86 137h101l-85 -137h-102z" />
    <glyph glyph-name="uni0163" unicode="&#x163;" horiz-adv-x="345" 
d="M75 664h94v-143h162v-89h-162v-219q0 -26 0.5 -43.5t2.5 -34.5q2 -15 10 -25t26 -16q19 -6 44.5 -8t53.5 -4v-89q-45 2 -85 6.5t-69 13.5q-28 9 -43 23t-23 35q-8 23 -9.5 53t-1.5 87v453zM60 -197l86 137h101l-85 -137h-102z" />
    <glyph glyph-name="Tcaron" unicode="&#x164;" horiz-adv-x="668" 
d="M19 754h630v-93h-267v-661h-96v661h-267v93zM148 950h105l84 -88l84 88h104l-135 -144h-108z" />
    <glyph glyph-name="tcaron" unicode="&#x165;" horiz-adv-x="345" 
d="M169 664v-143h162v-89h-162v-219q0 -26 0.5 -43.5t2.5 -34.5q2 -15 10 -25t26 -16q19 -6 44.5 -8t53.5 -4v-89q-45 2 -85 6.5t-69 13.5q-28 9 -43 23t-23 35q-8 23 -9.5 53t-1.5 87v453h94zM309 754v-62q0 -29 -4.5 -57.5t-12.5 -64.5h-67v184h84z" />
    <glyph glyph-name="Tbar" unicode="&#x166;" horiz-adv-x="668" 
d="M649 754v-92h-267v-233h140v-91h-140v-338h-96v338h-140v91h140v233h-267v92h630z" />
    <glyph glyph-name="tbar" unicode="&#x167;" horiz-adv-x="362" 
d="M169 664v-143h162v-87h-162v-74h161v-87h-161v-60q0 -26 0.5 -43.5t2.5 -34.5q2 -15 10 -25t26 -16q19 -6 44.5 -8t53.5 -4v-89q-45 2 -85 6.5t-69 13.5q-28 9 -43 23t-23 35q-8 23 -9.5 53t-1.5 87v453h94z" />
    <glyph glyph-name="Utilde" unicode="&#x168;" horiz-adv-x="739" 
d="M184 754v-467q0 -66 8 -107t37 -68q24 -23 59.5 -29.5t81.5 -6.5q45 0 79.5 7.5t59.5 28.5q30 26 38 67.5t8 107.5v467h96v-467q0 -86 -12.5 -144.5t-58.5 -98.5q-38 -34 -88.5 -47.5t-121.5 -13.5q-73 0 -124.5 12.5t-89.5 50.5q-42 40 -55 99t-13 142v467h96zM169 813
q14 36 26.5 61t27 40.5t32.5 22t42 6.5q23 0 44 -8t50 -28q23 -16 35.5 -22.5t27.5 -6.5q19 0 29 12.5t22 38.5h77q-11 -26 -22.5 -48.5t-26 -39t-33.5 -26t-45 -9.5q-23 0 -44.5 7t-45.5 24q-23 17 -38 25.5t-29 8.5q-21 0 -31 -15t-22 -43h-76z" />
    <glyph glyph-name="utilde" unicode="&#x169;" horiz-adv-x="583" 
d="M75 207v321h94v-319q0 -33 2.5 -62.5t16.5 -46.5q12 -16 31 -22t50 -6q45 0 81 7t63 15v434h94v-503q-54 -15 -114.5 -28.5t-131.5 -13.5q-54 0 -88.5 13.5t-57.5 39.5t-31.5 68t-8.5 103zM91 619q14 36 26.5 61t27 40.5t32.5 22t42 6.5q23 0 44 -8t50 -28
q23 -16 35.5 -22.5t27.5 -6.5q19 0 29 12.5t22 38.5h77q-11 -26 -22.5 -48.5t-26 -39t-33.5 -26t-45 -9.5q-23 0 -44.5 7t-45.5 24q-23 17 -38 25.5t-29 8.5q-21 0 -31 -15t-22 -43h-76z" />
    <glyph glyph-name="Umacron" unicode="&#x16a;" horiz-adv-x="739" 
d="M184 754v-467q0 -66 8 -107t37 -68q24 -23 59.5 -29.5t81.5 -6.5q45 0 79.5 7.5t59.5 28.5q30 26 38 67.5t8 107.5v467h96v-467q0 -86 -12.5 -144.5t-58.5 -98.5q-38 -34 -88.5 -47.5t-121.5 -13.5q-73 0 -124.5 12.5t-89.5 50.5q-42 40 -55 99t-13 142v467h96zM201 832
v73h337v-73h-337z" />
    <glyph glyph-name="umacron" unicode="&#x16b;" horiz-adv-x="583" 
d="M75 207v321h94v-319q0 -33 2.5 -62.5t16.5 -46.5q12 -16 31 -22t50 -6q45 0 81 7t63 15v434h94v-503q-54 -15 -114.5 -28.5t-131.5 -13.5q-54 0 -88.5 13.5t-57.5 39.5t-31.5 68t-8.5 103zM122 637v73h337v-73h-337z" />
    <glyph glyph-name="Ubreve" unicode="&#x16c;" horiz-adv-x="739" 
d="M184 754v-467q0 -66 8 -107t37 -68q24 -23 59.5 -29.5t81.5 -6.5q45 0 79.5 7.5t59.5 28.5q30 26 38 67.5t8 107.5v467h96v-467q0 -86 -12.5 -144.5t-58.5 -98.5q-38 -34 -88.5 -47.5t-121.5 -13.5q-73 0 -124.5 12.5t-89.5 50.5q-42 40 -55 99t-13 142v467h96zM286 950
q4 -14 9.5 -28.5t14.5 -25.5q19 -26 60 -26q23 0 37.5 7.5t23.5 18.5t15 26.5t9 27.5h84q-8 -29 -20.5 -58.5t-33.5 -48.5q-20 -20 -48 -30.5t-67 -10.5q-75 0 -115 40q-19 19 -32 48.5t-21 59.5h84z" />
    <glyph glyph-name="ubreve" unicode="&#x16d;" horiz-adv-x="583" 
d="M75 207v321h94v-319q0 -33 2.5 -62.5t16.5 -46.5q12 -16 31 -22t50 -6q45 0 81 7t63 15v434h94v-503q-54 -15 -114.5 -28.5t-131.5 -13.5q-54 0 -88.5 13.5t-57.5 39.5t-31.5 68t-8.5 103zM207 754q4 -14 9.5 -28.5t14.5 -25.5q19 -26 60 -26q23 0 37.5 7.5t23.5 18.5
t15 26.5t9 27.5h84q-8 -29 -20.5 -58.5t-33.5 -48.5q-20 -20 -48 -30.5t-67 -10.5q-75 0 -115 40q-19 19 -32 48.5t-21 59.5h84z" />
    <glyph glyph-name="Uring" unicode="&#x16e;" horiz-adv-x="739" 
d="M184 754v-467q0 -66 8 -107t37 -68q24 -23 59.5 -29.5t81.5 -6.5q45 0 79.5 7.5t59.5 28.5q30 26 38 67.5t8 107.5v467h96v-467q0 -86 -12.5 -144.5t-58.5 -98.5q-38 -34 -88.5 -47.5t-121.5 -13.5q-73 0 -124.5 12.5t-89.5 50.5q-42 40 -55 99t-13 142v467h96zM271 968
q16 17 40.5 26.5t56.5 9.5t57 -9.5t41 -26.5q17 -18 23.5 -39t6.5 -45q0 -51 -31 -82q-16 -17 -40.5 -26.5t-56.5 -9.5t-56 9.5t-41 26.5q-31 31 -31 82q0 24 7 45t24 39zM306 884q0 -23 13 -38q17 -19 49 -19q17 0 29 5t20 13t11 18t3 21t-3 22t-12 20q-8 8 -19.5 12.5
t-28.5 4.5q-30 0 -48 -18q-8 -8 -11 -19t-3 -22z" />
    <glyph glyph-name="uring" unicode="&#x16f;" horiz-adv-x="583" 
d="M75 207v321h94v-319q0 -33 2.5 -62.5t16.5 -46.5q12 -16 31 -22t50 -6q45 0 81 7t63 15v434h94v-503q-54 -15 -114.5 -28.5t-131.5 -13.5q-54 0 -88.5 13.5t-57.5 39.5t-31.5 68t-8.5 103zM196 784q16 17 40.5 26.5t56.5 9.5t57 -9.5t41 -26.5q17 -18 23.5 -39t6.5 -45
q0 -51 -31 -82q-16 -17 -40.5 -26.5t-56.5 -9.5t-56 9.5t-41 26.5q-31 31 -31 82q0 24 7 45t24 39zM231 700q0 -23 13 -38q17 -19 49 -19q17 0 29 5t20 13t11 18t3 21t-3 22t-12 20q-8 8 -19.5 12.5t-28.5 4.5q-30 0 -48 -18q-8 -8 -11 -19t-3 -22z" />
    <glyph glyph-name="Uhungarumlaut" unicode="&#x170;" horiz-adv-x="739" 
d="M184 754v-467q0 -66 8 -107t37 -68q24 -23 59.5 -29.5t81.5 -6.5q45 0 79.5 7.5t59.5 28.5q30 26 38 67.5t8 107.5v467h96v-467q0 -86 -12.5 -144.5t-58.5 -98.5q-38 -34 -88.5 -47.5t-121.5 -13.5q-73 0 -124.5 12.5t-89.5 50.5q-42 40 -55 99t-13 142v467h96zM479 950
h96l-99 -144h-92zM217 806l95 144h96l-99 -144h-92z" />
    <glyph glyph-name="uhungarumlaut" unicode="&#x171;" horiz-adv-x="583" 
d="M75 207v321h94v-319q0 -33 2.5 -62.5t16.5 -46.5q12 -16 31 -22t50 -6q45 0 81 7t63 15v434h94v-503q-54 -15 -114.5 -28.5t-131.5 -13.5q-54 0 -88.5 13.5t-57.5 39.5t-31.5 68t-8.5 103zM406 754h96l-99 -144h-92zM144 610l95 144h96l-99 -144h-92z" />
    <glyph glyph-name="Uogonek" unicode="&#x172;" horiz-adv-x="739" 
d="M88 754h96v-467q0 -66 8 -107t37 -68q24 -23 59.5 -29.5t81.5 -6.5q45 0 79.5 7.5t59.5 28.5q30 26 38 67.5t8 107.5v467h96v-467q0 -73 -11 -134t-52 -102q-14 -14 -33 -26t-37 -21q-17 -8 -42.5 -28.5t-40.5 -36.5q-25 -26 -25 -47t28 -21q16 0 35.5 6.5t36.5 13.5v-74
q-19 -7 -43 -13t-49 -6q-30 0 -49 5.5t-32 16.5q-23 20 -23 60q0 37 30 68q19 20 41 36q-8 -1 -13 -1h-11q-58 0 -112.5 12.5t-92.5 50.5q-42 40 -55 99t-13 142v467z" />
    <glyph glyph-name="uogonek" unicode="&#x173;" horiz-adv-x="583" 
d="M75 528h94v-319q0 -33 2.5 -62.5t16.5 -46.5q12 -16 31 -22t50 -6q45 0 81 7t63 15v434h94v-503q-13 -13 -36 -39t-38 -45q-12 -15 -18.5 -26.5t-6.5 -22.5q0 -21 28 -21q16 0 35 6.5t36 13.5v-74q-19 -7 -42.5 -13t-48.5 -6q-30 0 -49 5.5t-32 16.5q-23 20 -23 60
q0 33 31 68q11 13 25.5 27t25.5 24q-32 -8 -65 -12t-68 -4q-54 0 -88.5 13.5t-57.5 39.5t-31.5 68t-8.5 103v321z" />
    <glyph glyph-name="Wcircumflex" unicode="&#x174;" horiz-adv-x="914" 
d="M24 754h98l133 -641l148 527h109l149 -527l132 641h97l-155 -754h-133l-145 514l-144 -514h-133zM402 950h108l135 -144h-105l-84 88l-84 -88h-104z" />
    <glyph glyph-name="wcircumflex" unicode="&#x175;" horiz-adv-x="813" 
d="M12 528h96l119 -431l125 431h111l125 -431l120 431h93l-148 -528h-126l-121 420l-121 -420h-126zM354 754h108l135 -144h-105l-84 88l-84 -88h-104z" />
    <glyph glyph-name="Ycircumflex" unicode="&#x176;" horiz-adv-x="628" 
d="M102 754l213 -362l213 362h111l-277 -467v-287h-96v287l-277 467h113zM262 950h108l135 -144h-105l-84 88l-84 -88h-104z" />
    <glyph glyph-name="ycircumflex" unicode="&#x177;" horiz-adv-x="537" 
d="M109 528l160 -403l160 403h102l-291 -720h-100l78 194l-212 526h103zM214 754h108l135 -144h-105l-84 88l-84 -88h-104z" />
    <glyph glyph-name="Ydieresis" unicode="&#x178;" horiz-adv-x="628" 
d="M102 754l213 -362l213 362h111l-277 -467v-287h-96v287l-277 467h113zM382 950h92v-141h-92v141zM155 809v141h92v-141h-92z" />
    <glyph glyph-name="Zacute" unicode="&#x179;" horiz-adv-x="653" 
d="M45 0v94l433 567h-418v93h541v-94l-433 -567h440v-93h-563zM241 806l128 144h111l-131 -144h-108z" />
    <glyph glyph-name="zacute" unicode="&#x17a;" horiz-adv-x="516" 
d="M35 0v82l308 357h-294v89h423v-82l-308 -357h319v-89h-448zM175 610l128 144h111l-131 -144h-108z" />
    <glyph glyph-name="Zdotaccent" unicode="&#x17b;" horiz-adv-x="653" 
d="M45 0v94l433 567h-418v93h541v-94l-433 -567h440v-93h-563zM277 809v141h97v-141h-97z" />
    <glyph glyph-name="zdotaccent" unicode="&#x17c;" horiz-adv-x="516" 
d="M35 0v82l308 357h-294v89h423v-82l-308 -357h319v-89h-448zM211 613v141h97v-141h-97z" />
    <glyph glyph-name="Zcaron" unicode="&#x17d;" horiz-adv-x="653" 
d="M45 0v94l433 567h-418v93h541v-94l-433 -567h440v-93h-563zM138 950h105l84 -88l84 88h104l-135 -144h-108z" />
    <glyph glyph-name="zcaron" unicode="&#x17e;" horiz-adv-x="516" 
d="M35 0v82l308 357h-294v89h423v-82l-308 -357h319v-89h-448zM72 754h105l84 -88l84 88h104l-135 -144h-108z" />
    <glyph glyph-name="uni018F" unicode="&#x18f;" horiz-adv-x="725" 
d="M73 269q0 42 2.5 77.5t6.5 64.5h469q0 54 -8 100.5t-25 79.5q-25 49 -67 68t-112 19q-63 0 -123 -12.5t-117 -26.5v95q57 15 119.5 26t128.5 11q52 0 91.5 -8.5t69.5 -24t52.5 -38t38.5 -51.5q30 -52 40.5 -121t10.5 -161q0 -161 -45 -248q-31 -60 -91 -98t-162 -38
q-77 0 -127.5 17.5t-86.5 55.5q-31 32 -48 84.5t-17 128.5zM208 125q23 -27 58.5 -38.5t86.5 -11.5q122 0 169 95q14 27 21.5 67.5t7.5 81.5h-377q-2 -10 -2.5 -23.5t-0.5 -36.5q0 -43 8.5 -77t28.5 -57z" />
    <glyph glyph-name="florin" unicode="&#x192;" horiz-adv-x="380" 
d="M-13 -211v95q8 3 20.5 8.5t26 12t26 13t20.5 12.5q14 10 21 21.5t12 26.5q5 17 6 42.5t1 48.5v451q0 23 1 51t8 56q5 23 17 43.5t32 35.5q35 26 82.5 41.5t97.5 26.5v-92q-31 -7 -65 -17.5t-54 -30.5q-13 -13 -16.5 -26t-5.5 -26q-2 -18 -2.5 -32.5t-0.5 -28.5h146v-89
h-146v-363q0 -38 -1.5 -73t-7.5 -55q-15 -50 -68 -84q-15 -10 -34.5 -20t-40 -19t-40.5 -16.5t-35 -12.5z" />
    <glyph glyph-name="uni019D" unicode="&#x19d;" horiz-adv-x="758" 
d="M-83 -215v97q22 8 54 19.5t58 28.5q20 12 32.5 25t20.5 33q8 21 9 53t1 64v649h119l362 -615v615h95v-754h-119l-362 615v-513q0 -51 -2 -89.5t-13 -69.5q-8 -22 -22 -39.5t-40 -34.5q-47 -30 -99 -50.5t-94 -33.5z" />
    <glyph glyph-name="Gcaron" unicode="&#x1e6;" horiz-adv-x="731" 
d="M75 370q0 88 12 159.5t42 122.5q17 27 38 49t50.5 37.5t68 24t90.5 8.5q32 0 63 -4.5t59 -9.5q34 -6 65 -13t54 -13v-96q-30 8 -65.5 16t-70.5 15q-25 5 -49.5 8.5t-48.5 3.5q-71 0 -111.5 -20t-64.5 -69q-18 -36 -26 -93t-8 -125q0 -69 7 -120t24 -86q22 -46 64 -67.5
t114 -21.5q43 0 89.5 4.5t75.5 8.5v314h96v-395q-58 -9 -130 -17t-141 -8q-56 0 -96 9.5t-69.5 27t-49.5 41t-36 51.5q-24 43 -35 108t-11 150zM181 950h105l84 -88l84 88h104l-135 -144h-108z" />
    <glyph glyph-name="gcaron" unicode="&#x1e7;" horiz-adv-x="591" 
d="M57 267q0 60 9 108t29 83q28 49 73 68t115 19q27 0 57 -5t60.5 -13t60 -17.5t54.5 -18.5v-443q0 -66 -15 -111t-45 -77t-82 -50.5t-123 -18.5q-48 0 -93 4.5t-80 9.5v88q14 -2 33.5 -4.5t43 -5t48 -4t48.5 -1.5q43 0 77.5 11.5t55.5 33.5t29.5 50.5t8.5 60.5v18
q-20 -10 -65 -28q-26 -11 -54 -17.5t-60 -6.5q-60 0 -93.5 22t-53.5 54q-19 32 -28.5 81t-9.5 110zM152 267q0 -85 20 -131q11 -26 31.5 -36.5t54.5 -10.5q23 0 45 5.5t44 14.5q23 9 40 17l34 16v285q-25 8 -64 18.5t-72 10.5q-43 0 -69.5 -12t-41.5 -43q-12 -24 -17 -58
t-5 -76zM104 754h105l84 -88l84 88h104l-135 -144h-108z" />
    <glyph glyph-name="uni01EA" unicode="&#x1ea;" horiz-adv-x="789" 
d="M75 376q0 36 2.5 73t8.5 72t16 66t24 55q35 59 97.5 94t171.5 35q96 0 154.5 -26.5t98.5 -82.5q18 -25 31 -58.5t20.5 -71t11 -77.5t3.5 -79q0 -38 -3.5 -77t-11 -76t-19.5 -70t-30 -58q-23 -33 -50.5 -53.5t-62.5 -36.5q-22 -10 -43.5 -29.5t-37.5 -35.5
q-25 -25 -25 -48q0 -21 28 -21q16 0 35.5 6.5t36.5 13.5v-74q-18 -7 -42.5 -13t-49.5 -6q-30 0 -49 5.5t-32 16.5q-23 20 -23 60q0 36 30 69q9 10 20.5 19t21.5 16q-8 -1 -12.5 -1h-9.5q-37 0 -73 4.5t-68.5 17t-60.5 34.5t-51 57q-31 48 -44 123t-13 157zM173 376
q0 -29 1.5 -60.5t6 -61.5t12 -56.5t18.5 -45.5q29 -48 76.5 -62t107.5 -14q53 0 94.5 12.5t72.5 50.5q32 40 43 105t11 132q0 63 -9 123t-34 100q-28 45 -73 62t-105 17t-108.5 -17.5t-77.5 -68.5q-21 -37 -28.5 -96.5t-7.5 -119.5z" />
    <glyph glyph-name="uni01EB" unicode="&#x1eb;" 
d="M56 261q0 50 8 97.5t25 79.5q26 50 73 78.5t133 28.5q69 0 115 -19.5t76 -61.5q29 -39 38.5 -92t9.5 -108q0 -57 -10 -105.5t-29 -79.5q-29 -46 -84 -75q-23 -12 -42.5 -30t-34.5 -35q-25 -26 -25 -47t28 -21q16 0 35.5 6.5t36.5 13.5v-74q-19 -7 -43 -13t-49 -6
q-30 0 -49 5.5t-32 16.5q-23 20 -23 60q0 37 30 68q9 10 20 19.5t19 15.5q-71 0 -112.5 22t-69.5 63q-21 31 -32.5 83t-11.5 110zM177 127q18 -32 47 -43.5t71 -11.5q40 0 69 12t46 40q15 25 22 61.5t7 81.5q0 41 -5.5 74t-21.5 60q-18 31 -46.5 43t-70.5 12
q-45 0 -74.5 -14t-46.5 -48q-13 -26 -18 -59.5t-5 -72.5q0 -41 6 -76t20 -59z" />
    <glyph glyph-name="Aringacute" unicode="&#x1fa;" horiz-adv-x="710" 
d="M276 712q-9 5 -16 12t-12 15q-21 31 -21 69q0 24 7 45t24 39q16 17 40.5 26.5t56.5 9.5t57 -9.5t41 -26.5q17 -18 23.5 -39t6.5 -45q0 -20 -5.5 -37.5t-14.5 -31.5q-5 -8 -13.5 -15t-16.5 -12l266 -712h-105l-65 175h-352l-65 -175h-101zM209 267h287l-143 389zM293 808
q0 -28 17.5 -42.5t44.5 -14.5q17 0 29 5t20 13t11 18t3 21t-3 22t-12 20q-8 8 -19.5 12.5t-28.5 4.5q-30 0 -48 -18q-8 -8 -11 -19t-3 -22zM289 962l90 100h110l-92 -100h-108z" />
    <glyph glyph-name="aringacute" unicode="&#x1fb;" 
d="M98 458q29 48 74.5 67.5t114.5 19.5q54 0 108.5 -16.5t118.5 -39.5v-489h-94v81q-12 -11 -26 -22.5t-31 -23.5q-33 -23 -62 -37.5t-67 -14.5q-56 0 -88.5 22t-53.5 59q-19 33 -27.5 85t-8.5 112q0 57 9.5 108.5t32.5 88.5zM151 261q0 -40 4 -77.5t14 -60.5q21 -50 78 -50
q24 0 49.5 13.5t49.5 32.5q20 15 39 31t35 30v246q-29 11 -62 20.5t-67 9.5q-42 0 -69.5 -12.5t-44.5 -42.5q-14 -26 -20 -60.5t-6 -79.5zM171 700q0 24 7 45t24 39q16 17 40.5 26.5t56.5 9.5t57 -9.5t41 -26.5q17 -18 23.5 -39t6.5 -45q0 -51 -31 -82q-16 -17 -40.5 -26.5
t-56.5 -9.5t-56 9.5t-41 26.5q-31 31 -31 82zM240 835l101 115h111l-104 -115h-108zM250 662q17 -19 49 -19q17 0 29 5t20 13t11 18t3 21t-3 22t-12 20q-8 8 -19.5 12.5t-28.5 4.5q-30 0 -48 -18q-8 -8 -11 -19t-3 -22q0 -23 13 -38z" />
    <glyph glyph-name="AEacute" unicode="&#x1fc;" horiz-adv-x="1123" 
d="M-2 0l506 754h565v-93h-414v-230h392v-93h-392v-246h430v-92h-526v174h-328l-116 -174h-117zM293 266h266v398zM552 806l128 144h111l-131 -144h-108z" />
    <glyph glyph-name="aeacute" unicode="&#x1fd;" horiz-adv-x="918" 
d="M52 138q0 44 14 79t46 54q26 15 63.5 20.5t91.5 5.5h143v55q0 25 -3 44t-14 32q-15 18 -40 25t-65 7q-24 0 -53.5 -3.5t-59 -9t-55.5 -11t-42 -9.5v87q19 5 46 10.5t56.5 10t59 7.5t53.5 3q63 0 108.5 -15t67.5 -53q23 30 63.5 49t109.5 19q76 0 121.5 -23t69.5 -61
q22 -34 27 -70t5 -63q0 -20 -2.5 -51t-7.5 -55h-355q0 -30 3 -51.5t16 -43.5q19 -32 52 -45t90 -13q48 0 96.5 7.5t80.5 13.5v-87q-34 -6 -85 -13t-98 -7q-78 0 -131.5 20.5t-82.5 75.5q-21 -16 -45 -32t-44 -27q-27 -16 -58 -26.5t-69 -10.5q-42 0 -73.5 7.5t-54.5 27.5
t-34 51t-11 69zM770 297q1 5 2 17t1 25q0 18 -4 37t-13 35q-15 26 -44 38.5t-70 12.5q-46 0 -74.5 -13t-46.5 -44q-13 -22 -17 -50t-4 -58h270zM166 82q12 -10 27 -13.5t38 -3.5q31 0 58.5 11t53.5 27q17 11 33.5 21.5t33.5 22.5v75h-130q-36 0 -63.5 -2.5t-46.5 -16.5
q-14 -11 -19 -26.5t-5 -35.5t4 -34t16 -25zM382 610l128 144h111l-131 -144h-108z" />
    <glyph glyph-name="Oslashacute" unicode="&#x1fe;" horiz-adv-x="789" 
d="M126 642q35 59 97.5 94t171.5 35q96 0 154.5 -27t98.5 -82q19 -25 31.5 -58.5t20 -71t11 -77.5t3.5 -79q0 -38 -3.5 -77t-11 -76t-19.5 -70t-30 -58q-42 -60 -101.5 -86t-153.5 -26q-55 0 -96.5 7t-72.5 21.5t-54 35.5t-40 49q-30 48 -43.5 123t-13.5 157q0 36 2.5 73
t8.5 72t16 66t24 55zM395 75q53 0 94.5 13t72.5 51q33 40 44 105t11 132q0 61 -9 119.5t-31 97.5l-315 -491q27 -17 61 -22t72 -5zM172 376q0 -29 1.5 -60t5.5 -60t11 -54t17 -42l314 490q-26 16 -57 22.5t-69 6.5q-60 0 -109.5 -18t-78.5 -69q-20 -36 -27.5 -96t-7.5 -120z
M308 806l128 144h111l-131 -144h-108z" />
    <glyph glyph-name="oslashacute" unicode="&#x1ff;" 
d="M89 438q26 50 73 78.5t133 28.5q69 0 115 -19.5t76 -61.5q29 -39 38.5 -92t9.5 -108q0 -57 -10 -105.5t-29 -79.5q-27 -45 -74 -70.5t-126 -25.5q-78 0 -122 21.5t-73 63.5q-21 31 -32.5 83t-11.5 110q0 50 8 97.5t25 79.5zM149 262q0 -37 5.5 -70t16.5 -56l205 305
q-31 17 -81 17q-46 0 -76 -14t-47 -48q-13 -25 -18 -59.5t-5 -74.5zM295 70q84 0 117 52q16 25 22.5 62.5t6.5 82.5q0 87 -20 127l-207 -308q17 -10 36.5 -13t44.5 -3zM203 610l128 144h111l-131 -144h-108z" />
    <glyph glyph-name="uni0218" unicode="&#x218;" horiz-adv-x="644" 
d="M52 562q0 47 15 86.5t50 71.5q33 30 79 40.5t112 10.5q63 0 133 -14.5t130 -28.5v-96q-26 6 -60 14t-70 15t-70 12t-61 5q-45 0 -74 -5.5t-50 -22.5q-20 -17 -28 -38t-8 -46t5 -42.5t19 -30.5q14 -12 37 -21.5t56 -20.5l150 -50q49 -17 79 -31.5t51 -37.5q45 -48 45 -133
q0 -48 -16 -87.5t-49 -68.5q-37 -32 -87 -46t-125 -14q-32 0 -66.5 3.5t-68.5 9t-65.5 12t-56.5 11.5v95q28 -6 61.5 -12.5t68.5 -12.5t69 -9.5t62 -3.5q49 0 79 6.5t53 23.5q43 33 43 90q0 23 -4.5 40.5t-18.5 31.5t-39.5 24t-63.5 23l-151 51q-41 14 -67.5 27t-48.5 33
q-49 46 -49 136zM264 -280q10 43 13 78t3 83v63h85v-59q0 -51 -8.5 -90t-23.5 -75h-69z" />
    <glyph glyph-name="uni0219" unicode="&#x219;" horiz-adv-x="515" 
d="M51 391q0 34 11 63.5t38 51.5t62.5 30.5t89.5 8.5q23 0 51 -3.5t54.5 -8.5t49.5 -10t36 -9v-90q-15 4 -38.5 9.5t-50 11t-53 9t-47.5 3.5q-34 0 -53 -3.5t-31 -12.5q-14 -10 -19 -22t-5 -28q0 -15 4.5 -26.5t16.5 -19.5q11 -7 26 -12t38 -12l96 -29q39 -12 61.5 -22.5
t39.5 -27.5t26.5 -44t9.5 -56q0 -36 -12.5 -66t-40.5 -52q-29 -22 -67.5 -31.5t-96.5 -9.5q-25 0 -52.5 3t-53 6.5t-47.5 8t-37 7.5v90q36 -8 91 -17.5t105 -9.5q28 0 49 2.5t38 13.5q29 19 29 54q0 27 -17 43q-11 9 -29.5 15.5t-44.5 14.5l-93 28q-36 11 -58.5 21.5
t-38.5 25.5q-18 17 -27.5 43.5t-9.5 58.5zM200 -280q10 43 13 78t3 83v63h85v-59q0 -51 -8.5 -90t-23.5 -75h-69z" />
    <glyph glyph-name="uni021A" unicode="&#x21a;" horiz-adv-x="668" 
d="M19 754h630v-93h-267v-661h-96v661h-267v93zM277 -280q10 43 13 78t3 83v63h85v-59q0 -51 -8.5 -90t-23.5 -75h-69z" />
    <glyph glyph-name="uni021B" unicode="&#x21b;" horiz-adv-x="345" 
d="M75 664h94v-143h162v-89h-162v-219q0 -26 0.5 -43.5t2.5 -34.5q2 -15 10 -25t26 -16q19 -6 44.5 -8t53.5 -4v-89q-45 2 -85 6.5t-69 13.5q-28 9 -43 23t-23 35q-8 23 -9.5 53t-1.5 87v453zM113 -280q10 43 13 78t3 83v63h85v-59q0 -51 -8.5 -90t-23.5 -75h-69z" />
    <glyph glyph-name="uni0232" unicode="&#x232;" horiz-adv-x="628" 
d="M102 754l213 -362l213 362h111l-277 -467v-287h-96v287l-277 467h113zM149 833v73h337v-73h-337z" />
    <glyph glyph-name="uni0233" unicode="&#x233;" horiz-adv-x="537" 
d="M109 528l160 -403l160 403h102l-291 -720h-100l78 194l-212 526h103zM100 637v73h337v-73h-337z" />
    <glyph glyph-name="uni0237" unicode="&#x237;" horiz-adv-x="258" 
d="M-46 -123q8 3 20.5 8.5t26 12.5t26 14t20.5 13q14 11 21 22t12 26q5 17 6 42.5t1 48.5v464h95v-475q0 -26 -1 -59.5t-7 -53.5q-16 -50 -68 -85q-31 -21 -75.5 -39t-76.5 -28v89z" />
    <glyph glyph-name="uni0259" unicode="&#x259;" horiz-adv-x="567" 
d="M63 306h355q0 23 -4 48t-17 47q-19 32 -52 45t-88 13q-48 0 -96.5 -7.5t-80.5 -13.5v87q32 6 82 13t101 7q44 0 77 -5.5t57.5 -17t42 -27.5t31.5 -37q23 -35 31.5 -79t8.5 -112q0 -49 -6.5 -98t-30.5 -92t-71.5 -68.5t-126.5 -25.5q-77 0 -122 23t-70 61
q-22 33 -26.5 69.5t-4.5 63.5q0 20 2.5 51t7.5 55zM145 189q0 -18 3 -37t13 -35q31 -51 115 -51q45 0 74 13t46 44q12 22 17 54t5 54h-270q-1 -5 -2 -17t-1 -25z" />
    <glyph glyph-name="uni0272" unicode="&#x272;" 
d="M-57 -211v94q9 3 22 8.5t26.5 11.5t25.5 13t20 13q14 11 21.5 20.5t11.5 25.5q6 27 6 62v491h94v-35q21 9 44.5 18t47.5 16.5t47 12.5t43 5q42 0 71.5 -10t52.5 -36t31 -65t8 -101v-333h-94v330q0 32 -2.5 57t-15.5 42q-11 15 -28.5 20t-40.5 5q-19 0 -40.5 -5
t-43.5 -12.5t-42.5 -16t-37.5 -16.5v-342q0 -34 -1.5 -67.5t-8.5 -53.5q-8 -26 -23 -46t-42 -38q-31 -21 -75.5 -39t-76.5 -29z" />
    <glyph glyph-name="circumflex" unicode="&#x2c6;" horiz-adv-x="439" 
d="M165 754h108l135 -144h-105l-84 88l-84 -88h-104z" />
    <glyph glyph-name="caron" unicode="&#x2c7;" horiz-adv-x="439" 
d="M31 754h105l84 -88l84 88h104l-135 -144h-108z" />
    <glyph glyph-name="breve" unicode="&#x2d8;" horiz-adv-x="439" 
d="M135 754q4 -14 9.5 -28.5t14.5 -25.5q19 -26 60 -26q23 0 37.5 7.5t23.5 18.5t15 26.5t9 27.5h84q-8 -29 -20.5 -58.5t-33.5 -48.5q-20 -20 -48 -30.5t-67 -10.5q-75 0 -115 40q-19 19 -32 48.5t-21 59.5h84z" />
    <glyph glyph-name="dotaccent" unicode="&#x2d9;" horiz-adv-x="439" 
d="M171 613v141h97v-141h-97z" />
    <glyph glyph-name="ring" unicode="&#x2da;" horiz-adv-x="439" 
d="M124 784q16 17 40.5 26.5t56.5 9.5t57 -9.5t41 -26.5q17 -18 23.5 -39t6.5 -45q0 -51 -31 -82q-16 -17 -40.5 -26.5t-56.5 -9.5t-56 9.5t-41 26.5q-31 31 -31 82q0 24 7 45t24 39zM159 700q0 -23 13 -38q17 -19 49 -19q17 0 29 5t20 13t11 18t3 21t-3 22t-12 20
q-8 8 -19.5 12.5t-28.5 4.5q-30 0 -48 -18q-8 -8 -11 -19t-3 -22z" />
    <glyph glyph-name="ogonek" unicode="&#x2db;" horiz-adv-x="439" 
d="M273 -51q15 15 32.5 28t31.5 23h102q-16 -12 -37 -28t-38 -33q-25 -25 -25 -47q0 -21 28 -21q16 0 35.5 6.5t36.5 13.5v-74q-18 -7 -42.5 -13t-49.5 -6q-30 0 -49 5.5t-32 16.5q-23 20 -23 60q0 36 30 69z" />
    <glyph glyph-name="tilde" unicode="&#x2dc;" horiz-adv-x="439" 
d="M13 621q14 36 26.5 61t27 40.5t32.5 22t42 6.5q23 0 44 -8t50 -28q23 -16 35.5 -22.5t27.5 -6.5q19 0 29 12.5t22 38.5h77q-11 -26 -22.5 -48.5t-26 -39t-33.5 -26t-45 -9.5q-23 0 -44.5 7t-45.5 24q-23 17 -38 25.5t-29 8.5q-21 0 -31 -15t-22 -43h-76z" />
    <glyph glyph-name="hungarumlaut" unicode="&#x2dd;" horiz-adv-x="439" 
d="M312 754h96l-99 -144h-92zM50 610l95 144h96l-99 -144h-92z" />
    <glyph glyph-name="uni0326" unicode="&#x326;" horiz-adv-x="439" 
d="M163 -280q10 43 13 78t3 83v63h85v-59q0 -51 -8.5 -90t-23.5 -75h-69z" />
    <glyph glyph-name="pi" unicode="&#x3c0;" horiz-adv-x="628" 
d="M610 528v-89h-104v-232q0 -29 0.5 -48t2.5 -35q2 -15 8 -24t22 -14q14 -5 27 -6.5t27 -3.5v-83q-27 2 -52 4t-52 10q-28 8 -43 22.5t-23 35.5q-8 23 -9.5 54t-1.5 88v232h-201v-439h-94v439h-104v89h597z" />
    <glyph glyph-name="Wgrave" unicode="&#x1e80;" horiz-adv-x="914" 
d="M24 754h98l133 -641l148 527h109l149 -527l132 641h97l-155 -754h-133l-145 514l-144 -514h-133zM431 806l-129 144h112l124 -144h-107z" />
    <glyph glyph-name="wgrave" unicode="&#x1e81;" horiz-adv-x="813" 
d="M12 528h96l119 -431l125 431h111l125 -431l120 431h93l-148 -528h-126l-121 420l-121 -420h-126zM388 610l-129 144h112l124 -144h-107z" />
    <glyph glyph-name="Wacute" unicode="&#x1e82;" horiz-adv-x="914" 
d="M24 754h98l133 -641l148 527h109l149 -527l132 641h97l-155 -754h-133l-145 514l-144 -514h-133zM370 806l128 144h111l-131 -144h-108z" />
    <glyph glyph-name="wacute" unicode="&#x1e83;" horiz-adv-x="813" 
d="M12 528h96l119 -431l125 431h111l125 -431l120 431h93l-148 -528h-126l-121 420l-121 -420h-126zM325 610l128 144h111l-131 -144h-108z" />
    <glyph glyph-name="Wdieresis" unicode="&#x1e84;" horiz-adv-x="914" 
d="M24 754h98l133 -641l148 527h109l149 -527l132 641h97l-155 -754h-133l-145 514l-144 -514h-133zM515 950h92v-141h-92v141zM398 950v-141h-92v141h92z" />
    <glyph glyph-name="wdieresis" unicode="&#x1e85;" horiz-adv-x="813" 
d="M12 528h96l119 -431l125 431h111l125 -431l120 431h93l-148 -528h-126l-121 420l-121 -420h-126zM465 754h92v-141h-92v141zM348 754v-141h-92v141h92z" />
    <glyph glyph-name="Germandbls" unicode="&#x1e9e;" horiz-adv-x="770" 
d="M88 370q0 88 4 158.5t31 121.5q31 59 91.5 90t173.5 31q73 0 148 -13t133 -28v-92l-130 -218l38 -21q37 -20 60.5 -36t43.5 -38q20 -23 31.5 -55.5t11.5 -71.5q0 -47 -14 -87t-48 -69q-38 -33 -86.5 -46t-122.5 -13q-48 0 -91 6.5t-69 11.5v96q32 -7 74 -14t89 -7
q48 0 78.5 6.5t53.5 23.5q21 16 29.5 39.5t8.5 49.5q0 22 -4.5 39t-17.5 32t-35.5 30t-56.5 32l-105 54l162 274q-28 8 -77.5 15t-97.5 7q-74 0 -117.5 -15t-68.5 -63q-18 -35 -21 -90t-3 -123v-387h-96v370z" />
    <glyph glyph-name="uni1EA0" unicode="&#x1ea0;" horiz-adv-x="710" 
d="M11 0l280 754h126l282 -754h-105l-65 175h-352l-65 -175h-101zM209 267h287l-143 389zM307 -192v141h97v-141h-97z" />
    <glyph glyph-name="uni1EA1" unicode="&#x1ea1;" 
d="M98 458q29 48 74.5 67.5t114.5 19.5q54 0 108.5 -16.5t118.5 -39.5v-489h-94v81q-12 -11 -26 -22.5t-31 -23.5q-33 -23 -62 -37.5t-67 -14.5q-56 0 -88.5 22t-53.5 59q-19 33 -27.5 85t-8.5 112q0 57 9.5 108.5t32.5 88.5zM169 123q21 -50 78 -50q24 0 49.5 13.5
t49.5 32.5q20 15 39 31t35 30v246q-29 11 -62 20.5t-67 9.5q-42 0 -69.5 -12.5t-44.5 -42.5q-14 -26 -20 -60.5t-6 -79.5q0 -40 4 -77.5t14 -60.5zM237 -192v141h97v-141h-97z" />
    <glyph glyph-name="uni1EB8" unicode="&#x1eb8;" horiz-adv-x="654" 
d="M600 754v-93h-414v-230h392v-93h-392v-245h430v-93h-526v754h510zM299 -192v141h97v-141h-97z" />
    <glyph glyph-name="uni1EB9" unicode="&#x1eb9;" horiz-adv-x="567" 
d="M56 261q0 49 6.5 98t30.5 92t71.5 68.5t126.5 25.5q77 0 122 -23t70 -61q22 -33 26.5 -69.5t4.5 -63.5q0 -20 -2.5 -51t-7.5 -55h-355q0 -23 4 -48t17 -47q19 -32 52 -45t88 -13q48 0 96.5 7.5t80.5 13.5v-87q-32 -6 -82 -13t-101 -7q-44 0 -77 5.5t-57.5 17t-42 27.5
t-31.5 37q-23 35 -31.5 79t-8.5 112zM149 297h270q1 5 2 17t1 25q0 18 -3 37t-13 35q-31 51 -115 51q-45 0 -74 -13t-46 -44q-12 -22 -17 -54t-5 -54zM235 -198v141h97v-141h-97z" />
    <glyph glyph-name="uni1EBC" unicode="&#x1ebc;" horiz-adv-x="654" 
d="M600 754v-93h-414v-230h392v-93h-392v-245h430v-93h-526v754h510zM145 813q14 36 26.5 61t27 40.5t32.5 22t42 6.5q23 0 44 -8t50 -28q23 -16 35.5 -22.5t27.5 -6.5q19 0 29 12.5t22 38.5h77q-11 -26 -22.5 -48.5t-26 -39t-33.5 -26t-45 -9.5q-23 0 -44.5 7t-45.5 24
q-23 17 -38 25.5t-29 8.5q-21 0 -31 -15t-22 -43h-76z" />
    <glyph glyph-name="uni1EBD" unicode="&#x1ebd;" horiz-adv-x="567" 
d="M56 261q0 49 6.5 98t30.5 92t71.5 68.5t126.5 25.5q77 0 122 -23t70 -61q22 -33 26.5 -69.5t4.5 -63.5q0 -20 -2.5 -51t-7.5 -55h-355q0 -23 4 -48t17 -47q19 -32 52 -45t88 -13q48 0 96.5 7.5t80.5 13.5v-87q-32 -6 -82 -13t-101 -7q-44 0 -77 5.5t-57.5 17t-42 27.5
t-31.5 37q-23 35 -31.5 79t-8.5 112zM149 297h270q1 5 2 17t1 25q0 18 -3 37t-13 35q-31 51 -115 51q-45 0 -74 -13t-46 -44q-12 -22 -17 -54t-5 -54zM88 621q14 36 26.5 61t27 40.5t32.5 22t42 6.5q23 0 44 -8t50 -28q23 -16 35.5 -22.5t27.5 -6.5q19 0 29 12.5t22 38.5h77
q-11 -26 -22.5 -48.5t-26 -39t-33.5 -26t-45 -9.5q-23 0 -44.5 7t-45.5 24q-23 17 -38 25.5t-29 8.5q-21 0 -31 -15t-22 -43h-76z" />
    <glyph glyph-name="uni1ECA" unicode="&#x1eca;" horiz-adv-x="276" 
d="M90 0v754h96v-754h-96zM89 -192v141h97v-141h-97z" />
    <glyph glyph-name="uni1ECB" unicode="&#x1ecb;" horiz-adv-x="246" 
d="M76 0v528h94v-528h-94zM75 613v141h96v-141h-96zM75 -192v141h97v-141h-97z" />
    <glyph glyph-name="uni1ECC" unicode="&#x1ecc;" horiz-adv-x="789" 
d="M126 642q35 59 97.5 94t171.5 35q96 0 154.5 -26.5t98.5 -82.5q18 -25 31 -58.5t20.5 -71t11 -77.5t3.5 -79q0 -38 -3.5 -77t-11 -76t-19.5 -70t-30 -58q-42 -60 -101.5 -86t-153.5 -26q-55 0 -96.5 7t-72.5 21.5t-54 35.5t-40 49q-30 48 -43.5 123t-13.5 157
q0 36 2.5 73t8.5 72t16 66t24 55zM173 376q0 -29 1.5 -60.5t6 -61.5t12 -56.5t18.5 -45.5q29 -48 76.5 -62t107.5 -14q53 0 94.5 12.5t72.5 50.5q32 40 43 105t11 132q0 63 -9 123t-34 100q-28 45 -73 62t-105 17t-108.5 -17.5t-77.5 -68.5q-21 -37 -28.5 -96.5t-7.5 -119.5
zM342 -189v141h97v-141h-97z" />
    <glyph glyph-name="uni1ECD" unicode="&#x1ecd;" 
d="M89 438q26 50 73 78.5t133 28.5q69 0 115 -19.5t76 -61.5q29 -39 38.5 -92t9.5 -108q0 -57 -10 -105.5t-29 -79.5q-27 -45 -74 -70.5t-126 -25.5q-78 0 -122 21.5t-73 63.5q-21 31 -32.5 83t-11.5 110q0 50 8 97.5t25 79.5zM151 262q0 -41 6 -76t20 -59q18 -32 47 -43.5
t71 -11.5q40 0 69 12t46 40q15 25 22 61.5t7 81.5q0 41 -5.5 74t-21.5 60q-18 31 -46.5 43t-70.5 12q-45 0 -74.5 -14t-46.5 -48q-13 -26 -18 -59.5t-5 -72.5zM246 -189v141h97v-141h-97z" />
    <glyph glyph-name="uni1EE4" unicode="&#x1ee4;" horiz-adv-x="739" 
d="M184 754v-467q0 -66 8 -107t37 -68q24 -23 59.5 -29.5t81.5 -6.5q45 0 79.5 7.5t59.5 28.5q30 26 38 67.5t8 107.5v467h96v-467q0 -86 -12.5 -144.5t-58.5 -98.5q-38 -34 -88.5 -47.5t-121.5 -13.5q-73 0 -124.5 12.5t-89.5 50.5q-42 40 -55 99t-13 142v467h96zM321 -192
v141h97v-141h-97z" />
    <glyph glyph-name="uni1EE5" unicode="&#x1ee5;" horiz-adv-x="583" 
d="M75 207v321h94v-319q0 -33 2.5 -62.5t16.5 -46.5q12 -16 31 -22t50 -6q45 0 81 7t63 15v434h94v-503q-54 -15 -114.5 -28.5t-131.5 -13.5q-54 0 -88.5 13.5t-57.5 39.5t-31.5 68t-8.5 103zM241 -192v141h97v-141h-97z" />
    <glyph glyph-name="Ygrave" unicode="&#x1ef2;" horiz-adv-x="628" 
d="M102 754l213 -362l213 362h111l-277 -467v-287h-96v287l-277 467h113zM296 806l-129 144h112l124 -144h-107z" />
    <glyph glyph-name="ygrave" unicode="&#x1ef3;" horiz-adv-x="537" 
d="M109 528l160 -403l160 403h102l-291 -720h-100l78 194l-212 526h103zM247 610l-129 144h112l124 -144h-107z" />
    <glyph glyph-name="uni1EF8" unicode="&#x1ef8;" horiz-adv-x="628" 
d="M102 754l213 -362l213 362h111l-277 -467v-287h-96v287l-277 467h113zM115 813q14 36 26.5 61t27 40.5t32.5 22t42 6.5q23 0 44 -8t50 -28q23 -16 35.5 -22.5t27.5 -6.5q19 0 29 12.5t22 38.5h77q-11 -26 -22.5 -48.5t-26 -39t-33.5 -26t-45 -9.5q-23 0 -44.5 7t-45.5 24
q-23 17 -38 25.5t-29 8.5q-21 0 -31 -15t-22 -43h-76z" />
    <glyph glyph-name="uni1EF9" unicode="&#x1ef9;" horiz-adv-x="537" 
d="M109 528l160 -403l160 403h102l-291 -720h-100l78 194l-212 526h103zM73 621q14 36 26.5 61t27 40.5t32.5 22t42 6.5q23 0 44 -8t50 -28q23 -16 35.5 -22.5t27.5 -6.5q19 0 29 12.5t22 38.5h77q-11 -26 -22.5 -48.5t-26 -39t-33.5 -26t-45 -9.5q-23 0 -44.5 7t-45.5 24
q-23 17 -38 25.5t-29 8.5q-21 0 -31 -15t-22 -43h-76z" />
    <glyph glyph-name="endash" unicode="&#x2013;" horiz-adv-x="600" 
d="M50 219v93h500v-93h-500z" />
    <glyph glyph-name="emdash" unicode="&#x2014;" horiz-adv-x="1000" 
d="M0 219v93h1000v-93h-1000z" />
    <glyph glyph-name="quoteleft" unicode="&#x2018;" horiz-adv-x="271" 
d="M79 550q0 63 16 114.5t33 89.5h74q-5 -22 -9.5 -44t-7.5 -47t-5 -54t-2 -66v-115h-99v122z" />
    <glyph glyph-name="quoteright" unicode="&#x2019;" horiz-adv-x="271" 
d="M69 428q5 23 9.5 45t7.5 46.5t5 53.5t2 66v115h99v-122q0 -63 -16 -114.5t-33 -89.5h-74z" />
    <glyph glyph-name="quotesinglbase" unicode="&#x201a;" horiz-adv-x="271" 
d="M69 -179q5 22 9.5 44t7.5 47t5 54t2 66v115h99v-122q0 -63 -16 -114.5t-33 -89.5h-74z" />
    <glyph glyph-name="quotedblleft" unicode="&#x201c;" horiz-adv-x="450" 
d="M258 428v122q0 63 16 114.5t33 89.5h74q-5 -22 -9.5 -44t-7.5 -47t-5 -54t-2 -66v-115h-99zM79 550q0 63 16 114.5t33 89.5h74q-5 -22 -9.5 -44t-7.5 -47t-5 -54t-2 -66v-115h-99v122z" />
    <glyph glyph-name="quotedblright" unicode="&#x201d;" horiz-adv-x="450" 
d="M248 428q5 23 9.5 45t7.5 46.5t5 53.5t2 66v115h99v-122q0 -63 -16 -114.5t-33 -89.5h-74zM93 639v115h99v-122q0 -63 -16 -114.5t-33 -89.5h-74q5 23 9.5 45t7.5 46.5t5 53.5t2 66z" />
    <glyph glyph-name="quotedblbase" unicode="&#x201e;" horiz-adv-x="450" 
d="M248 -179q5 22 9.5 44t7.5 47t5 54t2 66v115h99v-122q0 -63 -16 -114.5t-33 -89.5h-74zM93 32v115h99v-122q0 -63 -16 -114.5t-33 -89.5h-74q5 22 9.5 44t7.5 47t5 54t2 66z" />
    <glyph glyph-name="dagger" unicode="&#x2020;" horiz-adv-x="597" 
d="M253 534v219h91v-219h196v-87h-196v-543h-91v543h-196v87h196z" />
    <glyph glyph-name="daggerdbl" unicode="&#x2021;" horiz-adv-x="597" 
d="M57 534h196v219h91v-219h196v-87h-196v-237h196v-87h-196v-219h-91v219h-196v87h196v237h-196v87z" />
    <glyph glyph-name="bullet" unicode="&#x2022;" horiz-adv-x="492" 
d="M87 377q0 157 159 157q160 0 160 -158q0 -156 -160 -156q-159 0 -159 157z" />
    <glyph glyph-name="ellipsis" unicode="&#x2026;" horiz-adv-x="873" 
d="M680 152h115v-152h-115v152zM379 152h115v-152h-115v152zM78 152h115v-152h-115v152z" />
    <glyph glyph-name="perthousand" unicode="&#x2030;" horiz-adv-x="1505" 
d="M1132 377q20 26 55 39.5t79 13.5q86 0 129 -50q26 -31 34.5 -72t8.5 -100q0 -57 -9.5 -97t-33.5 -69q-21 -26 -52.5 -39.5t-76.5 -13.5q-43 0 -74.5 10.5t-53.5 33.5q-25 27 -34 67.5t-9 107.5q0 61 7.5 100.5t29.5 68.5zM1179 208q0 -42 3.5 -71.5t17.5 -46.5
q11 -14 26.5 -18.5t39.5 -4.5q23 0 39 6.5t28 23.5q14 19 17.5 46t3.5 65q0 41 -3.5 68.5t-15.5 45.5q-20 30 -69 30q-24 0 -40.5 -6t-27.5 -21q-14 -18 -16.5 -45.5t-2.5 -71.5zM700 377q20 26 55 39.5t79 13.5q86 0 129 -50q26 -31 34.5 -72t8.5 -100q0 -57 -9.5 -97
t-33.5 -69q-21 -26 -52.5 -39.5t-76.5 -13.5q-43 0 -74.5 10.5t-53.5 33.5q-25 27 -34 67.5t-9 107.5q0 61 7.5 100.5t29.5 68.5zM747 208q0 -42 3.5 -71.5t17.5 -46.5q11 -14 26.5 -18.5t39.5 -4.5q23 0 39 6.5t28 23.5q14 19 17.5 46t3.5 65q0 41 -3.5 68.5t-15.5 45.5
q-20 30 -69 30q-24 0 -40.5 -6t-27.5 -21q-14 -18 -16.5 -45.5t-2.5 -71.5zM293 0l392 754h100l-393 -754h-99zM104 712q20 26 55 39.5t79 13.5q86 0 129 -50q26 -31 34.5 -72t8.5 -100q0 -57 -9.5 -97t-33.5 -69q-21 -26 -52.5 -39.5t-76.5 -13.5q-43 0 -74.5 10.5
t-53.5 33.5q-25 27 -34 67.5t-9 107.5q0 61 7.5 100.5t29.5 68.5zM151 543q0 -42 3.5 -71.5t17.5 -46.5q11 -14 26.5 -18.5t39.5 -4.5q23 0 39 6.5t28 23.5q14 19 17.5 46t3.5 65q0 41 -3.5 68.5t-15.5 45.5q-20 30 -69 30q-24 0 -40.5 -6t-27.5 -21q-14 -18 -16.5 -45.5
t-2.5 -71.5z" />
    <glyph glyph-name="guilsinglleft" unicode="&#x2039;" horiz-adv-x="352" 
d="M223 58l-172 206l172 206h115l-172 -206l172 -206h-115z" />
    <glyph glyph-name="guilsinglright" unicode="&#x203a;" horiz-adv-x="352" 
d="M14 58l172 206l-172 206h115l172 -206l-172 -206h-115z" />
    <glyph glyph-name="fraction" unicode="&#x2044;" horiz-adv-x="165" 
d="M-158 0l392 754h100l-393 -754h-99z" />
    <glyph glyph-name="uni2070" unicode="&#x2070;" horiz-adv-x="465" 
d="M98 827q20 26 55 39.5t79 13.5q86 0 129 -50q26 -31 34.5 -72t8.5 -100q0 -57 -9.5 -97t-33.5 -69q-21 -26 -52.5 -39.5t-76.5 -13.5q-43 0 -74.5 10.5t-53.5 33.5q-25 27 -34 67.5t-9 107.5q0 61 7.5 100.5t29.5 68.5zM145 658q0 -42 3.5 -71.5t17.5 -46.5
q11 -14 26.5 -18.5t39.5 -4.5q23 0 39 6.5t28 23.5q14 19 17.5 46t3.5 65q0 41 -3.5 68.5t-15.5 45.5q-20 30 -69 30q-24 0 -40.5 -6t-27.5 -21q-14 -18 -16.5 -45.5t-2.5 -71.5z" />
    <glyph glyph-name="uni2071" unicode="&#x2071;" horiz-adv-x="236" 
d="M76 450v313h84v-313h-84zM74 822v117h88v-117h-88z" />
    <glyph glyph-name="uni2074" unicode="&#x2074;" horiz-adv-x="424" 
d="M224 869h103l-195 -263h136v79h83v-235h-83v79h-240v77z" />
    <glyph glyph-name="uni2075" unicode="&#x2075;" horiz-adv-x="424" 
d="M69 526q26 -5 56.5 -9t64.5 -4q30 0 47.5 4.5t28.5 15.5q8 8 11 18t3 24q0 26 -20 40q-13 9 -38 11.5t-82 2.5h-66v240h274v-77h-192v-90h44q39 0 66 -5.5t44 -15.5q27 -15 40.5 -43t13.5 -60t-8 -57t-27 -42q-22 -20 -54 -30t-85 -10q-35 0 -66.5 4t-54.5 8v75z" />
    <glyph glyph-name="uni2076" unicode="&#x2076;" horiz-adv-x="443" 
d="M133 808q38 31 94.5 48t131.5 25v-75q-52 -7 -90 -16t-64 -25q-24 -14 -36 -29.5t-16 -33.5q20 1 44 1.5t50 0.5q38 0 66 -8.5t46 -28.5q16 -17 23 -41t7 -50t-8.5 -50t-25.5 -42q-21 -23 -52.5 -34t-78.5 -11q-88 0 -129 45q-19 20 -26.5 50.5t-7.5 62.5q0 36 2.5 66.5
t10 56t21.5 47.5t38 41zM144 592q0 -19 3 -34t13 -27q9 -11 26.5 -16t37.5 -5q22 0 37 3.5t26 14.5q19 19 19 48q0 27 -13 43q-9 11 -24.5 14.5t-36.5 3.5q-25 0 -46 -0.5t-40 -1.5q-2 -11 -2 -21.5v-21.5z" />
    <glyph glyph-name="uni2077" unicode="&#x2077;" horiz-adv-x="372" 
d="M55 450l196 342h-236v77h336v-74l-198 -345h-98z" />
    <glyph glyph-name="uni2078" unicode="&#x2078;" horiz-adv-x="481" 
d="M102 635q9 9 18 15.5t16 11.5q-23 12 -36 30q-17 26 -17 72q0 26 11 49t34 40q38 27 114 27q77 0 119 -31q20 -14 29.5 -36t9.5 -48q0 -36 -25 -69q-6 -8 -14.5 -17.5t-16.5 -17.5q32 -16 50 -39t18 -61q0 -57 -40 -88q-21 -17 -52.5 -25.5t-76.5 -8.5q-50 0 -81.5 8.5
t-51.5 22.5q-20 15 -30.5 36.5t-10.5 53.5q0 44 33 75zM173 522q11 -6 28.5 -10t41.5 -4q45 0 67 16q20 14 20 41q0 16 -8.5 27t-29.5 19q-17 6 -42.5 11.5t-49.5 10.5q-6 -5 -16 -13t-18 -17q-10 -11 -12.5 -19.5t-2.5 -19.5q0 -30 22 -42zM190 707q14 -7 36.5 -12
t50.5 -10q5 5 13 14.5t15 18.5q15 20 15 40q0 25 -17 38q-20 15 -61 15q-42 0 -60 -13q-19 -15 -19 -40q0 -23 7 -33.5t20 -17.5z" />
    <glyph glyph-name="uni2079" unicode="&#x2079;" horiz-adv-x="443" 
d="M55 737q0 26 7.5 51.5t22.5 42.5q17 20 48.5 34.5t82.5 14.5q45 0 76 -13t51 -37q21 -26 30 -67t9 -86q0 -40 -1.5 -70.5t-12.5 -60.5q-16 -48 -52 -74q-44 -33 -119 -33q-35 0 -63 4t-58 9v75q28 -5 56 -9.5t58 -4.5q44 0 67 14q23 13 33 37q5 13 7 23t2 22
q-20 -2 -47 -4.5t-62 -2.5q-77 0 -109 36q-14 17 -20 41.5t-6 57.5zM138 738q0 -17 2.5 -31t10.5 -22q8 -9 22.5 -12.5t32.5 -3.5q26 0 52.5 2.5t40.5 4.5q0 37 -3.5 63.5t-15.5 43.5q-18 26 -64 26q-43 0 -60 -18q-11 -11 -14.5 -24t-3.5 -29z" />
    <glyph glyph-name="uni207D" unicode="&#x207d;" horiz-adv-x="275" 
d="M66 726q0 51 6 97.5t35 81.5q27 33 65.5 52t81.5 28v-82q-26 -9 -45.5 -21t-33.5 -31q-18 -25 -21.5 -61t-3.5 -84v-93q0 -48 3.5 -85t21.5 -60q15 -20 34 -31.5t45 -20.5v-82q-43 9 -81.5 28t-65.5 52q-29 35 -35 81.5t-6 97.5v133z" />
    <glyph glyph-name="uni207E" unicode="&#x207e;" horiz-adv-x="275" 
d="M21 334v82q26 9 45.5 20.5t33.5 31.5q17 24 21 60.5t4 84.5v93q0 48 -3.5 84t-21.5 61q-14 19 -33.5 31t-45.5 21v82q43 -9 81.5 -28t65.5 -52q29 -35 35 -81.5t6 -97.5v-133q0 -51 -6 -97.5t-35 -81.5q-27 -33 -65.5 -52t-81.5 -28z" />
    <glyph glyph-name="uni207F" unicode="&#x207f;" horiz-adv-x="466" 
d="M74 450v313h84v-28q23 11 55 23.5t63 12.5q32 0 53.5 -7.5t37.5 -25.5t21 -44.5t5 -64.5v-179h-84v158q0 19 -1.5 38.5t-9.5 30.5q-8 10 -18 13t-24 3q-25 0 -53 -12t-45 -20v-211h-84z" />
    <glyph glyph-name="uni2080" unicode="&#x2080;" horiz-adv-x="465" 
d="M98 247q20 26 55 39.5t79 13.5q86 0 129 -50q26 -31 34.5 -72t8.5 -100q0 -57 -9.5 -97t-33.5 -69q-21 -26 -52.5 -39.5t-76.5 -13.5q-43 0 -74.5 10.5t-53.5 33.5q-25 27 -34 67.5t-9 107.5q0 61 7.5 100.5t29.5 68.5zM145 78q0 -42 3.5 -71.5t17.5 -46.5
q11 -14 26.5 -18.5t39.5 -4.5q23 0 39 6.5t28 23.5q14 19 17.5 46t3.5 65q0 41 -3.5 68.5t-15.5 45.5q-20 30 -69 30q-24 0 -40.5 -6t-27.5 -21q-14 -18 -16.5 -45.5t-2.5 -71.5z" />
    <glyph glyph-name="uni2081" unicode="&#x2081;" horiz-adv-x="301" 
d="M141 -130v323l-116 -33v82l202 60v-432h-86z" />
    <glyph glyph-name="uni2082" unicode="&#x2082;" horiz-adv-x="409" 
d="M41 -55q20 17 43 37.5l46 41t43.5 39.5t35.5 34q26 26 36 42t10 33q0 22 -13 35q-15 15 -53 15q-20 0 -40.5 -2.5t-39.5 -6t-34 -7.5t-24 -6v80q21 5 60.5 12.5t80.5 7.5q72 0 110 -32q17 -14 27 -37t10 -49q0 -33 -10.5 -57t-36.5 -52q-35 -38 -71.5 -71.5t-60.5 -54.5
h202v-77h-321v75z" />
    <glyph glyph-name="uni2083" unicode="&#x2083;" horiz-adv-x="430" 
d="M53 -126v75q25 -5 62 -10.5t68 -5.5q15 0 31.5 1.5t30 7t22 16.5t8.5 31q0 32 -25 46q-11 6 -25.5 7.5t-34.5 1.5h-93v73h142l13 17q10 13 14.5 22.5t4.5 23.5q0 22 -16 34q-17 12 -62 12q-40 0 -79.5 -8t-57.5 -13v75q21 5 61 12.5t81 7.5q45 0 72.5 -8t47.5 -22
q17 -13 26.5 -34t9.5 -42q0 -20 -5 -35t-14 -30q-7 -11 -15.5 -22.5t-12.5 -16.5q19 -14 32 -31q21 -28 21 -72q0 -53 -37 -90q-20 -19 -52.5 -28.5t-81.5 -9.5q-33 0 -73 5t-63 10z" />
    <glyph glyph-name="uni2084" unicode="&#x2084;" horiz-adv-x="424" 
d="M224 288h103l-195 -263h136v79h83v-235h-83v79h-240v77z" />
    <glyph glyph-name="uni2085" unicode="&#x2085;" horiz-adv-x="424" 
d="M69 -54q26 -5 56.5 -9t64.5 -4q30 0 47.5 4.5t28.5 15.5q8 8 11 18t3 24q0 26 -20 40q-13 9 -38 11.5t-82 2.5h-66v240h274v-77h-192v-90h44q39 0 66 -5.5t44 -15.5q27 -15 40.5 -43t13.5 -60t-8 -57t-27 -42q-22 -20 -54 -30t-85 -10q-35 0 -66.5 4t-54.5 8v75z" />
    <glyph glyph-name="uni2086" unicode="&#x2086;" horiz-adv-x="443" 
d="M133 228q38 31 94.5 48t131.5 25v-75q-52 -7 -90 -16t-64 -25q-24 -14 -36 -29.5t-16 -33.5q20 1 44 1.5t50 0.5q38 0 66 -8.5t46 -28.5q16 -17 23 -41t7 -50t-8.5 -50t-25.5 -42q-21 -23 -52.5 -34t-78.5 -11q-88 0 -129 45q-19 20 -26.5 50.5t-7.5 62.5q0 36 2.5 66.5
t10 56t21.5 47.5t38 41zM144 12q0 -19 3 -34t13 -27q9 -11 26.5 -16t37.5 -5q22 0 37 3.5t26 14.5q19 19 19 48q0 27 -13 43q-9 11 -24.5 14.5t-36.5 3.5q-25 0 -46 -0.5t-40 -1.5q-2 -11 -2 -21.5v-21.5z" />
    <glyph glyph-name="uni2087" unicode="&#x2087;" horiz-adv-x="372" 
d="M55 -130l196 342h-236v77h336v-74l-198 -345h-98z" />
    <glyph glyph-name="uni2088" unicode="&#x2088;" horiz-adv-x="481" 
d="M102 55q9 9 18 15.5t16 11.5q-23 12 -36 30q-17 26 -17 72q0 26 11 49t34 40q38 27 114 27q77 0 119 -31q20 -14 29.5 -36t9.5 -48q0 -36 -25 -69q-6 -8 -14.5 -17.5t-16.5 -17.5q32 -16 50 -39t18 -61q0 -57 -40 -88q-21 -17 -52.5 -25.5t-76.5 -8.5q-50 0 -81.5 8.5
t-51.5 22.5q-20 15 -30.5 36.5t-10.5 53.5q0 44 33 75zM173 -58q11 -6 28.5 -10t41.5 -4q45 0 67 16q20 14 20 41q0 16 -8.5 27t-29.5 19q-17 6 -42.5 11.5t-49.5 10.5q-6 -5 -16 -13t-18 -17q-10 -11 -12.5 -19.5t-2.5 -19.5q0 -30 22 -42zM190 127q14 -7 36.5 -12
t50.5 -10q5 5 13 14.5t15 18.5q15 20 15 40q0 25 -17 38q-20 15 -61 15q-42 0 -60 -13q-19 -15 -19 -40q0 -23 7 -33.5t20 -17.5z" />
    <glyph glyph-name="uni2089" unicode="&#x2089;" horiz-adv-x="443" 
d="M55 157q0 26 7.5 51.5t22.5 42.5q17 20 48.5 34.5t82.5 14.5q45 0 76 -13t51 -37q21 -26 30 -67t9 -86q0 -40 -1.5 -70.5t-12.5 -60.5q-16 -48 -52 -74q-44 -33 -119 -33q-35 0 -63 4t-58 9v75q28 -5 56 -9.5t58 -4.5q44 0 67 14q23 13 33 37q5 13 7 23t2 22
q-20 -2 -47 -4.5t-62 -2.5q-77 0 -109 36q-14 17 -20 41.5t-6 57.5zM138 158q0 -17 2.5 -31t10.5 -22q8 -9 22.5 -12.5t32.5 -3.5q26 0 52.5 2.5t40.5 4.5q0 37 -3.5 63.5t-15.5 43.5q-18 26 -64 26q-43 0 -60 -18q-11 -11 -14.5 -24t-3.5 -29z" />
    <glyph glyph-name="uni208D" unicode="&#x208d;" horiz-adv-x="275" 
d="M66 146q0 51 6 97.5t35 81.5q27 33 65.5 52t81.5 28v-82q-26 -9 -45.5 -21t-33.5 -31q-18 -25 -21.5 -61t-3.5 -84v-93q0 -48 3.5 -85t21.5 -60q15 -20 34 -31.5t45 -20.5v-82q-43 9 -81.5 28t-65.5 52q-29 35 -35 81.5t-6 97.5v133z" />
    <glyph glyph-name="uni208E" unicode="&#x208e;" horiz-adv-x="275" 
d="M21 -246v82q26 9 45.5 20.5t33.5 31.5q17 24 21 60.5t4 84.5v93q0 48 -3.5 84t-21.5 61q-14 19 -33.5 31t-45.5 21v82q43 -9 81.5 -28t65.5 -52q29 -35 35 -81.5t6 -97.5v-133q0 -51 -6 -97.5t-35 -81.5q-27 -33 -65.5 -52t-81.5 -28z" />
    <glyph glyph-name="uni2093" unicode="&#x2093;" horiz-adv-x="418" 
d="M20 -130l127 161l-123 152h105l78 -100l77 100h103l-120 -150l130 -163h-104l-86 110l-85 -110h-102z" />
    <glyph glyph-name="Euro" unicode="&#x20ac;" horiz-adv-x="698" 
d="M93 375q0 87 10.5 158.5t36.5 118.5q32 58 91 88.5t168 30.5q64 0 126.5 -9t107.5 -19v-94q-51 11 -110 20.5t-118 9.5q-72 0 -116 -16t-67 -58q-12 -22 -18 -54.5t-8 -58.5h320v-83h-325q-1 -8 -1 -15v-13v-13t1 -17h325v-83h-321q2 -29 7 -59.5t13 -49.5
q18 -45 62 -64.5t124 -19.5q57 0 118.5 6t113.5 13v-93q-50 -6 -113.5 -12t-126.5 -6q-58 0 -101.5 9t-75 26.5t-52.5 42t-35 55.5q-17 38 -26.5 105t-9.5 154z" />
    <glyph glyph-name="uni20BA" unicode="&#x20ba;" horiz-adv-x="616" 
d="M201 754v-193l252 79v-87l-252 -79v-59l252 79v-87l-252 -79v-253q69 0 115 11.5t80 47.5q34 37 44 82t12 85h98q-2 -51 -15.5 -108.5t-49.5 -104.5q-20 -26 -45 -45.5t-59 -33t-78 -20t-103 -6.5q-33 0 -57.5 1t-37.5 3v767h96z" />
    <glyph glyph-name="uni20BD" unicode="&#x20bd;" horiz-adv-x="699" 
d="M105 0v754h297q65 0 106.5 -14t73.5 -46q29 -29 43.5 -72t14.5 -92q0 -52 -11.5 -94.5t-43.5 -77.5q-29 -32 -70 -46t-94 -18q-33 -2 -92 -2.5t-128 -0.5v-59h324v-83h-324v-149h-96zM201 383q60 0 116.5 0.5t94.5 3.5t63 11.5t42 31.5q14 20 19.5 44.5t5.5 55.5
q0 32 -8 58.5t-27 43.5q-18 17 -45 23.5t-68 6.5h-193v-279z" />
    <glyph glyph-name="uni2103" unicode="&#x2103;" horiz-adv-x="1096" 
d="M52 592q0 83 49 131t134 48q84 0 133 -48t49 -131q0 -82 -49 -128.5t-133 -46.5q-85 0 -134 46.5t-49 128.5zM134 594q0 -46 26.5 -72.5t74.5 -26.5q45 0 72.5 26t27.5 73q0 46 -27.5 72.5t-72.5 26.5q-48 0 -74.5 -26.5t-26.5 -72.5zM513 370q0 85 11.5 157.5
t41.5 123.5q16 27 37 49t50 38t68.5 24.5t91.5 8.5q33 0 65.5 -4t61.5 -10q31 -6 59 -13t47 -12v-96q-29 8 -59.5 15.5t-62.5 13.5q-26 5 -52 9t-52 4q-70 0 -111 -20.5t-65 -68.5q-18 -36 -25.5 -94t-7.5 -124q0 -63 7 -116t23 -87q23 -48 65 -70t114 -22q52 0 113 11.5
t113 22.5v-95q-53 -11 -113.5 -21.5t-122.5 -10.5q-56 0 -97 10t-70.5 27.5t-50.5 42.5t-36 55q-22 43 -32.5 109t-10.5 143z" />
    <glyph glyph-name="uni2109" unicode="&#x2109;" horiz-adv-x="1073" 
d="M52 592q0 83 49 131t134 48q84 0 133 -48t49 -131q0 -82 -49 -128.5t-133 -46.5q-85 0 -134 46.5t-49 128.5zM134 594q0 -46 26.5 -72.5t74.5 -26.5q45 0 72.5 26t27.5 73q0 46 -27.5 72.5t-72.5 26.5q-48 0 -74.5 -26.5t-26.5 -72.5zM1045 754v-93h-412v-240h377v-93
h-377v-327h-96v753h508z" />
    <glyph glyph-name="uni2113" unicode="&#x2113;" horiz-adv-x="455" 
d="M76 203v322q0 76 6 117.5t24 70.5q17 28 48 43t85 15q42 0 69.5 -11t44.5 -28q21 -22 31.5 -54t10.5 -82q0 -38 -13 -78t-40 -87t-69.5 -102.5t-102.5 -124.5v-22q0 -41 2 -60t16 -33q12 -12 30.5 -14.5t35.5 -2.5q38 0 80.5 11t70.5 21v-93q-34 -11 -73.5 -19.5
t-78.5 -8.5q-61 0 -96.5 12t-52.5 35q-20 26 -24 68t-4 105zM300 590q0 20 -1.5 35.5t-8.5 29.5q-14 30 -52 30q-39 0 -54 -30q-10 -19 -12 -46.5t-2 -72.5v-203q26 34 49.5 65.5t41.5 63t28.5 63t10.5 65.5z" />
    <glyph glyph-name="uni2116" unicode="&#x2116;" horiz-adv-x="1179" 
d="M209 754l362 -615v615h95v-754h-119l-362 615v-615h-95v754h119zM789 692q22 36 59.5 57.5t103.5 21.5q56 0 90 -14.5t58 -43.5t33.5 -69t9.5 -82t-10 -78.5t-27 -61.5q-22 -31 -57.5 -49t-96.5 -18q-59 0 -94 15t-58 44q-18 23 -28.5 63t-10.5 84q0 37 6 71.5t22 59.5z
M846 562q0 -58 20 -91q13 -20 35 -28t51 -8q61 0 83 35q23 35 23 94q0 28 -4.5 50t-16.5 40q-14 20 -33.5 28.5t-51.5 8.5t-54 -9t-35 -32q-9 -17 -13 -39.5t-4 -48.5z" />
    <glyph glyph-name="trademark" unicode="&#x2122;" horiz-adv-x="1060" 
d="M513 754h104l125 -256l128 256h100v-429h-75v329l-120 -244h-68l-119 246v-331h-75v429zM44 754h395v-72h-158v-357h-78v357h-159v72z" />
    <glyph glyph-name="uni2126" unicode="&#x2126;" horiz-adv-x="793" 
d="M208 89q-23 17 -42.5 39t-35.5 47q-28 44 -40.5 106t-12.5 141q0 23 2.5 51t8 57.5t15 58t23.5 52.5q35 60 98 95t173 35q96 0 154.5 -27t98.5 -82q18 -25 31 -56t20.5 -63t11 -63.5t3.5 -57.5q0 -78 -13.5 -139.5t-45.5 -110.5q-17 -26 -36 -47t-36 -36h162v-89h-302v88
q30 19 58.5 41t55.5 60q33 45 46 98.5t13 134.5q0 18 -2 41t-7 46.5t-13 47t-21 42.5q-29 45 -73.5 62t-104.5 17t-109 -17.5t-78 -68.5q-20 -37 -27.5 -86t-7.5 -84q0 -81 12 -134t38 -91q30 -44 60.5 -66.5t62.5 -42.5v-88h-302v89h162z" />
    <glyph glyph-name="estimated" unicode="&#x212e;" horiz-adv-x="770" 
d="M144 512q46 44 103 64.5t138 20.5q75 0 129.5 -18t102.5 -57q49 -39 74.5 -101t28.5 -139h-533q-5 0 -9.5 -2t-4.5 -14v-149q0 -12 15.5 -30t43 -35.5t66.5 -30t87 -12.5q63 0 119 27.5t93 69.5h63q-60 -69 -126 -95q-18 -7 -33.5 -12t-32.5 -8t-37 -4.5t-46 -1.5
q-81 0 -138.5 20t-104.5 65q-92 87 -92 221q0 132 94 221zM173 469v-160q0 -8 15 -8h393q10 0 12.5 3.5t2.5 11.5v146q0 18 -19.5 38.5t-50 37t-68 27.5t-73.5 11q-45 0 -83.5 -13t-67 -30.5t-45 -35.5t-16.5 -28z" />
    <glyph glyph-name="onethird" unicode="&#x2153;" horiz-adv-x="896" 
d="M519 4v75q25 -5 62 -10.5t68 -5.5q15 0 31.5 1.5t30 7t22 16.5t8.5 31q0 32 -25 46q-11 6 -25.5 7.5t-34.5 1.5h-93v73h142l13 17q10 13 14.5 22.5t4.5 23.5q0 22 -16 34q-17 12 -62 12q-40 0 -79.5 -8t-57.5 -13v75q21 5 61 12.5t81 7.5q45 0 72.5 -8t47.5 -22
q17 -13 26.5 -34t9.5 -42q0 -20 -5 -35t-14 -30q-7 -11 -15.5 -22.5t-12.5 -16.5q19 -14 32 -31q21 -28 21 -72q0 -53 -37 -90q-20 -19 -52.5 -28.5t-81.5 -9.5q-33 0 -73 5t-63 10zM143 0l392 754h100l-393 -754h-99zM141 335v323l-116 -33v82l202 60v-432h-86z" />
    <glyph glyph-name="twothirds" unicode="&#x2154;" horiz-adv-x="1005" 
d="M628 4v75q25 -5 62 -10.5t68 -5.5q15 0 31.5 1.5t30 7t22 16.5t8.5 31q0 32 -25 46q-11 6 -25.5 7.5t-34.5 1.5h-93v73h142l13 17q10 13 14.5 22.5t4.5 23.5q0 22 -16 34q-17 12 -62 12q-40 0 -79.5 -8t-57.5 -13v75q21 5 61 12.5t81 7.5q45 0 72.5 -8t47.5 -22
q17 -13 26.5 -34t9.5 -42q0 -20 -5 -35t-14 -30q-7 -11 -15.5 -22.5t-12.5 -16.5q19 -14 32 -31q21 -28 21 -72q0 -53 -37 -90q-20 -19 -52.5 -28.5t-81.5 -9.5q-33 0 -73 5t-63 10zM251 0l392 754h100l-393 -754h-99zM41 410q20 17 43 37.5l46 41t43.5 39.5t35.5 34
q26 26 36 42t10 33q0 22 -13 35q-15 15 -53 15q-20 0 -40.5 -2.5t-39.5 -6t-34 -7.5t-24 -6v80q21 5 60.5 12.5t80.5 7.5q72 0 110 -32q17 -14 27 -37t10 -49q0 -33 -10.5 -57t-36.5 -52q-35 -38 -71.5 -71.5t-60.5 -54.5h202v-77h-321v75z" />
    <glyph glyph-name="oneeighth" unicode="&#x215b;" horiz-adv-x="947" 
d="M568 185q9 9 18 15.5t16 11.5q-23 12 -36 30q-17 26 -17 72q0 26 11 49t34 40q38 27 114 27q77 0 119 -31q20 -14 29.5 -36t9.5 -48q0 -36 -25 -69q-6 -8 -14.5 -17.5t-16.5 -17.5q32 -16 50 -39t18 -61q0 -57 -40 -88q-21 -17 -52.5 -25.5t-76.5 -8.5q-50 0 -81.5 8.5
t-51.5 22.5q-20 15 -30.5 36.5t-10.5 53.5q0 44 33 75zM639 72q11 -6 28.5 -10t41.5 -4q45 0 67 16q20 14 20 41q0 16 -8.5 27t-29.5 19q-17 6 -42.5 11.5t-49.5 10.5q-6 -5 -16 -13t-18 -17q-10 -11 -12.5 -19.5t-2.5 -19.5q0 -30 22 -42zM656 257q14 -7 36.5 -12t50.5 -10
q5 5 13 14.5t15 18.5q15 20 15 40q0 25 -17 38q-20 15 -61 15q-42 0 -60 -13q-19 -15 -19 -40q0 -23 7 -33.5t20 -17.5zM143 0l392 754h100l-393 -754h-99zM141 335v323l-116 -33v82l202 60v-432h-86z" />
    <glyph glyph-name="threeeighths" unicode="&#x215c;" horiz-adv-x="1077" 
d="M698 185q9 9 18 15.5t16 11.5q-23 12 -36 30q-17 26 -17 72q0 26 11 49t34 40q38 27 114 27q77 0 119 -31q20 -14 29.5 -36t9.5 -48q0 -36 -25 -69q-6 -8 -14.5 -17.5t-16.5 -17.5q32 -16 50 -39t18 -61q0 -57 -40 -88q-21 -17 -52.5 -25.5t-76.5 -8.5q-50 0 -81.5 8.5
t-51.5 22.5q-20 15 -30.5 36.5t-10.5 53.5q0 44 33 75zM769 72q11 -6 28.5 -10t41.5 -4q45 0 67 16q20 14 20 41q0 16 -8.5 27t-29.5 19q-17 6 -42.5 11.5t-49.5 10.5q-6 -5 -16 -13t-18 -17q-10 -11 -12.5 -19.5t-2.5 -19.5q0 -30 22 -42zM786 257q14 -7 36.5 -12t50.5 -10
q5 5 13 14.5t15 18.5q15 20 15 40q0 25 -17 38q-20 15 -61 15q-42 0 -60 -13q-19 -15 -19 -40q0 -23 7 -33.5t20 -17.5zM272 0l392 754h100l-393 -754h-99zM53 339v75q25 -5 62 -10.5t68 -5.5q15 0 31.5 1.5t30 7t22 16.5t8.5 31q0 32 -25 46q-11 6 -25.5 7.5t-34.5 1.5h-93
v73h142l13 17q10 13 14.5 22.5t4.5 23.5q0 22 -16 34q-17 12 -62 12q-40 0 -79.5 -8t-57.5 -13v75q21 5 61 12.5t81 7.5q45 0 72.5 -8t47.5 -22q17 -13 26.5 -34t9.5 -42q0 -20 -5 -35t-14 -30q-7 -11 -15.5 -22.5t-12.5 -16.5q19 -14 32 -31q21 -28 21 -72q0 -53 -37 -90
q-20 -19 -52.5 -28.5t-81.5 -9.5q-33 0 -73 5t-63 10z" />
    <glyph glyph-name="fiveeighths" unicode="&#x215d;" horiz-adv-x="1071" 
d="M692 185q9 9 18 15.5t16 11.5q-23 12 -36 30q-17 26 -17 72q0 26 11 49t34 40q38 27 114 27q77 0 119 -31q20 -14 29.5 -36t9.5 -48q0 -36 -25 -69q-6 -8 -14.5 -17.5t-16.5 -17.5q32 -16 50 -39t18 -61q0 -57 -40 -88q-21 -17 -52.5 -25.5t-76.5 -8.5q-50 0 -81.5 8.5
t-51.5 22.5q-20 15 -30.5 36.5t-10.5 53.5q0 44 33 75zM763 72q11 -6 28.5 -10t41.5 -4q45 0 67 16q20 14 20 41q0 16 -8.5 27t-29.5 19q-17 6 -42.5 11.5t-49.5 10.5q-6 -5 -16 -13t-18 -17q-10 -11 -12.5 -19.5t-2.5 -19.5q0 -30 22 -42zM780 257q14 -7 36.5 -12t50.5 -10
q5 5 13 14.5t15 18.5q15 20 15 40q0 25 -17 38q-20 15 -61 15q-42 0 -60 -13q-19 -15 -19 -40q0 -23 7 -33.5t20 -17.5zM266 0l392 754h100l-393 -754h-99zM69 411q26 -5 56.5 -9t64.5 -4q30 0 47.5 4.5t28.5 15.5q8 8 11 18t3 24q0 26 -20 40q-13 9 -38 11.5t-82 2.5h-66
v240h274v-77h-192v-90h44q39 0 66 -5.5t44 -15.5q27 -15 40.5 -43t13.5 -60t-8 -57t-27 -42q-22 -20 -54 -30t-85 -10q-35 0 -66.5 4t-54.5 8v75z" />
    <glyph glyph-name="seveneighths" unicode="&#x215e;" horiz-adv-x="1019" 
d="M639 185q9 9 18 15.5t16 11.5q-23 12 -36 30q-17 26 -17 72q0 26 11 49t34 40q38 27 114 27q77 0 119 -31q20 -14 29.5 -36t9.5 -48q0 -36 -25 -69q-6 -8 -14.5 -17.5t-16.5 -17.5q32 -16 50 -39t18 -61q0 -57 -40 -88q-21 -17 -52.5 -25.5t-76.5 -8.5q-50 0 -81.5 8.5
t-51.5 22.5q-20 15 -30.5 36.5t-10.5 53.5q0 44 33 75zM710 72q11 -6 28.5 -10t41.5 -4q45 0 67 16q20 14 20 41q0 16 -8.5 27t-29.5 19q-17 6 -42.5 11.5t-49.5 10.5q-6 -5 -16 -13t-18 -17q-10 -11 -12.5 -19.5t-2.5 -19.5q0 -30 22 -42zM727 257q14 -7 36.5 -12t50.5 -10
q5 5 13 14.5t15 18.5q15 20 15 40q0 25 -17 38q-20 15 -61 15q-42 0 -60 -13q-19 -15 -19 -40q0 -23 7 -33.5t20 -17.5zM214 0l392 754h100l-393 -754h-99zM55 335l196 342h-236v77h336v-74l-198 -345h-98z" />
    <glyph glyph-name="uni215F" unicode="&#x215f;" horiz-adv-x="466" 
d="M143 0l392 754h100l-393 -754h-99zM141 335v323l-116 -33v82l202 60v-432h-86z" />
    <glyph glyph-name="arrowleft" unicode="&#x2190;" horiz-adv-x="873" 
d="M37 377l287 238h139l-234 -193h579v-90h-579l234 -193h-139z" />
    <glyph glyph-name="arrowup" unicode="&#x2191;" horiz-adv-x="600" 
d="M255 0v579l-193 -234v139l238 287l238 -287v-139l-193 234v-579h-90z" />
    <glyph glyph-name="arrowright" unicode="&#x2192;" horiz-adv-x="873" 
d="M409 139l234 193h-579v90h579l-234 193h139l287 -238l-287 -238h-139z" />
    <glyph glyph-name="arrowdown" unicode="&#x2193;" horiz-adv-x="600" 
d="M62 270v139l193 -234v579h90v-579l193 234v-139l-238 -287z" />
    <glyph glyph-name="arrowboth" unicode="&#x2194;" horiz-adv-x="1082" 
d="M37 377l287 238h139l-234 -193h624l-234 193h139l287 -238l-287 -238h-139l234 193h-624l234 -193h-139z" />
    <glyph glyph-name="arrowupdn" unicode="&#x2195;" horiz-adv-x="600" 
d="M62 455v139l238 287l238 -287v-139l-193 234v-624l193 234v-139l-238 -287l-238 287v139l193 -234v624z" />
    <glyph glyph-name="uni2196" unicode="&#x2196;" horiz-adv-x="673" 
d="M166 507l25 -252h-89l-38 418l419 -38v-89l-253 25l371 -370l-1 -128z" />
    <glyph glyph-name="uni2197" unicode="&#x2197;" horiz-adv-x="673" 
d="M71 201l371 370l-253 -25v89l419 38l-38 -418h-89l25 252l-434 -434z" />
    <glyph glyph-name="uni2198" unicode="&#x2198;" horiz-adv-x="673" 
d="M174 144v89l253 -25l-371 370l1 128l434 -434l-25 252h89l38 -418z" />
    <glyph glyph-name="uni2199" unicode="&#x2199;" horiz-adv-x="673" 
d="M79 106l38 418h89l-25 -252l434 434l1 -128l-371 -370l253 25v-89z" />
    <glyph glyph-name="partialdiff" unicode="&#x2202;" horiz-adv-x="596" 
d="M86 398q25 48 66.5 74t122.5 26q36 0 72.5 -9.5t65.5 -19.5q-3 15 -8.5 34.5t-14 40t-21.5 41t-32 36.5q-35 31 -83 46.5t-88 23.5v84q32 -5 65 -12.5t65.5 -19.5t63 -30.5t57.5 -45.5q36 -36 59 -87t36 -107.5t17.5 -114.5t4.5 -109q0 -53 -10 -96.5t-28 -72.5
q-28 -45 -75 -71t-126 -26q-78 0 -123.5 21t-73.5 64q-42 64 -42 176q0 47 6.5 84.5t23.5 69.5zM151 245q0 -40 5.5 -68.5t19.5 -52.5q18 -32 47.5 -43t71.5 -11q41 0 70 11.5t46 39.5q15 25 21.5 55.5t6.5 73.5q0 40 -2.5 70t-7.5 58q-10 4 -27 9.5t-36.5 11t-40.5 9
t-40 3.5q-45 0 -72 -12t-42 -43q-12 -25 -16 -51t-4 -60z" />
    <glyph glyph-name="uni2206" unicode="&#x2206;" horiz-adv-x="768" 
d="M17 0l312 754h108l314 -754h-734zM383 635l-223 -542h447z" />
    <glyph glyph-name="product" unicode="&#x220f;" horiz-adv-x="705" 
d="M615 754v-884h-96v791h-333v-791h-96v884h525z" />
    <glyph glyph-name="summation" unicode="&#x2211;" horiz-adv-x="615" 
d="M50 -130v93l272 353l-265 347v91h503v-93h-380l265 -345l-272 -353h397v-93h-520z" />
    <glyph glyph-name="minus" unicode="&#x2212;" horiz-adv-x="700" 
d="M76 331v92h548v-92h-548z" />
    <glyph glyph-name="radical" unicode="&#x221a;" horiz-adv-x="700" 
d="M250 0l-131 331h-94v90h161l123 -313l304 741h103l-349 -849h-117z" />
    <glyph glyph-name="infinity" unicode="&#x221e;" horiz-adv-x="982" 
d="M255 543q69 0 125 -33.5t113 -87.5q29 27 56.5 49t55 38t57.5 25t64 9q94 0 142 -50t48 -131q0 -83 -49.5 -132.5t-136.5 -49.5q-67 0 -123 30t-117 91q-59 -56 -112 -88.5t-120 -32.5q-99 0 -145.5 47.5t-46.5 134.5q0 86 48 133.5t141 47.5zM258 264q21 0 40.5 5.5
t39.5 17.5t42.5 30.5t50.5 43.5q-33 29 -56.5 48t-43 30t-37.5 15.5t-39 4.5q-50 0 -76 -27t-26 -70q0 -98 105 -98zM552 361q30 -27 53 -46t43 -30t39.5 -16t42.5 -5q48 0 73.5 28.5t25.5 69.5q0 45 -26.5 71t-76.5 26q-22 0 -41.5 -5.5t-39.5 -17.5t-42.5 -30.5
t-50.5 -44.5z" />
    <glyph glyph-name="integral" unicode="&#x222b;" horiz-adv-x="600" 
d="M54 -193v90q17 -4 51 -10.5t63 -6.5q30 0 50.5 11t28.5 49q5 23 5.5 55.5t0.5 92.5v489q0 60 12 98t34 59t52.5 29t67.5 8q38 0 75 -6.5t52 -10.5v-89q-6 2 -20 4.5t-31 5.5t-35.5 5t-33.5 2q-38 0 -57 -20t-21 -86q-1 -19 -1 -64v-143v-268v-30v-42.5t-0.5 -44.5
t-1.5 -37q-2 -45 -15.5 -75t-35.5 -48t-50 -25.5t-59 -7.5q-47 0 -79 5.5t-52 10.5z" />
    <glyph glyph-name="approxequal" unicode="&#x2248;" horiz-adv-x="700" 
d="M213 353q18 0 33.5 -1t32.5 -5.5t39 -12.5t52 -22q22 -10 37 -16.5t27 -10.5t23.5 -5.5t26.5 -1.5q25 0 46 7t38.5 17.5t31 23t24.5 22.5v-102q-23 -23 -56.5 -41t-83.5 -18q-19 0 -33.5 2t-31 7t-37 13.5t-50.5 21.5q-22 10 -38 16t-29 9.5t-25 4.5t-27 1
q-25 0 -45.5 -7t-37.5 -17.5t-30 -22.5t-24 -23v103q23 22 54 40t83 18zM76 405v103q23 22 54 40t83 18q18 0 33.5 -1t32.5 -5.5t39 -12.5t52 -22q22 -10 37 -16.5t27 -10.5t23.5 -5.5t26.5 -1.5q25 0 46 7t38.5 17.5t31 23t24.5 22.5v-102q-23 -23 -56.5 -41t-83.5 -18
q-19 0 -33.5 2t-31 7t-37 13.5t-50.5 21.5q-22 10 -38 16t-29 9.5t-25 4.5t-27 1q-25 0 -45.5 -7t-37.5 -17.5t-30 -22.5t-24 -23z" />
    <glyph glyph-name="notequal" unicode="&#x2260;" horiz-adv-x="700" 
d="M260 316l78 121h-262v91h317l96 153h94l-95 -153h136v-91h-191l-78 -121h269v-91h-324l-95 -152h-94l95 152h-130v91h184z" />
    <glyph glyph-name="lessequal" unicode="&#x2264;" horiz-adv-x="700" 
d="M76 342v88l548 224v-97l-420 -171l420 -173v-97zM624 90v-90h-548v90h548z" />
    <glyph glyph-name="greaterequal" unicode="&#x2265;" horiz-adv-x="700" 
d="M76 654l548 -224v-88l-548 -226v97l420 173l-420 171v97zM76 0v90h548v-90h-548z" />
    <glyph glyph-name="lozenge" unicode="&#x25ca;" horiz-adv-x="700" 
d="M54 378l296 397l296 -397l-296 -395zM528 378l-178 243l-178 -243l178 -241z" />
    <glyph glyph-name="fi" unicode="&#xfb01;" horiz-adv-x="575" 
d="M76 0v520q0 23 1 51.5t7 55.5q5 23 17.5 43.5t32.5 36.5q34 26 82 41.5t98 26.5v-92q-32 -8 -65.5 -18.5t-54.5 -31.5q-12 -12 -16 -24.5t-6 -26.5q-2 -18 -2 -32.5v-28.5h145v-89h-145v-432h-94zM405 0v528h94v-528h-94zM404 613v141h96v-141h-96z" />
    <glyph glyph-name="fl" unicode="&#xfb02;" horiz-adv-x="575" 
d="M76 0v520q0 23 1 51.5t7 55.5q5 23 17.5 43.5t32.5 36.5q34 26 82 41.5t98 26.5v-92q-32 -8 -65.5 -18.5t-54.5 -31.5q-12 -12 -16 -24.5t-6 -26.5q-2 -18 -2 -32.5v-28.5h145v-89h-145v-432h-94zM405 0v754h94v-754h-94z" />
    <glyph glyph-name="zero.tf" horiz-adv-x="650" 
d="M81 377q0 100 9 177t44 127q32 45 77.5 67.5t113.5 22.5q60 0 104.5 -19.5t77.5 -61.5q40 -51 51 -131t11 -179q0 -103 -10.5 -178t-46.5 -130q-30 -46 -75.5 -67.5t-112.5 -21.5q-63 0 -107.5 17t-75.5 58q-39 51 -49.5 130.5t-10.5 188.5zM178 375q0 -88 6.5 -152.5
t30.5 -100.5q18 -27 44.5 -37t64.5 -10q37 0 65.5 13t47.5 46q22 38 28.5 98t6.5 148t-8 149t-30 97q-32 53 -111 53q-38 0 -65 -13t-46 -43q-23 -36 -28.5 -98t-5.5 -150z" />
    <glyph glyph-name="one.tf" horiz-adv-x="650" 
d="M423 775v-683h142v-92h-409v92h171v556l-223 -70v96z" />
    <glyph glyph-name="two.tf" horiz-adv-x="650" 
d="M67 93q35 37 79 85t87 95.5t80 89t57 65.5q32 39 51 71t19 73q0 23 -5.5 42.5t-22.5 34.5q-19 17 -47 23.5t-70 6.5q-23 0 -51.5 -4t-57 -10t-53.5 -12t-41 -10v95q18 5 43.5 10.5t54 10.5t57.5 8.5t54 3.5q71 0 113.5 -14t74.5 -46q26 -26 37.5 -61t11.5 -72
q0 -65 -27.5 -115.5t-75.5 -107.5q-32 -38 -65.5 -76t-65.5 -72t-60 -63.5t-50 -51.5h372v-92h-499v93z" />
    <glyph glyph-name="three.tf" horiz-adv-x="650" 
d="M80 5v93q39 -7 94.5 -15t107.5 -8q41 0 73 7t53 23q24 18 35 44.5t11 58.5q0 42 -16 69t-48 45q-20 11 -45 13t-57 2h-132v91h211l36 49q20 28 32 53.5t12 50.5q0 20 -5.5 36.5t-19.5 30.5q-17 16 -45.5 23.5t-76.5 7.5q-27 0 -57.5 -3.5t-60 -9t-55 -11t-41.5 -9.5v94
q18 4 44 9.5t55.5 10t60 8t55.5 3.5q72 0 116.5 -13t76.5 -44q26 -25 37.5 -58.5t11.5 -69.5q0 -33 -11.5 -63.5t-33.5 -62.5q-13 -19 -25.5 -37t-20.5 -29q13 -8 26 -18.5t27 -26.5q23 -26 34.5 -60.5t11.5 -79.5t-14 -86t-42 -70q-35 -37 -86.5 -53.5t-125.5 -16.5
q-60 0 -114.5 8t-88.5 14z" />
    <glyph glyph-name="four.tf" horiz-adv-x="650" 
d="M394 755h118l-350 -504h279v165h95v-416h-95v159h-397v92z" />
    <glyph glyph-name="five.tf" horiz-adv-x="650" 
d="M95 97q40 -8 91 -15t98 -7q44 0 78 8.5t55 31.5q20 22 28.5 48.5t8.5 61.5q0 33 -9.5 58.5t-32.5 44.5t-65.5 25.5t-120.5 6.5h-120v394h423v-92h-328v-210h79q72 0 118.5 -13t75.5 -35q41 -30 59 -77t18 -101q0 -108 -57 -172q-35 -38 -86.5 -54.5t-119.5 -16.5
q-54 0 -103 6.5t-90 13.5v94z" />
    <glyph glyph-name="six.tf" horiz-adv-x="650" 
d="M202 642q60 54 142.5 82.5t181.5 42.5v-93q-73 -12 -134 -31.5t-104 -51.5q-40 -29 -60 -66t-27 -76q18 1 51 2t67 1q77 0 123 -15.5t76 -47.5q29 -31 42 -72.5t13 -89.5q0 -45 -10 -87.5t-39 -77.5q-31 -38 -75.5 -58.5t-116.5 -20.5q-69 0 -114 18t-77 60
q-29 38 -41.5 91t-12.5 119q0 54 4 106.5t16.5 100.5t35 89.5t59.5 74.5zM184 264q0 -49 6.5 -82t23.5 -59q34 -50 118 -50q40 0 66 10t46 34q19 23 25.5 50.5t6.5 59.5q0 29 -6.5 53.5t-24.5 44.5q-21 23 -53 30t-83 7q-35 0 -68.5 -1t-52.5 -2q-2 -19 -3 -40t-1 -55z" />
    <glyph glyph-name="seven.tf" horiz-adv-x="650" 
d="M116 0l358 662h-424v92h536v-91l-358 -663h-112z" />
    <glyph glyph-name="eight.tf" horiz-adv-x="650" 
d="M116 333q15 17 32.5 32.5t29.5 24.5q-17 8 -32 19.5t-27 28.5q-33 47 -33 128q0 45 14 84t48 68q32 27 74.5 40t102.5 13q61 0 106.5 -15.5t79.5 -49.5q27 -27 39.5 -62.5t12.5 -76.5q0 -37 -10.5 -66t-31.5 -57q-11 -15 -25 -30t-28 -29q20 -11 36.5 -22t30.5 -27
q24 -26 35.5 -61.5t11.5 -74.5q0 -46 -15.5 -86t-47.5 -69q-37 -33 -83 -47.5t-111 -14.5q-64 0 -110 12t-79 38q-68 53 -68 166q0 37 11 71t37 63zM200 104q23 -19 53.5 -25.5t71.5 -6.5q39 0 66 7t48 23q25 19 35.5 42.5t10.5 57.5q0 35 -13.5 61t-45.5 44
q-27 15 -65 24.5t-101 21.5q-14 -11 -31.5 -26t-31.5 -32q-32 -41 -32 -94q0 -32 7.5 -56t27.5 -41zM223 464q23 -14 65.5 -25t99.5 -23q13 14 24.5 27.5t24.5 30.5q14 20 21.5 41t7.5 49q0 25 -6.5 46t-23.5 37q-20 19 -46.5 27t-64.5 8q-74 0 -111 -33q-19 -17 -25 -38
t-6 -48q0 -37 8.5 -61t31.5 -38z" />
    <glyph glyph-name="nine.tf" horiz-adv-x="650" 
d="M77 518q0 50 9.5 92t35.5 79q28 39 73 60.5t117 21.5q133 0 191 -85q32 -46 46 -118t14 -176q0 -60 -3 -104t-11 -88q-8 -42 -26.5 -80t-47.5 -67q-34 -34 -82.5 -52t-118.5 -18q-46 0 -91.5 7t-80.5 14v94q36 -8 81.5 -15.5t87.5 -7.5q74 0 117 29q26 17 41.5 43
t23.5 58q7 27 10 53t3 44q-33 -4 -76.5 -7.5t-91.5 -3.5q-66 0 -108.5 16.5t-68.5 51.5q-25 33 -34.5 71t-9.5 88zM174 518q0 -35 4.5 -58t20.5 -43q18 -23 47 -29.5t66 -6.5q38 0 81 4t73 8q0 76 -6.5 135t-30.5 97q-34 56 -115 56q-77 0 -110 -45q-19 -25 -24.5 -52.5
t-5.5 -65.5z" />
    <glyph glyph-name="zero.numr" horiz-adv-x="465" 
d="M98 712q20 26 55 39.5t79 13.5q86 0 129 -50q26 -31 34.5 -72t8.5 -100q0 -57 -9.5 -97t-33.5 -69q-21 -26 -52.5 -39.5t-76.5 -13.5q-43 0 -74.5 10.5t-53.5 33.5q-25 27 -34 67.5t-9 107.5q0 61 7.5 100.5t29.5 68.5zM145 543q0 -42 3.5 -71.5t17.5 -46.5
q11 -14 26.5 -18.5t39.5 -4.5q23 0 39 6.5t28 23.5q14 19 17.5 46t3.5 65q0 41 -3.5 68.5t-15.5 45.5q-20 30 -69 30q-24 0 -40.5 -6t-27.5 -21q-14 -18 -16.5 -45.5t-2.5 -71.5z" />
    <glyph glyph-name="one.numr" horiz-adv-x="301" 
d="M141 335v323l-116 -33v82l202 60v-432h-86z" />
    <glyph glyph-name="two.numr" horiz-adv-x="409" 
d="M41 410q20 17 43 37.5l46 41t43.5 39.5t35.5 34q26 26 36 42t10 33q0 22 -13 35q-15 15 -53 15q-20 0 -40.5 -2.5t-39.5 -6t-34 -7.5t-24 -6v80q21 5 60.5 12.5t80.5 7.5q72 0 110 -32q17 -14 27 -37t10 -49q0 -33 -10.5 -57t-36.5 -52q-35 -38 -71.5 -71.5t-60.5 -54.5
h202v-77h-321v75z" />
    <glyph glyph-name="three.numr" horiz-adv-x="430" 
d="M53 339v75q25 -5 62 -10.5t68 -5.5q15 0 31.5 1.5t30 7t22 16.5t8.5 31q0 32 -25 46q-11 6 -25.5 7.5t-34.5 1.5h-93v73h142l13 17q10 13 14.5 22.5t4.5 23.5q0 22 -16 34q-17 12 -62 12q-40 0 -79.5 -8t-57.5 -13v75q21 5 61 12.5t81 7.5q45 0 72.5 -8t47.5 -22
q17 -13 26.5 -34t9.5 -42q0 -20 -5 -35t-14 -30q-7 -11 -15.5 -22.5t-12.5 -16.5q19 -14 32 -31q21 -28 21 -72q0 -53 -37 -90q-20 -19 -52.5 -28.5t-81.5 -9.5q-33 0 -73 5t-63 10z" />
    <glyph glyph-name="four.numr" horiz-adv-x="424" 
d="M224 754h103l-195 -263h136v79h83v-235h-83v79h-240v77z" />
    <glyph glyph-name="five.numr" horiz-adv-x="424" 
d="M69 411q26 -5 56.5 -9t64.5 -4q30 0 47.5 4.5t28.5 15.5q8 8 11 18t3 24q0 26 -20 40q-13 9 -38 11.5t-82 2.5h-66v240h274v-77h-192v-90h44q39 0 66 -5.5t44 -15.5q27 -15 40.5 -43t13.5 -60t-8 -57t-27 -42q-22 -20 -54 -30t-85 -10q-35 0 -66.5 4t-54.5 8v75z" />
    <glyph glyph-name="six.numr" horiz-adv-x="443" 
d="M133 693q38 31 94.5 48t131.5 25v-75q-52 -7 -90 -16t-64 -25q-24 -14 -36 -29.5t-16 -33.5q20 1 44 1.5t50 0.5q38 0 66 -8.5t46 -28.5q16 -17 23 -41t7 -50t-8.5 -50t-25.5 -42q-21 -23 -52.5 -34t-78.5 -11q-88 0 -129 45q-19 20 -26.5 50.5t-7.5 62.5q0 36 2.5 66.5
t10 56t21.5 47.5t38 41zM144 477q0 -19 3 -34t13 -27q9 -11 26.5 -16t37.5 -5q22 0 37 3.5t26 14.5q19 19 19 48q0 27 -13 43q-9 11 -24.5 14.5t-36.5 3.5q-25 0 -46 -0.5t-40 -1.5q-2 -11 -2 -21.5v-21.5z" />
    <glyph glyph-name="seven.numr" horiz-adv-x="372" 
d="M55 335l196 342h-236v77h336v-74l-198 -345h-98z" />
    <glyph glyph-name="eight.numr" horiz-adv-x="481" 
d="M102 520q9 9 18 15.5t16 11.5q-23 12 -36 30q-17 26 -17 72q0 26 11 49t34 40q38 27 114 27q77 0 119 -31q20 -14 29.5 -36t9.5 -48q0 -36 -25 -69q-6 -8 -14.5 -17.5t-16.5 -17.5q32 -16 50 -39t18 -61q0 -57 -40 -88q-21 -17 -52.5 -25.5t-76.5 -8.5q-50 0 -81.5 8.5
t-51.5 22.5q-20 15 -30.5 36.5t-10.5 53.5q0 44 33 75zM173 407q11 -6 28.5 -10t41.5 -4q45 0 67 16q20 14 20 41q0 16 -8.5 27t-29.5 19q-17 6 -42.5 11.5t-49.5 10.5q-6 -5 -16 -13t-18 -17q-10 -11 -12.5 -19.5t-2.5 -19.5q0 -30 22 -42zM190 592q14 -7 36.5 -12
t50.5 -10q5 5 13 14.5t15 18.5q15 20 15 40q0 25 -17 38q-20 15 -61 15q-42 0 -60 -13q-19 -15 -19 -40q0 -23 7 -33.5t20 -17.5z" />
    <glyph glyph-name="nine.numr" horiz-adv-x="443" 
d="M55 622q0 26 7.5 51.5t22.5 42.5q17 20 48.5 34.5t82.5 14.5q45 0 76 -13t51 -37q21 -26 30 -67t9 -86q0 -40 -1.5 -70.5t-12.5 -60.5q-16 -48 -52 -74q-44 -33 -119 -33q-35 0 -63 4t-58 9v75q28 -5 56 -9.5t58 -4.5q44 0 67 14q23 13 33 37q5 13 7 23t2 22
q-20 -2 -47 -4.5t-62 -2.5q-77 0 -109 36q-14 17 -20 41.5t-6 57.5zM138 623q0 -17 2.5 -31t10.5 -22q8 -9 22.5 -12.5t32.5 -3.5q26 0 52.5 2.5t40.5 4.5q0 37 -3.5 63.5t-15.5 43.5q-18 26 -64 26q-43 0 -60 -18q-11 -11 -14.5 -24t-3.5 -29z" />
    <glyph glyph-name="zero.dnom" horiz-adv-x="465" 
d="M98 377q20 26 55 39.5t79 13.5q86 0 129 -50q26 -31 34.5 -72t8.5 -100q0 -57 -9.5 -97t-33.5 -69q-21 -26 -52.5 -39.5t-76.5 -13.5q-43 0 -74.5 10.5t-53.5 33.5q-25 27 -34 67.5t-9 107.5q0 61 7.5 100.5t29.5 68.5zM145 208q0 -42 3.5 -71.5t17.5 -46.5
q11 -14 26.5 -18.5t39.5 -4.5q23 0 39 6.5t28 23.5q14 19 17.5 46t3.5 65q0 41 -3.5 68.5t-15.5 45.5q-20 30 -69 30q-24 0 -40.5 -6t-27.5 -21q-14 -18 -16.5 -45.5t-2.5 -71.5z" />
    <glyph glyph-name="one.dnom" horiz-adv-x="301" 
d="M141 0v323l-116 -33v82l202 60v-432h-86z" />
    <glyph glyph-name="two.dnom" horiz-adv-x="409" 
d="M41 75q20 17 43 37.5l46 41t43.5 39.5t35.5 34q26 26 36 42t10 33q0 22 -13 35q-15 15 -53 15q-20 0 -40.5 -2.5t-39.5 -6t-34 -7.5t-24 -6v80q21 5 60.5 12.5t80.5 7.5q72 0 110 -32q17 -14 27 -37t10 -49q0 -33 -10.5 -57t-36.5 -52q-35 -38 -71.5 -71.5t-60.5 -54.5
h202v-77h-321v75z" />
    <glyph glyph-name="three.dnom" horiz-adv-x="430" 
d="M53 4v75q25 -5 62 -10.5t68 -5.5q15 0 31.5 1.5t30 7t22 16.5t8.5 31q0 32 -25 46q-11 6 -25.5 7.5t-34.5 1.5h-93v73h142l13 17q10 13 14.5 22.5t4.5 23.5q0 22 -16 34q-17 12 -62 12q-40 0 -79.5 -8t-57.5 -13v75q21 5 61 12.5t81 7.5q45 0 72.5 -8t47.5 -22
q17 -13 26.5 -34t9.5 -42q0 -20 -5 -35t-14 -30q-7 -11 -15.5 -22.5t-12.5 -16.5q19 -14 32 -31q21 -28 21 -72q0 -53 -37 -90q-20 -19 -52.5 -28.5t-81.5 -9.5q-33 0 -73 5t-63 10z" />
    <glyph glyph-name="four.dnom" horiz-adv-x="424" 
d="M224 419h103l-195 -263h136v79h83v-235h-83v79h-240v77z" />
    <glyph glyph-name="five.dnom" horiz-adv-x="424" 
d="M69 76q26 -5 56.5 -9t64.5 -4q30 0 47.5 4.5t28.5 15.5q8 8 11 18t3 24q0 26 -20 40q-13 9 -38 11.5t-82 2.5h-66v240h274v-77h-192v-90h44q39 0 66 -5.5t44 -15.5q27 -15 40.5 -43t13.5 -60t-8 -57t-27 -42q-22 -20 -54 -30t-85 -10q-35 0 -66.5 4t-54.5 8v75z" />
    <glyph glyph-name="six.dnom" horiz-adv-x="443" 
d="M133 358q38 31 94.5 48t131.5 25v-75q-52 -7 -90 -16t-64 -25q-24 -14 -36 -29.5t-16 -33.5q20 1 44 1.5t50 0.5q38 0 66 -8.5t46 -28.5q16 -17 23 -41t7 -50t-8.5 -50t-25.5 -42q-21 -23 -52.5 -34t-78.5 -11q-88 0 -129 45q-19 20 -26.5 50.5t-7.5 62.5q0 36 2.5 66.5
t10 56t21.5 47.5t38 41zM144 142q0 -19 3 -34t13 -27q9 -11 26.5 -16t37.5 -5q22 0 37 3.5t26 14.5q19 19 19 48q0 27 -13 43q-9 11 -24.5 14.5t-36.5 3.5q-25 0 -46 -0.5t-40 -1.5q-2 -11 -2 -21.5v-21.5z" />
    <glyph glyph-name="seven.dnom" horiz-adv-x="372" 
d="M55 0l196 342h-236v77h336v-74l-198 -345h-98z" />
    <glyph glyph-name="eight.dnom" horiz-adv-x="481" 
d="M102 185q9 9 18 15.5t16 11.5q-23 12 -36 30q-17 26 -17 72q0 26 11 49t34 40q38 27 114 27q77 0 119 -31q20 -14 29.5 -36t9.5 -48q0 -36 -25 -69q-6 -8 -14.5 -17.5t-16.5 -17.5q32 -16 50 -39t18 -61q0 -57 -40 -88q-21 -17 -52.5 -25.5t-76.5 -8.5q-50 0 -81.5 8.5
t-51.5 22.5q-20 15 -30.5 36.5t-10.5 53.5q0 44 33 75zM173 72q11 -6 28.5 -10t41.5 -4q45 0 67 16q20 14 20 41q0 16 -8.5 27t-29.5 19q-17 6 -42.5 11.5t-49.5 10.5q-6 -5 -16 -13t-18 -17q-10 -11 -12.5 -19.5t-2.5 -19.5q0 -30 22 -42zM190 257q14 -7 36.5 -12t50.5 -10
q5 5 13 14.5t15 18.5q15 20 15 40q0 25 -17 38q-20 15 -61 15q-42 0 -60 -13q-19 -15 -19 -40q0 -23 7 -33.5t20 -17.5z" />
    <glyph glyph-name="nine.dnom" horiz-adv-x="443" 
d="M55 287q0 26 7.5 51.5t22.5 42.5q17 20 48.5 34.5t82.5 14.5q45 0 76 -13t51 -37q21 -26 30 -67t9 -86q0 -40 -1.5 -70.5t-12.5 -60.5q-16 -48 -52 -74q-44 -33 -119 -33q-35 0 -63 4t-58 9v75q28 -5 56 -9.5t58 -4.5q44 0 67 14q23 13 33 37q5 13 7 23t2 22
q-20 -2 -47 -4.5t-62 -2.5q-77 0 -109 36q-14 17 -20 41.5t-6 57.5zM138 288q0 -17 2.5 -31t10.5 -22q8 -9 22.5 -12.5t32.5 -3.5q26 0 52.5 2.5t40.5 4.5q0 37 -3.5 63.5t-15.5 43.5q-18 26 -64 26q-43 0 -60 -18q-11 -11 -14.5 -24t-3.5 -29z" />
    <glyph glyph-name="IJacute" horiz-adv-x="646" 
d="M90 0v754h96v-754h-96zM245 -6q14 4 34 11t41 15t41.5 17.5t36.5 18.5q20 12 33 24t20 32q8 22 9 54t1 64v524h96v-527q0 -51 -1.5 -89.5t-12.5 -69.5q-16 -44 -63 -74q-24 -15 -55.5 -30t-64.5 -28t-63.5 -23.5t-51.5 -16.5v98zM75 806l128 144h111l-131 -144h-108z
M445 806l128 144h111l-131 -144h-108z" />
    <glyph glyph-name="ijacute" horiz-adv-x="496" 
d="M61 610l128 144h111l-131 -144h-108zM308 610l128 144h111l-131 -144h-108zM76 0v528h94v-528h-94zM192 -123q8 3 20.5 8.5t26 12.5t26 14t20.5 13q14 11 21 22t12 26q5 17 6 42.5t1 48.5v464h95v-475q0 -26 -1 -59.5t-7 -53.5q-16 -50 -68 -85q-31 -21 -75.5 -39
t-76.5 -28v89z" />
    <glyph glyph-name="space.tf" horiz-adv-x="325" 
 />
    <glyph glyph-name="period.tf" horiz-adv-x="325" 
d="M105 0v152h115v-152h-115z" />
    <glyph glyph-name="comma.tf" horiz-adv-x="325" 
d="M90 -179q5 22 9.5 44t7.5 47t5 54t2 66v120h106v-127q0 -63 -18.5 -114.5t-35.5 -89.5h-76z" />
    <glyph glyph-name="colon.tf" horiz-adv-x="325" 
d="M105 0v152h115v-152h-115zM220 528v-152h-115v152h115z" />
    <glyph glyph-name="dollar.tf" horiz-adv-x="650" 
d="M131 712q27 24 63.5 34.5t86.5 12.5v98h89v-100q23 -3 48.5 -7t50.5 -9.5t48 -10.5t40 -9v-96q-27 7 -59 14.5t-63.5 13.5t-62 10t-54.5 4q-42 0 -70.5 -4.5t-47.5 -20.5q-17 -14 -25 -35t-8 -47q0 -23 4 -41.5t21 -30.5t38.5 -21t51.5 -20l132 -45q43 -14 71.5 -29.5
t50.5 -38.5q44 -49 44 -129q0 -48 -16 -86.5t-48 -66.5q-31 -26 -65.5 -38.5t-80.5 -16.5v-110h-89v109q-51 3 -106.5 12.5t-98.5 17.5v96q57 -13 120.5 -23.5t123.5 -10.5q39 0 66.5 4.5t53.5 21.5q23 15 32.5 38t9.5 50q0 22 -4.5 39t-17.5 31q-14 14 -36 23.5t-55 20.5
l-141 48q-39 14 -66.5 28t-47.5 34q-24 24 -34.5 56t-10.5 74q0 46 14 86.5t48 69.5z" />
    <glyph glyph-name="Euro.tf" horiz-adv-x="650" 
d="M77 375q0 87 10 158t36 117q33 59 91 89.5t165 30.5q62 0 117.5 -9.5t96.5 -17.5v-92q-44 9 -97 18t-111 9q-70 0 -113 -16t-66 -58q-12 -22 -18 -54t-8 -58h306v-83h-311q-1 -9 -1 -15.5v-12.5v-12.5t1 -17.5h311v-83h-307q2 -29 7 -59t13 -49q18 -45 61 -64.5
t121 -19.5q57 0 108.5 5t103.5 13v-93q-48 -6 -102.5 -11.5t-117.5 -5.5q-58 0 -100 9t-72.5 26.5t-51.5 42t-36 55.5q-19 39 -27.5 107t-8.5 151z" />
    <glyph glyph-name="sterling.tf" horiz-adv-x="650" 
d="M105 570q0 38 7 77.5t34 68.5q29 32 67 43.5t102 11.5q25 0 54.5 -3t61 -7.5t62 -10t56.5 -11.5v-94l-55 11t-60.5 11t-59.5 8.5t-52 3.5q-39 0 -62.5 -6t-38.5 -24q-14 -16 -17 -38t-3 -45v-92h249v-87h-249v-295h387v-92h-483v570z" />
    <glyph glyph-name="yen.tf" horiz-adv-x="650" 
d="M15 754h112l200 -362l200 362h108l-158 -280h127v-87h-173l-57 -100v-287h-96v287l-58 100h-173v87h126z" />
    <glyph glyph-name="uni20BA.tf" horiz-adv-x="650" 
d="M203 754v-193l273 84v-87l-273 -84v-59l273 84v-87l-273 -84v-253q80 0 130 11.5t84 45.5q35 35 46.5 83t13.5 92h98q-2 -55 -16.5 -115t-50.5 -105q-20 -25 -45 -44.5t-60 -32.5t-84 -20t-117 -7q-33 0 -57.5 1t-37.5 3v767h96z" />
    <glyph glyph-name="uni20BD.tf" horiz-adv-x="650" 
d="M101 0v754h262q65 0 106.5 -14t73.5 -46q29 -29 43.5 -72t14.5 -92q0 -52 -11.5 -94.5t-43.5 -77.5q-29 -32 -69 -46t-91 -18q-34 -2 -81.5 -2.5t-107.5 -0.5v-59h289v-83h-289v-149h-96zM197 383q53 0 97 0.5t82 3.5q36 3 61 12t41 31q15 20 20 44.5t5 55.5
q0 32 -8 58.5t-27 43.5q-18 17 -44.5 23.5t-68.5 6.5h-158v-279z" />
    <glyph glyph-name="parenleft.case" horiz-adv-x="326" 
d="M79 605q0 48 7 91.5t36 78.5q33 41 79 62.5t94 32.5v-88q-29 -11 -54 -24.5t-42 -38.5t-21 -60.5t-4 -76.5v-410q0 -41 3.5 -77.5t21.5 -60.5t42.5 -37.5t53.5 -24.5v-88q-48 11 -94.5 32t-78.5 63q-28 35 -35.5 78.5t-7.5 91.5v456z" />
    <glyph glyph-name="parenright.case" horiz-adv-x="326" 
d="M31 -116v88q29 11 54 24.5t42 37.5t21 60.5t4 77.5v410q0 41 -3.5 76.5t-21.5 60.5t-42.5 38.5t-53.5 24.5v88q48 -11 94.5 -32t78.5 -63q28 -35 35.5 -78.5t7.5 -91.5v-456q0 -48 -7 -91.5t-36 -78.5q-33 -41 -79 -62.5t-94 -32.5z" />
    <glyph glyph-name="bracketleft.case" horiz-adv-x="334" 
d="M299 850v-89h-121v-768h121v-89h-216v946h216z" />
    <glyph glyph-name="bracketright.case" horiz-adv-x="334" 
d="M250 850v-946h-216v89h121v768h-121v89h216z" />
    <glyph glyph-name="braceleft.case" horiz-adv-x="373" 
d="M82 443q22 9 32.5 23t10.5 40v209q0 38 11.5 68t32.5 46q13 10 37 15.5t50 5.5h84v-88h-52q-20 0 -35.5 -5t-23.5 -17q-5 -8 -7 -22.5t-2 -34.5v-199q0 -33 -10.5 -54t-30.5 -35q-18 -12 -51 -18q41 -9 61 -26q15 -14 23 -34t8 -49v-197q0 -41 11 -60t57 -19h52v-88h-84
q-29 0 -55 7.5t-41 21.5q-17 15 -26 43t-9 63v207q0 28 -11 42t-38 24q-12 5 -24 8t-23 5v104q15 3 27 6t26 8z" />
    <glyph glyph-name="braceright.case" horiz-adv-x="373" 
d="M117 850q26 0 50 -5.5t37 -15.5q21 -16 32.5 -46t11.5 -68v-209q0 -26 10.5 -40.5t32.5 -22.5q14 -5 26 -8t27 -6v-104q-11 -2 -23 -5.5t-24 -7.5q-27 -9 -38 -23.5t-11 -42.5v-207q0 -35 -9 -63t-26 -43q-15 -14 -41 -21.5t-55 -7.5h-84v88h52q18 0 33.5 4.5t23.5 14.5
q7 8 9 23.5t2 36.5v197q0 29 8 49t23 34q20 17 61 26q-33 6 -51 18q-41 26 -41 89v199q0 20 -2 34.5t-7 22.5q-8 12 -23.5 17t-35.5 5h-52v88h84z" />
    <glyph glyph-name="hyphen.case" horiz-adv-x="429" 
d="M62 330v95h304v-95h-304z" />
    <glyph glyph-name="endash.case" horiz-adv-x="600" 
d="M50 331v93h500v-93h-500z" />
    <glyph glyph-name="emdash.case" horiz-adv-x="1000" 
d="M0 331v93h1000v-93h-1000z" />
    <glyph glyph-name="guillemotleft.case" horiz-adv-x="580" 
d="M451 582h115l-172 -206l172 -206h-115l-172 206zM51 376l172 206h115l-172 -206l172 -206h-115z" />
    <glyph glyph-name="guillemotright.case" horiz-adv-x="580" 
d="M242 170l172 206l-172 206h115l172 -206l-172 -206h-115zM186 376l-172 206h115l172 -206l-172 -206h-115z" />
    <glyph glyph-name="guilsinglleft.case" horiz-adv-x="352" 
d="M223 170l-172 206l172 206h115l-172 -206l172 -206h-115z" />
    <glyph glyph-name="guilsinglright.case" horiz-adv-x="352" 
d="M14 170l172 206l-172 206h115l172 -206l-172 -206h-115z" />
    <glyph glyph-name="questiondown.case" horiz-adv-x="528" 
d="M115 323q20 25 40.5 49.5t49.5 56.5t40.5 51.5t16.5 33.5h106q-11 -30 -25 -57t-46 -62q-26 -29 -50 -56.5t-44 -52.5q-21 -27 -35 -54.5t-14 -62.5q0 -20 6 -37t24 -33q15 -14 39.5 -19t58.5 -5q39 0 86.5 9.5t91.5 20.5v-94q-40 -10 -88.5 -19t-100.5 -9
q-51 0 -88.5 10t-66.5 34t-44 61t-15 76q0 48 14 84.5t44 74.5zM260 602v152h111v-152h-111z" />
    <glyph glyph-name="exclamdown.case" horiz-adv-x="291" 
d="M89 514h94q0 -11 0.5 -50t1 -92t0.5 -113.5v-114.5v-144h-98v144v114.5t0.5 113.5t1 92t0.5 50zM191 754v-152h-110v152h110z" />
    </font>
</defs>
</svg>
