<?xml version="1.0" standalone="no"?>
<!DOCTYPE svg PUBLIC "-//W3C//DTD SVG 1.1//EN" "http://www.w3.org/Graphics/SVG/1.1/DTD/svg11.dtd" >
<svg xmlns="http://www.w3.org/2000/svg" xmlns:xlink="http://www.w3.org/1999/xlink" version="1.1">
<metadata>
Created by FontForge 20170731 at Wed Dec  4 13:10:48 2019
 By Aleksey,,,
(c) Bayerische Motoren Werke AG (BMW AG) 2019. The font is subject to copyright protection and other intellectual property rights. All rights reserved.
</metadata>
<defs>
<font id="BMWTypeNextLatinTT-Light" horiz-adv-x="578" >
  <font-face 
    font-family="BMWTypeNext Latin TT Light"
    font-weight="300"
    font-stretch="normal"
    units-per-em="1000"
    panose-1="0 0 0 0 0 0 0 0 0 0"
    ascent="800"
    descent="-200"
    x-height="528"
    cap-height="754"
    bbox="-139 -280 1367 1060"
    underline-thickness="50"
    underline-position="-276"
    unicode-range="U+000D-FB02"
  />
<missing-glyph horiz-adv-x="600" 
d="M50 754h500v-754h-500v754zM515 63v627l-194 -313zM85 690v-627l194 314zM491 720h-382l191 -309zM109 34h382l-191 309z" />
    <glyph glyph-name=".notdef" horiz-adv-x="600" 
d="M50 754h500v-754h-500v754zM515 63v627l-194 -313zM85 690v-627l194 314zM491 720h-382l191 -309zM109 34h382l-191 309z" />
    <glyph glyph-name=".null" horiz-adv-x="0" 
 />
    <glyph glyph-name=".null" horiz-adv-x="0" 
 />
    <glyph glyph-name="uni000D" unicode="&#xd;" horiz-adv-x="253" 
 />
    <glyph glyph-name="space" unicode=" " horiz-adv-x="255" 
 />
    <glyph glyph-name="exclam" unicode="!" horiz-adv-x="274" 
d="M115 625v129h64v-129v-119t-0.5 -118.5t-1 -96t-0.5 -51.5h-60q0 11 -0.5 50.5t-1 94.5t-0.5 118.5v121.5zM108 0v136h78v-136h-78z" />
    <glyph glyph-name="quotedbl" unicode="&#x22;" horiz-adv-x="398" 
d="M239 754h74v-80q0 -20 -1 -55.5t-2.5 -71t-3 -64t-1.5 -34.5h-58q0 6 -1.5 34.5t-3 64t-2.5 71t-1 55.5v80zM85 674v80h74v-80q0 -20 -1 -55.5t-2.5 -71t-3 -64t-1.5 -34.5h-58q0 6 -1.5 34.5t-3 64t-2.5 71t-1 55.5z" />
    <glyph glyph-name="numbersign" unicode="#" horiz-adv-x="650" 
d="M36 199v57h123l38 244h-115v57h123l31 197h60l-31 -197h174l31 197h60l-31 -197h115v-57h-123l-38 -244h115v-57h-123l-31 -199h-60l31 199h-174l-31 -199h-60l31 199h-115zM393 256l38 244h-174l-38 -244h174z" />
    <glyph glyph-name="dollar" unicode="$" horiz-adv-x="668" 
d="M135 702q26 26 67.5 39t105.5 15v101h58v-103q24 -2 51 -6.5t53.5 -10t50.5 -11t42 -10.5v-62q-25 6 -55 13.5t-61 13.5t-62 10t-59 4q-100 0 -140 -33q-23 -19 -31.5 -44.5t-8.5 -54.5q0 -26 4 -45t20 -34q13 -12 40 -23.5t62 -23.5l154 -52q52 -17 80.5 -34.5
t48.5 -43.5q31 -41 31 -109q0 -44 -14 -80t-43 -62q-32 -29 -70.5 -42t-92.5 -16v-111h-58v111q-56 2 -116.5 13t-102.5 20v62q49 -11 115 -23t126 -12q52 0 82 6t57 25q26 18 39.5 47t13.5 61q0 25 -4.5 43.5t-19.5 35.5t-40 28t-63 24l-156 53q-42 14 -74 30t-50 38
q-19 23 -26 50t-7 64q0 35 12 72.5t41 66.5z" />
    <glyph glyph-name="percent" unicode="%" horiz-adv-x="1034" 
d="M646 206q0 64 5.5 103t25.5 68q17 25 50.5 39t74.5 14q84 0 123 -54q23 -32 28.5 -72.5t5.5 -97.5q0 -54 -7.5 -94t-27.5 -68q-19 -26 -48.5 -40.5t-73.5 -14.5q-82 0 -118 43q-20 25 -29 64t-9 110zM704 206q0 -46 3.5 -80t17.5 -54q12 -17 30 -22.5t47 -5.5
q26 0 46 8.5t33 29.5q14 23 17 53.5t3 70.5q0 50 -3.5 82t-17.5 53q-23 34 -79 34q-25 0 -44 -6t-31 -22q-17 -21 -19.5 -53.5t-2.5 -87.5zM304 0l370 754h66l-370 -754h-66zM75 541q0 64 5.5 103t25.5 68q17 25 50.5 39t74.5 14q84 0 123 -54q23 -32 28.5 -72.5t5.5 -97.5
q0 -54 -7.5 -94t-27.5 -68q-19 -26 -48.5 -40.5t-73.5 -14.5q-82 0 -118 43q-20 25 -29 64t-9 110zM133 541q0 -46 3.5 -80t17.5 -54q12 -17 30 -22.5t47 -5.5q26 0 46 8.5t33 29.5q14 23 17 53.5t3 70.5q0 50 -3.5 82t-17.5 53q-23 34 -79 34q-25 0 -44 -6t-31 -22
q-17 -21 -19.5 -53.5t-2.5 -87.5z" />
    <glyph glyph-name="ampersand" unicode="&#x26;" horiz-adv-x="731" 
d="M129 343q18 21 41.5 42t49.5 42q-12 13 -19 21.5t-17 22.5q-17 25 -30 56t-13 72q0 35 10.5 68.5t40.5 61.5q28 26 65 34t81 8q20 0 43.5 -3t46.5 -7.5t44 -9.5t35 -8v-60q-36 9 -84.5 18.5t-84.5 9.5q-33 0 -57 -5.5t-41 -19.5q-21 -18 -28 -39t-7 -48q0 -36 12.5 -59.5
t30.5 -47.5q11 -15 32 -38t46.5 -49.5t52.5 -54t49 -50.5h-85l-82 84q-24 -19 -45 -38t-43 -44q-27 -31 -36.5 -60.5t-9.5 -63.5q0 -72 37 -105q34 -30 97 -30q29 0 53.5 6.5t50.5 23.5q26 16 52 41t51 54l109 132h79l-107 -130l160 -170h-87l-114 121q-12 -14 -22 -24.5
t-20 -20.5t-21 -19t-25 -20q-33 -26 -70.5 -40t-88.5 -14q-47 0 -82.5 11t-61.5 36q-54 51 -54 147q0 45 14 83t52 83z" />
    <glyph glyph-name="quotesingle" unicode="'" horiz-adv-x="244" 
d="M85 754h74v-80q0 -20 -1 -55.5t-2.5 -71t-3 -64t-1.5 -34.5h-58q0 6 -1.5 34.5t-3 64t-2.5 71t-1 55.5v80z" />
    <glyph glyph-name="parenleft" unicode="(" horiz-adv-x="314" 
d="M90 513q0 45 5.5 88t31.5 79q27 38 66.5 60t86.5 35v-61q-33 -13 -57.5 -29t-43.5 -44t-23 -63.5t-4 -77.5v-436q0 -42 4 -77.5t23 -63.5t43.5 -44t57.5 -29v-61q-47 13 -86.5 35t-66.5 60q-26 36 -31.5 79t-5.5 88v462z" />
    <glyph glyph-name="parenright" unicode=")" horiz-adv-x="314" 
d="M34 -211v61q33 13 57.5 29t43.5 44t23 63.5t4 77.5v436q0 42 -4 77.5t-23 63.5t-43.5 44t-57.5 29v61q47 -13 86.5 -35t66.5 -60q26 -36 31.5 -79t5.5 -88v-462q0 -45 -5.5 -88t-31.5 -79q-27 -38 -66.5 -60t-86.5 -35z" />
    <glyph glyph-name="asterisk" unicode="*" horiz-adv-x="541" 
d="M95 625v66l149 -87l-2 150h57l-2 -150l149 87v-66l-121 -69l121 -69v-66l-149 87l2 -150h-57l2 150l-149 -87v66l121 69z" />
    <glyph glyph-name="plus" unicode="+" horiz-adv-x="700" 
d="M319 407v240h62v-240h235v-60h-235v-240h-62v240h-235v60h235z" />
    <glyph glyph-name="comma" unicode="," horiz-adv-x="253" 
d="M65 -173q6 24 10.5 46.5t8 48t5.5 56.5t2 72v86h77v-112q0 -58 -16 -106.5t-33 -90.5h-54z" />
    <glyph glyph-name="hyphen" unicode="-" horiz-adv-x="410" 
d="M70 233v62h270v-62h-270z" />
    <glyph glyph-name="period" unicode="." horiz-adv-x="253" 
d="M85 0v136h83v-136h-83z" />
    <glyph glyph-name="slash" unicode="/" horiz-adv-x="372" 
d="M12 0l281 754h67l-281 -754h-67z" />
    <glyph glyph-name="zero" unicode="0" horiz-adv-x="655" 
d="M90 377q0 100 8.5 175.5t40.5 129.5q26 44 73.5 66.5t113.5 22.5q63 0 110 -20.5t76 -68.5q32 -51 42.5 -128.5t10.5 -170.5q0 -98 -9.5 -176t-39.5 -130q-27 -47 -73.5 -70.5t-116.5 -23.5q-63 0 -108.5 18t-72.5 58q-33 48 -44 129t-11 189zM154 377q0 -95 7.5 -168.5
t34.5 -112.5q20 -29 53 -41t78 -12t81 16t57 56q22 42 29 108.5t7 157.5q0 94 -10 162.5t-33 106.5q-19 31 -53.5 46t-79.5 15q-41 0 -74 -13t-53 -41q-28 -39 -36 -108t-8 -172z" />
    <glyph glyph-name="one" unicode="1" horiz-adv-x="357" 
d="M185 0v690l-183 -59v64l245 79v-774h-62z" />
    <glyph glyph-name="two" unicode="2" horiz-adv-x="554" 
d="M25 64q38 43 84 95t89 101.5t77.5 90.5t50.5 60q39 49 62.5 87.5t23.5 88.5q0 26 -6 49t-24 40q-20 18 -48 26.5t-75 8.5q-23 0 -52 -4t-57.5 -10t-53 -12.5t-39.5 -10.5v61q16 5 40.5 11t52.5 11.5t56.5 9.5t52.5 4q66 0 107 -14t70 -46q23 -25 31.5 -57t8.5 -67
q0 -58 -25.5 -107t-71.5 -106q-38 -47 -79 -94.5t-78.5 -89.5t-68.5 -76t-49 -54h401v-60h-480v64z" />
    <glyph glyph-name="three" unicode="3" horiz-adv-x="577" 
d="M45 5v61q19 -3 43 -7t49.5 -7.5t51 -6t48.5 -2.5q41 0 75.5 7.5t57.5 24.5q29 22 42 55t13 71q0 52 -18.5 85.5t-54.5 53.5q-20 11 -43.5 14t-58.5 3h-129v60h207l44 61q23 32 35 59.5t12 56.5q0 23 -6 43.5t-23 36.5q-19 18 -50 27.5t-82 9.5q-27 0 -57 -3.5t-58 -9
t-52.5 -11t-39.5 -9.5v61q18 5 43 10.5t53 10t57 8t54 3.5q69 0 110 -12.5t71 -42.5q23 -23 33.5 -55.5t10.5 -65.5q0 -32 -12 -64.5t-35 -67.5q-14 -20 -27.5 -39t-22.5 -31q13 -8 28 -19.5t29 -28.5q22 -25 34 -60t12 -82q0 -45 -14 -86.5t-43 -70.5q-34 -35 -81 -49
t-114 -14q-52 0 -105.5 8t-86.5 14z" />
    <glyph glyph-name="four" unicode="4" horiz-adv-x="606" 
d="M399 754h77l-351 -524h326v185h62v-415h-62v169h-404v60z" />
    <glyph glyph-name="five" unicode="5" horiz-adv-x="582" 
d="M88 64q42 -8 87 -14.5t91 -6.5q45 0 80.5 10t59.5 37q42 48 42 131q0 40 -11.5 72.5t-37.5 52.5t-71 28t-132 8h-97v372h389v-60h-327v-252h81q66 0 109.5 -10t72.5 -27q48 -29 68 -78.5t20 -104.5q0 -51 -13 -94t-41 -75q-35 -40 -82.5 -55t-109.5 -15q-51 0 -95.5 6.5
t-82.5 13.5v61z" />
    <glyph glyph-name="six" unicode="6" horiz-adv-x="624" 
d="M197 640q29 27 65 47.5t76.5 36t83 26t84.5 17.5v-61q-81 -15 -148 -40.5t-110 -63.5q-38 -34 -58 -77.5t-26 -85.5q18 1 56 2t76 1q76 0 125 -14.5t81 -48.5q27 -29 39 -69t12 -85q0 -42 -9 -83.5t-35 -77.5q-27 -38 -71.5 -59.5t-118.5 -21.5q-70 0 -115.5 20.5
t-73.5 64.5q-25 38 -34 89t-9 111q0 39 2 88t12.5 99.5t33 99t62.5 85.5zM151 268q0 -54 6.5 -94t23.5 -69q36 -62 138 -62q49 0 81 12.5t55 41.5q20 26 27 59t7 69q0 31 -7.5 61t-27.5 52q-26 28 -65.5 36.5t-96.5 8.5q-38 0 -76.5 -1t-59.5 -2q-2 -21 -3.5 -47t-1.5 -65z
" />
    <glyph glyph-name="seven" unicode="7" horiz-adv-x="513" 
d="M65 0l350 694h-400v60h471v-61l-349 -693h-72z" />
    <glyph glyph-name="eight" unicode="8" horiz-adv-x="685" 
d="M139 333q15 17 33 33t34 28q-39 16 -64 52q-17 25 -23.5 55t-6.5 72q0 45 15 84t50 67q59 47 169 47q60 0 106.5 -17t78.5 -54q23 -26 32.5 -58t9.5 -69q0 -38 -10 -69t-32 -60q-11 -15 -27 -32t-30 -31q21 -10 40 -22t34 -28q26 -27 37.5 -61.5t11.5 -74.5
q0 -92 -60 -151q-35 -33 -82.5 -47t-111.5 -14q-129 0 -191 49q-32 26 -48 64.5t-16 98.5q0 37 11.5 71.5t39.5 66.5zM152 195q0 -38 8 -66.5t33 -48.5q26 -21 62.5 -29t87.5 -8q45 0 79 8t57 26q54 41 54 118q0 40 -15.5 70t-53.5 50q-34 18 -84 30.5t-113 26.5
q-15 -12 -38 -32t-38 -39q-20 -25 -29.5 -52t-9.5 -54zM176 573q0 -45 9.5 -74t36.5 -44q14 -7 35.5 -14.5t47.5 -14.5t54.5 -13t54.5 -12q15 16 30.5 33t31.5 38q33 44 33 101q0 29 -7.5 53t-25.5 42q-22 23 -55.5 33t-75.5 10q-90 0 -133 -40q-20 -19 -28 -43.5t-8 -54.5z
" />
    <glyph glyph-name="nine" unicode="9" horiz-adv-x="624" 
d="M71 523q0 42 7 83.5t30 77.5q24 39 70 63t120 24q66 0 113 -23t73 -65q30 -48 41.5 -123t11.5 -175q0 -31 -0.5 -56.5t-2 -48t-4 -43t-7.5 -42.5q-8 -41 -27 -80t-46 -65q-33 -32 -79 -49.5t-111 -17.5q-45 0 -87.5 6.5t-77.5 13.5v61q35 -7 79 -14t86 -7q38 0 71 9
t56 26q27 20 45.5 53t26.5 70q8 33 11 66.5t3 51.5q-34 -5 -83 -9.5t-94 -4.5q-73 0 -118.5 16.5t-71.5 53.5q-23 33 -29 68t-6 80zM135 523q0 -37 4.5 -64t20.5 -49q20 -28 57.5 -36.5t79.5 -8.5q43 0 93 4.5t83 9.5q0 78 -6 148t-32 116q-20 36 -55.5 52t-81.5 16
q-45 0 -78.5 -13t-52.5 -39q-20 -29 -26 -60.5t-6 -75.5z" />
    <glyph glyph-name="colon" unicode=":" horiz-adv-x="253" 
d="M85 0v136h83v-136h-83zM168 528v-136h-83v136h83z" />
    <glyph glyph-name="semicolon" unicode=";" horiz-adv-x="253" 
d="M65 -173q6 24 10.5 46.5t8 48t5.5 56.5t2 72v86h77v-112q0 -58 -16 -106.5t-33 -90.5h-54zM85 528h83v-136h-83v136z" />
    <glyph glyph-name="less" unicode="&#x3c;" horiz-adv-x="700" 
d="M616 650v-66l-455 -207l455 -207v-66l-532 243v60z" />
    <glyph glyph-name="equal" unicode="=" horiz-adv-x="700" 
d="M84 242v60h532v-60h-532zM616 512v-60h-532v60h532z" />
    <glyph glyph-name="greater" unicode="&#x3e;" horiz-adv-x="700" 
d="M616 407v-60l-532 -243v66l455 207l-455 207v66z" />
    <glyph glyph-name="question" unicode="?" horiz-adv-x="508" 
d="M245 771q49 0 84 -9.5t61 -32.5q28 -23 40.5 -57.5t12.5 -73.5q0 -45 -13.5 -81t-37.5 -69q-18 -25 -37.5 -48t-51.5 -58q-38 -41 -51.5 -64t-19.5 -38h-70q6 17 12.5 31t15.5 28.5t22 31t32 37.5q29 32 50.5 56t39.5 50q21 30 33 58t12 66q0 23 -6.5 45t-27.5 41
q-30 27 -100 27q-38 0 -83.5 -9.5t-88.5 -20.5v60q38 10 85 20t87 10zM157 0v136h78v-136h-78z" />
    <glyph glyph-name="at" unicode="@" horiz-adv-x="937" 
d="M181 553q21 23 47.5 41t61 30t79.5 18t103 6q45 0 97 -10t101.5 -23.5t93 -28.5t71.5 -25v-306q0 -45 -5 -88t-31 -80t-67 -59.5t-89 -32.5q-14 -3 -30.5 -4.5t-24.5 -1.5v83q-17 -15 -36 -30t-39 -27t-42 -20t-45 -8q-53 0 -80.5 19t-43.5 49t-22.5 73.5t-6.5 98.5
q0 47 8.5 95.5t29.5 79.5q26 38 63 52t94 14q40 0 86.5 -13t94.5 -29v-373q32 10 57 25.5t43 43.5t21.5 58.5t3.5 74.5v266q-23 8 -59 19.5t-77.5 22.5t-84.5 19t-81 8q-91 0 -144.5 -15.5t-91.5 -52.5q-49 -48 -68.5 -127.5t-19.5 -167.5q0 -130 26.5 -209t89.5 -119
q27 -17 59 -28.5t67 -20.5v-60q-42 10 -85 24t-79 38q-44 29 -71.5 70t-42.5 90t-20.5 103.5t-5.5 111.5q0 45 4.5 91t16 88.5t29.5 80t45 66.5zM335 227q0 -36 3.5 -74.5t14.5 -60.5q12 -25 28 -36t46 -11q25 0 47 11.5t44 28.5q39 30 70 56v243q-29 10 -59 18t-61 8
q-38 0 -63.5 -8.5t-42.5 -35.5q-15 -23 -21 -62.5t-6 -76.5z" />
    <glyph glyph-name="A" unicode="A" horiz-adv-x="686" 
d="M17 0l285 754h82l285 -754h-67l-76 200h-368l-76 -200h-65zM180 260h323l-161 430z" />
    <glyph glyph-name="B" unicode="B" horiz-adv-x="722" 
d="M102 0v754h294q55 0 95 -5t72 -22q35 -20 54.5 -54.5t19.5 -85.5q0 -35 -12 -65t-30 -62q-10 -17 -22.5 -38t-17.5 -29q18 -12 34 -25.5t30 -32.5q16 -21 26 -51.5t10 -72.5q0 -54 -16.5 -93.5t-47.5 -65.5t-77 -39t-114 -13h-298zM164 358v-298h236q50 0 83.5 8t56.5 24
q26 19 38.5 50t12.5 69q0 40 -13.5 68t-42.5 51q-20 15 -43.5 21.5t-52.5 6.5h-275zM164 418h335q11 18 19.5 33t17.5 31q17 29 27 52.5t10 51.5q0 63 -49 89q-23 12 -54.5 15.5t-73.5 3.5h-232v-276z" />
    <glyph glyph-name="C" unicode="C" horiz-adv-x="658" 
d="M87 373q0 82 11.5 158t40.5 127q33 56 85.5 84.5t151.5 28.5q34 0 64.5 -4.5t58.5 -9.5q29 -5 58 -12.5t45 -12.5v-62q-30 8 -59.5 15.5t-60.5 13.5q-26 5 -52 8.5t-54 3.5q-74 0 -117.5 -21.5t-70.5 -75.5q-20 -39 -28.5 -105t-8.5 -136q0 -69 7.5 -126.5t22.5 -93.5
q23 -56 68 -83t123 -27q57 0 114.5 10t115.5 23v-62q-59 -12 -114.5 -21.5t-115.5 -9.5q-105 0 -161 35.5t-87 105.5q-19 42 -28 109.5t-9 139.5z" />
    <glyph glyph-name="D" unicode="D" horiz-adv-x="748" 
d="M357 754q79 0 126.5 -14t86.5 -51q47 -45 69 -128t22 -181q0 -99 -22 -180t-70 -129q-41 -41 -92.5 -56t-127.5 -15h-247v754h255zM349 60q71 0 112 16t70 48q32 35 49 101.5t17 154.5q0 81 -16 150.5t-51 108.5q-31 35 -72.5 45t-100.5 10h-193v-634h185z" />
    <glyph glyph-name="E" unicode="E" horiz-adv-x="652" 
d="M596 754v-60h-432v-279h410v-60h-410v-295h448v-60h-510v754h494z" />
    <glyph glyph-name="F" unicode="F" horiz-adv-x="630" 
d="M598 754v-60h-434v-289h401v-60h-401v-345h-62v754h496z" />
    <glyph glyph-name="G" unicode="G" horiz-adv-x="737" 
d="M87 373q0 82 11.5 158t40.5 127q33 56 86 84.5t151 28.5q34 0 64.5 -4.5t58.5 -9.5q31 -6 60 -13t52 -13v-62q-29 8 -62 15.5t-67 14.5q-26 5 -52 8.5t-54 3.5q-74 0 -117.5 -21.5t-70.5 -75.5q-20 -39 -28.5 -105t-8.5 -136q0 -72 8 -129t24 -93q23 -53 67.5 -80.5
t121.5 -27.5q24 0 51 1.5t54.5 4t53 5.5t44.5 6v342h62v-394q-60 -9 -127 -17t-138 -8q-55 0 -94.5 10t-68 28t-48 43t-34.5 56q-20 42 -30 108t-10 145z" />
    <glyph glyph-name="H" unicode="H" horiz-adv-x="764" 
d="M164 754v-324h436v324h62v-754h-62v370h-436v-370h-62v754h62z" />
    <glyph glyph-name="I" unicode="I" horiz-adv-x="266" 
d="M102 0v754h62v-754h-62z" />
    <glyph glyph-name="J" unicode="J" horiz-adv-x="372" 
d="M-10 -29q13 4 33 11t42 15.5t43.5 17.5t36.5 18q21 12 34.5 25t20.5 32q8 22 9 56.5t1 71.5v536h62v-534q0 -52 -1.5 -87.5t-10.5 -64.5q-6 -20 -20 -38.5t-36 -32.5q-21 -14 -49.5 -27.5t-58.5 -25t-58 -21t-48 -15.5v63z" />
    <glyph glyph-name="K" unicode="K" horiz-adv-x="637" 
d="M164 754v-361l362 361h89l-373 -372l405 -382h-93l-390 367v-367h-62v754h62z" />
    <glyph glyph-name="L" unicode="L" horiz-adv-x="614" 
d="M102 0v754h62v-694h415v-60h-477z" />
    <glyph glyph-name="M" unicode="M" horiz-adv-x="873" 
d="M198 754l238 -533l238 533h97v-754h-62v685l-239 -535h-68l-238 533v-683h-62v754h96z" />
    <glyph glyph-name="N" unicode="N" horiz-adv-x="757" 
d="M102 0v754h93l398 -685v685h62v-754h-92l-399 685v-685h-62z" />
    <glyph glyph-name="O" unicode="O" horiz-adv-x="796" 
d="M131 640q32 60 98 95.5t169 35.5q91 0 150 -25.5t97 -79.5q18 -25 30.5 -59.5t20 -73t10.5 -78.5t3 -78q0 -32 -2.5 -70t-9 -76t-18.5 -73.5t-30 -62.5q-42 -62 -104 -87t-147 -25q-103 0 -164 27.5t-94 82.5q-15 25 -25.5 58.5t-16.5 71t-8.5 77.5t-2.5 77q0 33 2 69.5
t7 72t13.5 67t21.5 54.5zM151 377q0 -29 2 -63.5t6.5 -68t12 -63t19.5 -50.5q16 -28 38 -45t48.5 -27t57 -13.5t63.5 -3.5q60 0 106 15t81 58q18 21 29.5 51t18 65t9.5 72t3 73q0 33 -2.5 67.5t-8 66.5t-14.5 60.5t-23 50.5q-31 50 -81 69.5t-118 19.5q-69 0 -124.5 -22.5
t-86.5 -80.5q-10 -19 -17 -46.5t-11.5 -58t-6 -63.5t-1.5 -63z" />
    <glyph glyph-name="P" unicode="P" horiz-adv-x="662" 
d="M102 0v754h281q65 0 104.5 -14t68.5 -44q26 -27 40 -70.5t14 -89.5q0 -49 -9.5 -92.5t-37.5 -78.5q-26 -32 -62.5 -46.5t-87.5 -19.5q-16 -1 -43 -2t-60 -1.5t-70.5 -0.5h-75.5v-295h-62zM407 360q39 4 67.5 15.5t45.5 38.5q15 23 20.5 54t5.5 68q0 38 -11 71t-32 53
t-51.5 27t-73.5 7h-214v-339q69 0 136 0.5t107 4.5z" />
    <glyph glyph-name="Q" unicode="Q" horiz-adv-x="796" 
d="M131 640q32 60 98 95.5t169 35.5q91 0 150 -25.5t97 -79.5q18 -25 30.5 -59.5t20 -73t10.5 -78.5t3 -78q0 -32 -2.5 -70t-9 -76t-18.5 -73.5t-30 -62.5q-26 -38 -60.5 -61t-77.5 -36l194 -49v-62l-387 100q-66 17 -109 39.5t-69 66.5q-15 25 -25.5 58.5t-16.5 71
t-8.5 77.5t-2.5 77q0 33 2 69.5t7 72t13.5 67t21.5 54.5zM191 132q15 -26 37.5 -43.5t50.5 -28t58.5 -14.5t60.5 -4q60 0 106 15.5t81 58.5q18 21 29.5 51t18 65t9.5 72t3 73q0 33 -2.5 67.5t-8 66.5t-14.5 60.5t-23 50.5q-31 50 -81 69.5t-118 19.5q-69 0 -124.5 -22.5
t-86.5 -80.5q-10 -19 -17 -46.5t-11.5 -58t-6 -63.5t-1.5 -63q0 -29 2 -63.5t6.5 -68t12 -63t19.5 -50.5z" />
    <glyph glyph-name="R" unicode="R" horiz-adv-x="690" 
d="M102 0v754h256q76 0 122.5 -9t79.5 -32q34 -24 50 -63.5t16 -85.5q0 -50 -19.5 -87t-47.5 -68q-22 -24 -46 -48.5t-41 -40.5l193 -320h-76l-189 313h-236v-313h-62zM164 694v-321h276q20 21 36.5 38t30.5 34q22 25 38.5 54t16.5 64t-12 63.5t-42 45.5q-23 14 -57.5 18
t-93.5 4h-193z" />
    <glyph glyph-name="S" unicode="S" horiz-adv-x="641" 
d="M62 571q0 37 12 76t44 70q32 32 76 43t112 11q63 0 126 -13.5t127 -30.5v-62q-26 7 -58.5 15t-66.5 15t-67 11.5t-61 4.5q-49 0 -81 -7t-56 -27q-23 -20 -33 -48.5t-10 -57.5q0 -28 5 -48t21 -36q13 -13 39.5 -24t61.5 -23l162 -56q53 -18 81.5 -34.5t48.5 -41.5
q34 -43 34 -117q0 -43 -15 -81t-44 -66q-35 -34 -83 -47.5t-117 -13.5q-32 0 -66.5 4t-68.5 10t-64 12.5t-53 11.5v62q26 -6 58.5 -13t66.5 -13t67 -10t60 -4q51 0 83.5 8t59.5 28q26 20 39 49.5t13 62.5q0 25 -5 45t-19 37t-39.5 28.5t-67.5 25.5l-162 56q-42 14 -71 27.5
t-49 35.5q-21 23 -30.5 54.5t-9.5 70.5z" />
    <glyph glyph-name="T" unicode="T" horiz-adv-x="664" 
d="M25 754h614v-60h-276v-694h-62v694h-276v60z" />
    <glyph glyph-name="U" unicode="U" horiz-adv-x="739" 
d="M161 754v-471q0 -75 9 -122t44 -77q29 -25 66.5 -33t89.5 -8q51 0 89.5 8.5t66.5 32.5q34 29 43 76.5t9 122.5v471h62v-471q0 -87 -11.5 -147.5t-59.5 -99.5q-36 -29 -84 -41t-114 -12q-69 0 -117 11t-86 44q-42 37 -55.5 97t-13.5 148v471h62z" />
    <glyph glyph-name="V" unicode="V" horiz-adv-x="656" 
d="M1 754h68l258 -677l261 677h67l-291 -754h-75z" />
    <glyph glyph-name="W" unicode="W" horiz-adv-x="893" 
d="M32 754h63l146 -694l164 580h82l166 -580l145 694h63l-157 -754h-96l-162 566l-160 -566h-96z" />
    <glyph glyph-name="X" unicode="X" horiz-adv-x="626" 
d="M3 0l259 381l-242 373h78l215 -332l215 332h76l-240 -367l259 -387h-78l-232 346l-234 -346h-76z" />
    <glyph glyph-name="Y" unicode="Y" horiz-adv-x="606" 
d="M67 754l237 -396l238 396h72l-279 -465v-289h-64v289l-279 465h75z" />
    <glyph glyph-name="Z" unicode="Z" horiz-adv-x="641" 
d="M50 0v64l458 630h-443v60h519v-64l-458 -630h465v-60h-541z" />
    <glyph glyph-name="bracketleft" unicode="[" horiz-adv-x="322" 
d="M284 754v-57h-120v-832h120v-57h-182v946h182z" />
    <glyph glyph-name="backslash" unicode="\" horiz-adv-x="372" 
d="M293 0l-281 754h67l281 -754h-67z" />
    <glyph glyph-name="bracketright" unicode="]" horiz-adv-x="322" 
d="M220 754v-946h-182v57h120v832h-120v57h182z" />
    <glyph glyph-name="asciicircum" unicode="^" horiz-adv-x="800" 
d="M366 754h68l308 -419h-80l-262 355l-262 -355h-80z" />
    <glyph glyph-name="underscore" unicode="_" horiz-adv-x="500" 
d="M0 -115v60h500v-60h-500z" />
    <glyph glyph-name="grave" unicode="`" horiz-adv-x="400" 
d="M211 617l-118 137h79l116 -137h-77z" />
    <glyph glyph-name="a" unicode="a" 
d="M105 461q32 49 76 66.5t105 17.5q48 0 99 -16t110 -38v-491h-61v89q-14 -13 -29 -25t-33 -26q-35 -26 -65 -40.5t-65 -14.5q-60 0 -93 22.5t-53 60.5q-17 32 -25 86t-8 114q0 57 9.5 108.5t32.5 86.5zM147 103q14 -32 36 -47t59 -15q25 0 50 12.5t52 33.5q23 18 47 38
t43 37v289q-37 14 -73.5 25t-74.5 11q-49 0 -80 -14t-51 -49q-16 -28 -23 -70t-7 -88q0 -48 5.5 -93t16.5 -70z" />
    <glyph glyph-name="b" unicode="b" horiz-adv-x="584" 
d="M83 21v733h61v-277q8 5 33 17.5t45 21.5q23 11 52.5 20t61.5 9q56 0 91 -21.5t58 -64.5q19 -36 27.5 -84.5t8.5 -108.5q0 -61 -10 -108.5t-34 -85.5q-27 -43 -68 -66t-111 -23q-30 0 -54 3t-55 9q-26 5 -53 12t-53 14zM209 51q22 -5 42.5 -7.5t46.5 -2.5q46 0 76 15.5
t50 47.5q19 31 27 70t8 92q0 48 -6 87.5t-20 70.5q-16 35 -41.5 49t-56.5 14q-26 0 -46.5 -6.5t-46.5 -17.5q-29 -13 -53 -25t-45 -23v-348q14 -4 29 -7.5t36 -8.5z" />
    <glyph glyph-name="c" unicode="c" horiz-adv-x="483" 
d="M63 260q0 48 4.5 94t17.5 78q11 28 26.5 49t38.5 35.5t55.5 21.5t77.5 7q38 0 82 -11t75 -20v-59q-14 4 -34 9.5t-42 10.5t-43 8.5t-38 3.5q-57 0 -88 -15t-50 -58q-11 -26 -15.5 -68t-4.5 -84q0 -46 7.5 -90t22.5 -71q20 -35 51 -47.5t77 -12.5q35 0 79.5 9t77.5 17v-59
q-32 -8 -76 -16.5t-81 -8.5q-74 0 -114 19.5t-66 64.5q-22 38 -31 90t-9 103z" />
    <glyph glyph-name="d" unicode="d" horiz-adv-x="584" 
d="M100 462q26 47 69.5 65t100.5 18q23 0 46.5 -3.5t46 -9t42.5 -11t35 -10.5v243h61v-754h-61v70q-11 -8 -30.5 -21t-41.5 -27q-28 -17 -59 -28t-65 -11q-65 0 -96.5 23t-50.5 61q-18 37 -26 88.5t-8 109.5q0 55 7.5 105.5t29.5 91.5zM125 265q0 -50 5 -90t18 -71
q14 -32 35 -47.5t61 -15.5q29 0 54.5 10.5t47.5 23.5q28 17 51 33.5t43 31.5v310q-48 15 -89.5 26t-80.5 11q-42 0 -72 -13.5t-47 -48.5q-15 -31 -20.5 -72t-5.5 -88z" />
    <glyph glyph-name="e" unicode="e" horiz-adv-x="559" 
d="M63 262q0 50 6 97t29 91q22 41 66 68t125 27q77 0 120 -26t65 -64q17 -29 21 -60t4 -57q0 -19 -2.5 -47t-7.5 -55h-364q0 -29 5 -65t19 -62q20 -37 55 -52.5t98 -15.5q45 0 91.5 7.5t78.5 13.5v-59q-15 -3 -36 -6.5t-44.5 -6.5t-46.5 -5t-43 -2q-44 0 -76 5.5t-56 17
t-41 28t-30 37.5q-21 35 -28.5 80.5t-7.5 110.5zM125 290h308q2 11 3 24t1 28q0 21 -3.5 43.5t-13.5 39.5q-35 62 -131 62q-53 0 -86.5 -16.5t-53.5 -54.5q-7 -13 -11.5 -30t-7.5 -34.5t-4 -33.5t-1 -28z" />
    <glyph glyph-name="f" unicode="f" horiz-adv-x="298" 
d="M83 0v519q0 24 1 53t6 58q4 23 14.5 43.5t29.5 36.5q32 27 74 41t83 24v-60q-33 -8 -66.5 -20t-54.5 -35q-14 -15 -17.5 -31t-5.5 -32q-2 -23 -2.5 -41.5t-0.5 -34.5h149v-58h-149v-463h-61z" />
    <glyph glyph-name="g" unicode="g" horiz-adv-x="580" 
d="M64 269q0 59 8 107t28 83q28 51 71.5 68.5t106.5 17.5q24 0 53.5 -5.5t59 -13t57.5 -16.5t49 -16v-457q0 -66 -16 -110t-45 -73t-76.5 -46t-109.5 -17q-45 0 -88.5 4.5t-78.5 9.5v59q14 -2 33.5 -4.5t42 -5t46.5 -4t45 -1.5q47 0 84 12.5t60 39.5q23 26 32.5 59.5
t9.5 70.5v26q-22 -11 -73 -32q-59 -25 -116 -25q-65 0 -98 21.5t-51 55.5q-17 31 -25.5 81.5t-8.5 110.5zM150 112q14 -29 36.5 -41.5t60.5 -12.5q24 0 48.5 6t50.5 16q28 11 48.5 20t41.5 20v331q-11 4 -30 10t-41 12t-45 10t-42 4q-49 0 -78.5 -14t-47.5 -49
q-14 -27 -20 -68t-6 -87q0 -104 24 -157z" />
    <glyph glyph-name="h" unicode="h" 
d="M83 0v754h61v-261q53 22 97.5 37t88.5 15q47 0 77.5 -10t54.5 -38q22 -25 28 -62.5t6 -90.5v-344h-61v343q0 35 -4 65t-18 48t-34 24.5t-49 6.5q-45 0 -94.5 -18.5t-91.5 -37.5v-431h-61z" />
    <glyph glyph-name="i" unicode="i" horiz-adv-x="227" 
d="M83 0v528h61v-528h-61zM81 622v132h65v-132h-65z" />
    <glyph glyph-name="j" unicode="j" horiz-adv-x="241" 
d="M-40 -211v61q7 3 20 9.5t27.5 14t27.5 15.5t20 15q13 11 20.5 22.5t12.5 25.5t6 40.5t1 48.5v487h61v-487q0 -28 -1 -59.5t-7 -49.5q-8 -25 -22.5 -43.5t-39.5 -36.5q-12 -9 -29 -18t-34.5 -17.5t-34 -15.5t-28.5 -12zM93 754h65v-132h-65v132z" />
    <glyph glyph-name="k" unicode="k" horiz-adv-x="497" 
d="M83 0v754h61v-456l243 230h87l-255 -242l278 -286h-85l-268 275v-275h-61z" />
    <glyph glyph-name="l" unicode="l" horiz-adv-x="227" 
d="M83 0v754h61v-754h-61z" />
    <glyph glyph-name="m" unicode="m" horiz-adv-x="890" 
d="M144 528v-41q50 24 93 41t86 17q44 0 67.5 -7.5t43.5 -24.5q10 -8 17 -19.5t9 -17.5q19 11 42 23t47.5 22.5t50 17t50.5 6.5q47 0 75.5 -10.5t49.5 -36.5t27 -64.5t6 -91.5v-342h-61v341q0 36 -3 64.5t-16 48.5q-14 20 -33 26.5t-45 6.5q-21 0 -44.5 -6.5t-46.5 -16.5
t-44.5 -21.5t-38.5 -21.5v-421h-61v359q0 35 -2.5 58t-13.5 39q-12 18 -30.5 24.5t-45.5 6.5q-21 0 -44.5 -6t-47 -15.5t-45.5 -20.5l-42 -21v-424h-61v528h61z" />
    <glyph glyph-name="n" unicode="n" horiz-adv-x="581" 
d="M83 0v528h61v-39q52 23 100 39.5t92 16.5t75 -9.5t54 -38.5q22 -26 28 -64.5t6 -88.5v-344h-61v344q0 35 -3.5 63.5t-17.5 47.5q-14 18 -33 25t-48 7q-22 0 -47.5 -6t-50.5 -15t-49 -19.5t-45 -19.5v-427h-61z" />
    <glyph glyph-name="o" unicode="o" 
d="M89 430q23 53 68.5 84t131.5 31q63 0 106 -17t72 -57q30 -42 39 -97t9 -110q0 -57 -9 -106t-26 -79q-25 -45 -70.5 -70.5t-120.5 -25.5q-72 0 -113.5 19.5t-69.5 61.5q-21 32 -32 85.5t-11 110.5q0 46 6 92t20 78zM125 262q0 -47 7.5 -90t22.5 -69q21 -37 53.5 -49.5
t80.5 -12.5q96 0 132 60q17 28 24.5 72t7.5 94q0 45 -5 83t-22 69q-21 39 -54 53.5t-83 14.5q-54 0 -87 -17.5t-53 -57.5q-14 -28 -19 -68t-5 -82z" />
    <glyph glyph-name="p" unicode="p" horiz-adv-x="584" 
d="M83 -192v720h61v-61q17 12 34.5 23.5t36.5 22.5q24 14 50.5 23t58.5 9q60 0 97 -20.5t63 -65.5q18 -32 27.5 -83.5t9.5 -111.5q0 -62 -9.5 -111t-31.5 -85q-25 -42 -65 -63.5t-105 -21.5q-44 0 -84.5 14t-81.5 34v-223h-61zM144 94q38 -19 79.5 -36t86.5 -17
q43 0 71 14.5t47 46.5q16 27 23.5 69.5t7.5 92.5q0 48 -6 89t-20 69q-17 35 -43.5 50t-65.5 15q-26 0 -49.5 -8.5t-46.5 -22.5q-21 -13 -42.5 -28t-41.5 -30v-304z" />
    <glyph glyph-name="q" unicode="q" horiz-adv-x="584" 
d="M63 262q0 59 9.5 111t31.5 89q29 48 73 65.5t105 17.5q27 0 58 -5.5t61 -13.5t56 -16.5t44 -14.5v-687h-61v243q-15 -9 -38.5 -21.5t-51.5 -24.5q-52 -22 -102 -22q-65 0 -98 21t-53 61q-18 35 -26 87.5t-8 109.5zM147 104q14 -32 36 -47.5t65 -15.5q28 0 54 7.5t51 19.5
q23 11 44.5 23t42.5 25v337q-41 13 -80.5 23.5t-77.5 10.5q-45 0 -76.5 -13t-50.5 -48q-15 -28 -22.5 -72t-7.5 -92q0 -49 5.5 -90.5t16.5 -67.5z" />
    <glyph glyph-name="r" unicode="r" horiz-adv-x="344" 
d="M83 528h61v-66q18 13 34.5 23t36.5 20q23 11 53 20t64 15v-62q-53 -10 -98 -30q-24 -11 -47 -24.5t-43 -27.5v-396h-61v528z" />
    <glyph glyph-name="s" unicode="s" horiz-adv-x="508" 
d="M58 400q0 32 10.5 60.5t38.5 49.5q27 20 60 27.5t81 7.5q22 0 48 -3.5t51.5 -8.5t47.5 -10t35 -9v-59q-15 4 -38 9.5t-48.5 10.5t-50.5 8.5t-45 3.5q-38 0 -60 -4.5t-38 -15.5q-17 -13 -23.5 -30t-6.5 -37q0 -18 4.5 -33.5t17.5 -24.5q11 -8 29 -15t46 -16l99 -31
q38 -12 59.5 -22t38.5 -27t26.5 -42t9.5 -53q0 -35 -13.5 -66t-42.5 -51t-64 -28t-87 -8t-99 8.5t-80 16.5v59q42 -9 90 -17.5t89 -8.5q32 0 58.5 3.5t46.5 16.5q40 25 40 72q0 16 -4 30t-15 25q-13 13 -34 21t-47 16l-92 29q-38 12 -61 22t-39 24q-20 17 -29 43t-9 57z" />
    <glyph glyph-name="t" unicode="t" horiz-adv-x="317" 
d="M82 200v461h61v-140h160v-58h-160v-263q0 -32 0.5 -51t2.5 -37t10 -29.5t26 -17.5t44 -9t54 -5v-58q-36 2 -70.5 6t-58.5 12q-46 14 -59 53q-8 23 -9 51.5t-1 84.5z" />
    <glyph glyph-name="u" unicode="u" horiz-adv-x="571" 
d="M82 200v328h61v-328q0 -38 3 -71.5t18 -53.5q14 -19 35 -26.5t59 -7.5q57 0 97 9t72 19v459h61v-503q-62 -17 -116 -29.5t-114 -12.5q-52 0 -86.5 11.5t-56.5 39.5q-21 26 -27 68.5t-6 97.5z" />
    <glyph glyph-name="v" unicode="v" horiz-adv-x="497" 
d="M11 528h66l172 -478l172 478h65l-191 -528h-93z" />
    <glyph glyph-name="w" unicode="w" horiz-adv-x="777" 
d="M17 528h63l131 -463l139 463h78l140 -463l130 463h62l-149 -528h-85l-138 464l-138 -464h-83z" />
    <glyph glyph-name="x" unicode="x" horiz-adv-x="496" 
d="M8 0l194 269l-184 259h75l154 -219l159 219h72l-183 -252l193 -276h-75l-163 236l-171 -236h-71z" />
    <glyph glyph-name="y" unicode="y" horiz-adv-x="507" 
d="M78 528l175 -439l176 439h67l-290 -720h-66l80 199l-209 521h67z" />
    <glyph glyph-name="z" unicode="z" horiz-adv-x="516" 
d="M41 0v53l343 417h-328v58h413v-53l-344 -417h353v-58h-437z" />
    <glyph glyph-name="braceleft" unicode="{" horiz-adv-x="340" 
d="M34 253v56q14 5 24 8.5t24 8.5q21 8 32 22.5t11 43.5v248q0 68 40 96q12 8 39 13t53 5h46v-56h-46q-20 0 -36 -6t-24 -19q-10 -17 -10 -64v-219q0 -32 -9.5 -52.5t-26.5 -34.5t-45 -22q35 -10 54 -30q14 -14 20.5 -33t6.5 -48v-217q0 -53 15 -71q8 -9 23 -13.5t32 -4.5
h46v-56h-46q-29 0 -57 7t-42 18q-33 25 -33 91v244q0 31 -9.5 44.5t-33.5 23.5q-13 5 -23.5 8.5t-24.5 8.5z" />
    <glyph glyph-name="bar" unicode="|" horiz-adv-x="258" 
d="M100 -192v946h58v-946h-58z" />
    <glyph glyph-name="braceright" unicode="}" horiz-adv-x="340" 
d="M37 698v56h46q26 0 53 -5t39 -13q40 -28 40 -96v-248q0 -29 11 -43.5t32 -22.5q14 -5 24 -8.5t24 -8.5v-56q-14 -5 -24.5 -8.5t-23.5 -8.5q-24 -10 -33.5 -23.5t-9.5 -44.5v-244q0 -63 -33 -91q-14 -11 -42 -18t-57 -7h-46v56h46q17 0 32 4.5t23 13.5q15 18 15 71v217
q0 54 27 81q20 20 54 30q-25 7 -45 22q-18 14 -27 34.5t-9 52.5v219q0 47 -10 64q-8 13 -24 19t-36 6h-46z" />
    <glyph glyph-name="asciitilde" unicode="~" horiz-adv-x="800" 
d="M46 198q8 67 24 117t36 81q21 32 53 46.5t73 14.5q47 0 84.5 -18.5t76.5 -65.5l49 -58q32 -37 59 -55.5t69 -18.5q35 0 55 21t35 58q9 23 15 53.5t12 66.5h64q-8 -58 -20 -104.5t-31 -78.5q-24 -41 -56.5 -58.5t-73.5 -17.5q-50 0 -91 20.5t-83 71.5l-39 46
q-30 35 -55.5 56.5t-69.5 21.5q-38 0 -59.5 -21t-33.5 -53q-19 -53 -28 -125h-65z" />
    <glyph glyph-name="uni00A0" unicode="&#xa0;" horiz-adv-x="255" 
 />
    <glyph glyph-name="exclamdown" unicode="&#xa1;" horiz-adv-x="274" 
d="M97 322h60q0 -11 0.5 -50.5t1 -94.5t0.5 -118.5v-121.5v-129h-64v129v119t0.5 118.5t1 96t0.5 51.5zM88 562h78v-136h-78v136z" />
    <glyph glyph-name="cent" unicode="&#xa2;" horiz-adv-x="523" 
d="M103 420q20 48 57 77.5t106 34.5v106h57v-106q35 -3 72 -12t63 -17v-60q-35 11 -77 21.5t-80 10.5q-47 0 -82 -12.5t-56 -60.5q-11 -26 -13.5 -62.5t-2.5 -77.5q0 -42 5 -80.5t21 -65.5q22 -38 55 -49t73 -11q38 0 80 9t77 18v-60q-27 -7 -64 -14.5t-71 -9.5v-112h-57
v112q-54 5 -87.5 25.5t-54.5 52.5q-23 36 -31 85.5t-8 97.5q0 44 2.5 86t15.5 74z" />
    <glyph glyph-name="sterling" unicode="&#xa3;" horiz-adv-x="620" 
d="M116 571q0 37 6.5 76.5t30.5 67.5q28 32 64.5 44t93.5 12q42 0 99 -10t110 -21v-61q-50 11 -108 21.5t-101 10.5q-44 0 -68 -7t-41 -27q-17 -19 -20.5 -47.5t-3.5 -58.5v-103h224v-59h-224v-349h380v-60h-442v571z" />
    <glyph glyph-name="currency" unicode="&#xa4;" horiz-adv-x="745" 
d="M90 654h78l85 -98q23 14 54.5 21t66.5 7q32 0 62.5 -7.5t54.5 -21.5l86 99h78l-120 -137q40 -52 40 -138q0 -45 -9.5 -81t-29.5 -62l119 -136h-78l-85 97q-23 -14 -53 -20.5t-65 -6.5t-66.5 6.5t-54.5 20.5l-85 -97h-78l118 136q-18 26 -26 60.5t-8 79.5q0 49 8 82t27 59
zM275 257q16 -14 42 -20.5t57 -6.5q32 0 60.5 9t44.5 26t25.5 47t9.5 68q0 41 -11 68.5t-28 43.5q-16 15 -43.5 23.5t-58.5 8.5q-26 0 -53.5 -7.5t-43.5 -19.5q-41 -32 -41 -120q0 -86 40 -120z" />
    <glyph glyph-name="yen" unicode="&#xa5;" horiz-adv-x="654" 
d="M16 754h75l237 -396l238 396h72l-172 -286h142v-59h-177l-72 -120v-289h-64v289l-71 120h-178v59h142z" />
    <glyph glyph-name="brokenbar" unicode="&#xa6;" horiz-adv-x="258" 
d="M100 336v418h58v-418h-58zM158 226v-418h-58v418h58z" />
    <glyph glyph-name="section" unicode="&#xa7;" horiz-adv-x="643" 
d="M122 459q12 18 24.5 33.5t23.5 26.5q-13 11 -20 19t-14 19q-9 15 -13 34.5t-4 41.5q0 32 10.5 58t38.5 46q32 22 69.5 28t89.5 6q19 0 46 -3t55.5 -7t55.5 -9t45 -8v-61q-18 3 -43.5 8t-54 9.5t-56 7.5t-48.5 3q-42 0 -68 -4t-45 -16q-17 -11 -24 -26t-7 -32
q0 -38 19 -57q12 -12 32.5 -24t49.5 -27l123 -64q36 -19 61 -33t44 -30q20 -16 30 -40t10 -52q0 -41 -31 -82q-14 -17 -26 -31.5t-26 -28.5q14 -11 24 -21t18 -24q17 -29 17 -75q0 -29 -14 -59.5t-41 -50.5q-55 -39 -167 -39q-20 0 -46.5 2.5t-54 6.5t-53 8t-42.5 7v62
q22 -4 48 -8.5t52 -8.5t51 -6.5t45 -2.5q44 0 71.5 4.5t48.5 17.5q19 11 28.5 29t9.5 38q0 15 -3 29t-14 25q-11 12 -30 23.5t-45 25.5l-136 70q-35 18 -64 36t-47 35q-15 14 -24.5 36t-9.5 52q0 16 7 36.5t24 46.5zM155 376q0 -19 6 -31t20 -23q25 -19 76 -46l161 -83
q13 14 22 24t20 24q28 35 28 65q0 15 -5.5 28t-22.5 25q-15 11 -32.5 21t-42.5 23l-165 85q-8 -8 -19.5 -21t-25.5 -32q-12 -17 -16 -32t-4 -27z" />
    <glyph glyph-name="dieresis" unicode="&#xa8;" horiz-adv-x="400" 
d="M259 754h62v-132h-62v132zM141 754v-132h-62v132h62z" />
    <glyph glyph-name="copyright" unicode="&#xa9;" horiz-adv-x="938" 
d="M80 377q0 88 27.5 160.5t78 124.5t122.5 80.5t161 28.5t161 -28.5t122.5 -80.5t78 -124.5t27.5 -160.5t-27.5 -160.5t-78 -124.5t-122.5 -80.5t-161 -28.5t-161 28.5t-122.5 80.5t-78 124.5t-27.5 160.5zM469 43q77 0 138 24t103 68t64 105.5t22 136.5t-22 136.5
t-64 105.5t-103 68t-138 24t-138 -24t-103 -68t-64 -105.5t-22 -136.5t22 -136.5t64 -105.5t103 -68t138 -24zM276 377q0 49 8 90t28 70q23 33 59.5 50.5t102.5 17.5q23 0 42 -2.5t37 -5.5q17 -3 37.5 -7.5t34.5 -8.5v-56q-18 5 -39 9.5t-44 8.5q-18 3 -33.5 5t-34.5 2
q-45 0 -71 -9.5t-46 -39.5q-14 -23 -19 -54.5t-5 -69.5q0 -35 3.5 -61.5t14.5 -48.5q15 -31 43.5 -44.5t80.5 -13.5q38 0 76.5 6t73.5 13v-56q-37 -7 -74 -12.5t-76 -5.5q-73 0 -112 21.5t-61 61.5q-14 25 -20 62t-6 78z" />
    <glyph glyph-name="ordfeminine" unicode="&#xaa;" horiz-adv-x="470" 
d="M57 566q0 43 6 78.5t26 64.5q24 35 60 48.5t85 13.5q36 0 78.5 -11.5t87.5 -26.5v-367h-56v69l-45 -36q-24 -20 -50 -32t-55 -12q-46 0 -71 18t-40 45t-20.5 62t-5.5 86zM115 566q0 -38 3 -66.5t12 -48.5q10 -22 24.5 -30.5t41.5 -8.5q23 0 43.5 10t40.5 26
q17 13 33.5 26.5t30.5 25.5v192q-26 8 -54 15.5t-56 7.5q-38 0 -61 -8.5t-38 -33.5q-13 -21 -16.5 -48t-3.5 -59z" />
    <glyph glyph-name="guillemotleft" unicode="&#xab;" horiz-adv-x="523" 
d="M424 470h80l-169 -206l169 -206h-80l-169 206zM62 264l169 206h80l-169 -206l169 -206h-80z" />
    <glyph glyph-name="logicalnot" unicode="&#xac;" horiz-adv-x="700" 
d="M554 220v248h-470v60h532v-308h-62z" />
    <glyph glyph-name="registered" unicode="&#xae;" horiz-adv-x="938" 
d="M80 377q0 88 27.5 160.5t78 124.5t122.5 80.5t161 28.5t161 -28.5t122.5 -80.5t78 -124.5t27.5 -160.5t-27.5 -160.5t-78 -124.5t-122.5 -80.5t-161 -28.5t-161 28.5t-122.5 80.5t-78 124.5t-27.5 160.5zM142 377q0 -75 22 -136.5t64 -105.5t103 -68t138 -24t138 24
t103 68t64 105.5t22 136.5t-22 136.5t-64 105.5t-103 68t-138 24t-138 -24t-103 -68t-64 -105.5t-22 -136.5zM315 595h174q40 0 67 -4.5t49 -18.5q43 -29 43 -88q0 -29 -9.5 -51t-26.5 -42q-12 -14 -25 -27l-23 -23l102 -177h-66l-95 165h-135v-165h-55v431zM370 541v-158
h161q15 15 31 35q13 16 21 31t8 34q0 34 -26 48q-14 8 -33 9t-43 1h-119z" />
    <glyph glyph-name="macron" unicode="&#xaf;" horiz-adv-x="400" 
d="M53 645v55h294v-55h-294z" />
    <glyph glyph-name="degree" unicode="&#xb0;" horiz-adv-x="463" 
d="M60 602q0 79 46 124t125 45t125.5 -45t46.5 -124t-46.5 -124t-125.5 -45t-125 45t-46 124zM118 602q0 -53 30 -83t84 -30q52 0 82.5 30t30.5 83t-30.5 83t-82.5 30q-54 0 -84 -30t-30 -83z" />
    <glyph glyph-name="plusminus" unicode="&#xb1;" horiz-adv-x="700" 
d="M319 407v240h62v-240h235v-60h-235v-240h-62v240h-235v60h235zM84 60h532v-60h-532v60z" />
    <glyph glyph-name="twosuperior" unicode="&#xb2;" horiz-adv-x="391" 
d="M40 508q20 18 44.5 42t50 48.5t48.5 48t39 40.5q24 26 33 44t9 35q0 27 -14 41q-8 9 -24 13.5t-35 4.5q-42 0 -81.5 -8t-56.5 -13v56q19 5 58.5 12.5t79.5 7.5q65 0 101 -33q14 -13 22 -33.5t8 -44.5q0 -32 -11 -56.5t-38 -53.5q-43 -48 -87.5 -89.5t-70.5 -64.5h229v-55
h-304v58z" />
    <glyph glyph-name="threesuperior" unicode="&#xb3;" horiz-adv-x="418" 
d="M56 454v56q25 -5 61.5 -10.5t67.5 -5.5q28 0 44.5 3t27.5 10q28 18 28 57q0 40 -34 60q-11 6 -26.5 7.5t-34.5 1.5h-92v55h143l16 21q12 16 18 29t6 30q0 29 -19 43q-11 8 -26 11t-41 3q-40 0 -78.5 -7.5t-57.5 -12.5v56q10 3 25.5 6t34 6t38.5 5t38 2q74 0 110 -30
q15 -12 24 -33t9 -43q0 -20 -5.5 -36t-16.5 -32q-7 -11 -15.5 -22.5t-12.5 -16.5q9 -6 18 -13.5t15 -15.5q22 -28 22 -73q0 -55 -35 -90q-36 -36 -123 -36q-32 0 -70 5.5t-59 9.5z" />
    <glyph glyph-name="acute" unicode="&#xb4;" horiz-adv-x="400" 
d="M108 617l119 137h80l-121 -137h-78z" />
    <glyph glyph-name="uni00B5" unicode="&#xb5;" horiz-adv-x="567" 
d="M83 528h61v-195q0 -38 0.5 -80.5t5.5 -85.5q3 -23 11 -45.5t22.5 -40.5t36.5 -29t53 -11q45 0 81.5 9t68.5 19v459h61v-503q-54 -17 -104.5 -29.5t-106.5 -12.5q-43 0 -77.5 13.5t-51.5 44.5v-233h-61v720z" />
    <glyph glyph-name="paragraph" unicode="&#xb6;" horiz-adv-x="668" 
d="M114 699q30 32 71.5 43.5t99.5 11.5h273v-946h-57v891h-100v-891h-57v466q-46 0 -80.5 2.5t-60.5 8.5t-46 17t-37 27q-34 33 -48 81.5t-14 104.5t13.5 104t42.5 80z" />
    <glyph glyph-name="periodcentered" unicode="&#xb7;" horiz-adv-x="253" 
d="M85 196v136h83v-136h-83z" />
    <glyph glyph-name="cedilla" unicode="&#xb8;" horiz-adv-x="400" 
d="M121 -192l82 132h74l-82 -132h-74z" />
    <glyph glyph-name="onesuperior" unicode="&#xb9;" horiz-adv-x="282" 
d="M145 450v356l-118 -36v58l175 54v-432h-57z" />
    <glyph glyph-name="ordmasculine" unicode="&#xba;" horiz-adv-x="466" 
d="M77 686q18 38 54 61.5t102 23.5q51 0 83 -13.5t55 -41.5q25 -30 32 -71t7 -83q0 -38 -8.5 -76t-22.5 -61q-20 -32 -53 -51t-93 -19q-54 0 -88 14.5t-55 44.5q-17 24 -25.5 64.5t-8.5 81.5q0 35 4.5 68.5t16.5 57.5zM114 561q0 -32 5.5 -60.5t16.5 -47.5q14 -24 38.5 -33
t58.5 -9q67 0 93 41q12 19 19 48t7 64q0 31 -5 56.5t-17 47.5q-14 26 -37 36.5t-60 10.5q-38 0 -62.5 -10.5t-38.5 -39.5q-9 -19 -13.5 -47t-4.5 -57z" />
    <glyph glyph-name="guillemotright" unicode="&#xbb;" horiz-adv-x="523" 
d="M212 58l169 206l-169 206h80l169 -206l-169 -206h-80zM188 264l-169 206h80l169 -206l-169 -206h-80z" />
    <glyph glyph-name="onequarter" unicode="&#xbc;" horiz-adv-x="832" 
d="M663 419h72l-203 -273h165v89h57v-235h-57v91h-237v55zM143 0l370 754h66l-370 -754h-66zM145 335v356l-118 -36v58l175 54v-432h-57z" />
    <glyph glyph-name="onehalf" unicode="&#xbd;" horiz-adv-x="821" 
d="M470 58q20 18 44.5 42t50 48.5t48.5 48t39 40.5q24 26 33 44t9 35q0 27 -14 41q-8 9 -24 13.5t-35 4.5q-42 0 -81.5 -8t-56.5 -13v56q19 5 58.5 12.5t79.5 7.5q65 0 101 -33q14 -13 22 -33.5t8 -44.5q0 -32 -11 -56.5t-38 -53.5q-43 -48 -87.5 -89.5t-70.5 -64.5h229v-55
h-304v58zM143 0l370 754h66l-370 -754h-66zM145 335v356l-118 -36v58l175 54v-432h-57z" />
    <glyph glyph-name="threequarters" unicode="&#xbe;" horiz-adv-x="968" 
d="M799 419h72l-203 -273h165v89h57v-235h-57v91h-237v55zM279 0l370 754h66l-370 -754h-66zM56 339v56q25 -5 61.5 -10.5t67.5 -5.5q28 0 44.5 3t27.5 10q28 18 28 57q0 40 -34 60q-11 6 -26.5 7.5t-34.5 1.5h-92v55h143l16 21q12 16 18 29t6 30q0 29 -19 43q-11 8 -26 11
t-41 3q-40 0 -78.5 -7.5t-57.5 -12.5v56q10 3 25.5 6t34 6t38.5 5t38 2q74 0 110 -30q15 -12 24 -33t9 -43q0 -20 -5.5 -36t-16.5 -32q-7 -11 -15.5 -22.5t-12.5 -16.5q9 -6 18 -13.5t15 -15.5q22 -28 22 -73q0 -55 -35 -90q-36 -36 -123 -36q-32 0 -70 5.5t-59 9.5z" />
    <glyph glyph-name="questiondown" unicode="&#xbf;" horiz-adv-x="508" 
d="M116 114q18 25 37.5 48t51.5 58q38 41 51.5 64t19.5 38h70q-6 -16 -12 -30.5t-15 -29t-22 -31t-33 -37.5q-29 -32 -50.5 -56t-39.5 -50q-21 -30 -33 -58t-12 -66q0 -23 6.5 -45t27.5 -41q30 -27 100 -27q38 0 83.5 9.5t88.5 20.5v-60q-38 -10 -85 -20t-87 -10
q-49 0 -84 9.5t-61 32.5q-28 23 -40.5 57.5t-12.5 73.5q0 45 13 81t38 69zM273 562h78v-136h-78v136z" />
    <glyph glyph-name="Agrave" unicode="&#xc0;" horiz-adv-x="686" 
d="M17 0l285 754h82l285 -754h-67l-76 200h-368l-76 -200h-65zM180 260h323l-161 430zM310 813l-118 137h79l116 -137h-77z" />
    <glyph glyph-name="Aacute" unicode="&#xc1;" horiz-adv-x="686" 
d="M17 0l285 754h82l285 -754h-67l-76 200h-368l-76 -200h-65zM180 260h323l-161 430zM300 813l119 137h80l-121 -137h-78z" />
    <glyph glyph-name="Acircumflex" unicode="&#xc2;" horiz-adv-x="686" 
d="M17 0l285 754h82l285 -754h-67l-76 200h-368l-76 -200h-65zM180 260h323l-161 430zM308 950h70l126 -137h-75l-86 92l-86 -92h-75z" />
    <glyph glyph-name="Atilde" unicode="&#xc3;" horiz-adv-x="686" 
d="M17 0l285 754h82l285 -754h-67l-76 200h-368l-76 -200h-65zM180 260h323l-161 430zM161 818q13 33 24 55t24 35.5t28.5 19t37.5 5.5q20 0 39.5 -7.5t45.5 -27.5q21 -17 33.5 -24t28.5 -7q23 0 34 15t22 41h59q-10 -24 -20.5 -44t-23 -34.5t-30 -23t-41.5 -8.5
q-21 0 -40 6t-40 23q-23 19 -37.5 28t-29.5 9q-23 0 -34 -17.5t-22 -43.5h-58z" />
    <glyph glyph-name="Adieresis" unicode="&#xc4;" horiz-adv-x="686" 
d="M302 754h82l285 -754h-67l-76 200h-368l-76 -200h-65zM180 260h323l-161 430zM409 950h63v-132h-63v132zM216 950h63v-132h-63v132z" />
    <glyph glyph-name="Aring" unicode="&#xc5;" horiz-adv-x="686" 
d="M287 713q-23 11 -37 28q-24 29 -24 71q0 48 28 79q14 14 36 24t53 10t53 -10t36 -24q28 -31 28 -79q0 -42 -24 -71q-14 -17 -37 -28l270 -713h-67l-76 200h-368l-76 -200h-65zM180 260h323l-161 430zM278 812q0 -24 13 -39q8 -9 20.5 -15t31.5 -6t31.5 6t20.5 15
q13 15 13 39q0 11 -2.5 22t-11.5 21q-8 9 -20 14.5t-31 5.5t-31 -5.5t-20 -14.5q-8 -10 -11 -21t-3 -22z" />
    <glyph glyph-name="AE" unicode="&#xc6;" horiz-adv-x="1090" 
d="M0 0l507 754h527v-60h-432v-279h410v-60h-410v-295h448v-60h-510v200h-332l-134 -200h-74zM249 260h291v435z" />
    <glyph glyph-name="Ccedilla" unicode="&#xc7;" horiz-adv-x="658" 
d="M87 373q0 82 11.5 158t40.5 127q33 56 85.5 84.5t151.5 28.5q34 0 64.5 -4.5t58.5 -9.5q29 -5 58 -12.5t45 -12.5v-62q-30 8 -59.5 15.5t-60.5 13.5q-26 5 -52 8.5t-54 3.5q-74 0 -117.5 -21.5t-70.5 -75.5q-20 -39 -28.5 -105t-8.5 -136q0 -69 7.5 -126.5t22.5 -93.5
q23 -56 68 -83t123 -27q57 0 114.5 10t115.5 23v-62q-59 -12 -114.5 -21.5t-115.5 -9.5q-105 0 -161 35.5t-87 105.5q-19 42 -28 109.5t-9 139.5zM259 -192l82 132h74l-82 -132h-74z" />
    <glyph glyph-name="Egrave" unicode="&#xc8;" horiz-adv-x="652" 
d="M596 754v-60h-432v-279h410v-60h-410v-295h448v-60h-510v754h494zM335 813l-118 137h79l116 -137h-77z" />
    <glyph glyph-name="Eacute" unicode="&#xc9;" horiz-adv-x="652" 
d="M596 754v-60h-432v-279h410v-60h-410v-295h448v-60h-510v754h494zM275 813l119 137h80l-121 -137h-78z" />
    <glyph glyph-name="Ecircumflex" unicode="&#xca;" horiz-adv-x="652" 
d="M596 754v-60h-432v-279h410v-60h-410v-295h448v-60h-510v754h494zM314 950h70l126 -137h-75l-86 92l-86 -92h-75z" />
    <glyph glyph-name="Edieresis" unicode="&#xcb;" horiz-adv-x="652" 
d="M596 754v-60h-432v-279h410v-60h-410v-295h448v-60h-510v754h494zM483 950v-132h-63v132h63zM280 950v-132h-63v132h63z" />
    <glyph glyph-name="Igrave" unicode="&#xcc;" horiz-adv-x="266" 
d="M102 0v754h62v-754h-62zM104 813l-118 137h79l116 -137h-77z" />
    <glyph glyph-name="Iacute" unicode="&#xcd;" horiz-adv-x="266" 
d="M102 0v754h62v-754h-62zM91 813l119 137h80l-121 -137h-78z" />
    <glyph glyph-name="Icircumflex" unicode="&#xce;" horiz-adv-x="266" 
d="M102 0v754h62v-754h-62zM98 950h70l126 -137h-75l-86 92l-86 -92h-75z" />
    <glyph glyph-name="Idieresis" unicode="&#xcf;" horiz-adv-x="266" 
d="M102 754h62v-754h-62v754zM230 950v-132h-63v132h63zM99 950v-132h-63v132h63z" />
    <glyph glyph-name="Eth" unicode="&#xd0;" horiz-adv-x="757" 
d="M35 360v60h76v334h255q79 0 126.5 -14t86.5 -51q47 -45 69 -128t22 -181q0 -99 -22 -180t-70 -129q-41 -41 -92.5 -56t-127.5 -15h-247v360h-76zM389 420v-60h-216v-300h185q71 0 112 16t70 48q32 35 49 101.5t17 154.5q0 81 -16 150.5t-51 108.5q-31 35 -72.5 45
t-100.5 10h-193v-274h216z" />
    <glyph glyph-name="Ntilde" unicode="&#xd1;" horiz-adv-x="757" 
d="M102 0v754h93l398 -685v685h62v-754h-92l-399 685v-685h-62zM197 818q13 33 24 55t24 35.5t28.5 19t37.5 5.5q20 0 39.5 -7.5t45.5 -27.5q21 -17 33.5 -24t28.5 -7q23 0 34 15t22 41h59q-10 -24 -20.5 -44t-23 -34.5t-30 -23t-41.5 -8.5q-21 0 -40 6t-40 23
q-23 19 -37.5 28t-29.5 9q-23 0 -34 -17.5t-22 -43.5h-58z" />
    <glyph glyph-name="Ograve" unicode="&#xd2;" horiz-adv-x="796" 
d="M131 640q32 60 98 95.5t169 35.5q91 0 150 -25.5t97 -79.5q18 -25 30.5 -59.5t20 -73t10.5 -78.5t3 -78q0 -32 -2.5 -70t-9 -76t-18.5 -73.5t-30 -62.5q-42 -62 -104 -87t-147 -25q-103 0 -164 27.5t-94 82.5q-15 25 -25.5 58.5t-16.5 71t-8.5 77.5t-2.5 77q0 33 2 69.5
t7 72t13.5 67t21.5 54.5zM151 377q0 -29 2 -63.5t6.5 -68t12 -63t19.5 -50.5q16 -28 38 -45t48.5 -27t57 -13.5t63.5 -3.5q60 0 106 15t81 58q18 21 29.5 51t18 65t9.5 72t3 73q0 33 -2.5 67.5t-8 66.5t-14.5 60.5t-23 50.5q-31 50 -81 69.5t-118 19.5q-69 0 -124.5 -22.5
t-86.5 -80.5q-10 -19 -17 -46.5t-11.5 -58t-6 -63.5t-1.5 -63zM376 813l-118 137h79l116 -137h-77z" />
    <glyph glyph-name="Oacute" unicode="&#xd3;" horiz-adv-x="796" 
d="M131 640q32 60 98 95.5t169 35.5q91 0 150 -25.5t97 -79.5q18 -25 30.5 -59.5t20 -73t10.5 -78.5t3 -78q0 -32 -2.5 -70t-9 -76t-18.5 -73.5t-30 -62.5q-42 -62 -104 -87t-147 -25q-103 0 -164 27.5t-94 82.5q-15 25 -25.5 58.5t-16.5 71t-8.5 77.5t-2.5 77q0 33 2 69.5
t7 72t13.5 67t21.5 54.5zM151 377q0 -29 2 -63.5t6.5 -68t12 -63t19.5 -50.5q16 -28 38 -45t48.5 -27t57 -13.5t63.5 -3.5q60 0 106 15t81 58q18 21 29.5 51t18 65t9.5 72t3 73q0 33 -2.5 67.5t-8 66.5t-14.5 60.5t-23 50.5q-31 50 -81 69.5t-118 19.5q-69 0 -124.5 -22.5
t-86.5 -80.5q-10 -19 -17 -46.5t-11.5 -58t-6 -63.5t-1.5 -63zM329 813l119 137h80l-121 -137h-78z" />
    <glyph glyph-name="Ocircumflex" unicode="&#xd4;" horiz-adv-x="796" 
d="M131 640q32 60 98 95.5t169 35.5q91 0 150 -25.5t97 -79.5q18 -25 30.5 -59.5t20 -73t10.5 -78.5t3 -78q0 -32 -2.5 -70t-9 -76t-18.5 -73.5t-30 -62.5q-42 -62 -104 -87t-147 -25q-103 0 -164 27.5t-94 82.5q-15 25 -25.5 58.5t-16.5 71t-8.5 77.5t-2.5 77q0 33 2 69.5
t7 72t13.5 67t21.5 54.5zM151 377q0 -29 2 -63.5t6.5 -68t12 -63t19.5 -50.5q16 -28 38 -45t48.5 -27t57 -13.5t63.5 -3.5q60 0 106 15t81 58q18 21 29.5 51t18 65t9.5 72t3 73q0 33 -2.5 67.5t-8 66.5t-14.5 60.5t-23 50.5q-31 50 -81 69.5t-118 19.5q-69 0 -124.5 -22.5
t-86.5 -80.5q-10 -19 -17 -46.5t-11.5 -58t-6 -63.5t-1.5 -63zM363 950h70l126 -137h-75l-86 92l-86 -92h-75z" />
    <glyph glyph-name="Otilde" unicode="&#xd5;" horiz-adv-x="796" 
d="M131 640q32 60 98 95.5t169 35.5q91 0 150 -25.5t97 -79.5q18 -25 30.5 -59.5t20 -73t10.5 -78.5t3 -78q0 -32 -2.5 -70t-9 -76t-18.5 -73.5t-30 -62.5q-42 -62 -104 -87t-147 -25q-103 0 -164 27.5t-94 82.5q-15 25 -25.5 58.5t-16.5 71t-8.5 77.5t-2.5 77q0 33 2 69.5
t7 72t13.5 67t21.5 54.5zM151 377q0 -29 2 -63.5t6.5 -68t12 -63t19.5 -50.5q16 -28 38 -45t48.5 -27t57 -13.5t63.5 -3.5q60 0 106 15t81 58q18 21 29.5 51t18 65t9.5 72t3 73q0 33 -2.5 67.5t-8 66.5t-14.5 60.5t-23 50.5q-31 50 -81 69.5t-118 19.5q-69 0 -124.5 -22.5
t-86.5 -80.5q-10 -19 -17 -46.5t-11.5 -58t-6 -63.5t-1.5 -63zM212 818q13 33 24 55t24 35.5t28.5 19t37.5 5.5q20 0 39.5 -7.5t45.5 -27.5q21 -17 33.5 -24t28.5 -7q23 0 34 15t22 41h59q-10 -24 -20.5 -44t-23 -34.5t-30 -23t-41.5 -8.5q-21 0 -40 6t-40 23
q-23 19 -37.5 28t-29.5 9q-23 0 -34 -17.5t-22 -43.5h-58z" />
    <glyph glyph-name="Odieresis" unicode="&#xd6;" horiz-adv-x="796" 
d="M131 640q32 60 98 95.5t169 35.5q91 0 150 -25.5t97 -79.5q18 -25 30.5 -59.5t20 -73t10.5 -78.5t3 -78q0 -32 -2.5 -70t-9 -76t-18.5 -73.5t-30 -62.5q-42 -62 -104 -87t-147 -25q-103 0 -164 27.5t-94 82.5q-15 25 -25.5 58.5t-16.5 71t-8.5 77.5t-2.5 77q0 33 2 69.5
t7 72t13.5 67t21.5 54.5zM191 132q16 -28 38 -45t48.5 -27t57 -13.5t63.5 -3.5q60 0 106 15t81 58q18 21 29.5 51t18 65t9.5 72t3 73q0 33 -2.5 67.5t-8 66.5t-14.5 60.5t-23 50.5q-31 50 -81 69.5t-118 19.5q-69 0 -124.5 -22.5t-86.5 -80.5q-10 -19 -17 -46.5t-11.5 -58
t-6 -63.5t-1.5 -63q0 -29 2 -63.5t6.5 -68t12 -63t19.5 -50.5zM537 950v-132h-63v132h63zM259 818v132h63v-132h-63z" />
    <glyph glyph-name="multiply" unicode="&#xd7;" horiz-adv-x="700" 
d="M110 137l202 240l-202 240h77l163 -195l163 195h77l-202 -240l202 -240h-77l-163 195l-163 -195h-77z" />
    <glyph glyph-name="Oslash" unicode="&#xd8;" horiz-adv-x="796" 
d="M131 640q32 60 98 95.5t169 35.5q91 0 150 -25.5t97 -79.5q18 -25 30.5 -59.5t20 -73t10.5 -78.5t3 -78q0 -32 -2.5 -70t-9 -76t-18.5 -73.5t-30 -62.5q-42 -62 -104 -87t-147 -25q-103 0 -164 27.5t-94 82.5q-15 25 -25.5 58.5t-16.5 71t-8.5 77.5t-2.5 77q0 33 2 69.5
t7 72t13.5 67t21.5 54.5zM398 43q60 0 106 15t81 58q18 21 29.5 51t18 65t9.5 72t3 73q0 70 -11.5 139.5t-40.5 113.5l-352 -552q32 -21 72 -28t85 -7zM151 377q0 -33 2.5 -70.5t7.5 -73t14 -65t22 -47.5l352 552q-29 20 -67 29t-84 9q-69 0 -124.5 -22.5t-86.5 -80.5
q-10 -19 -17 -46.5t-11.5 -58t-6 -63.5t-1.5 -63z" />
    <glyph glyph-name="Ugrave" unicode="&#xd9;" horiz-adv-x="739" 
d="M161 754v-471q0 -75 9 -122t44 -77q29 -25 66.5 -33t89.5 -8q51 0 89.5 8.5t66.5 32.5q34 29 43 76.5t9 122.5v471h62v-471q0 -87 -11.5 -147.5t-59.5 -99.5q-36 -29 -84 -41t-114 -12q-69 0 -117 11t-86 44q-42 37 -55.5 97t-13.5 148v471h62zM362 813l-118 137h79
l116 -137h-77z" />
    <glyph glyph-name="Uacute" unicode="&#xda;" horiz-adv-x="739" 
d="M161 754v-471q0 -75 9 -122t44 -77q29 -25 66.5 -33t89.5 -8q51 0 89.5 8.5t66.5 32.5q34 29 43 76.5t9 122.5v471h62v-471q0 -87 -11.5 -147.5t-59.5 -99.5q-36 -29 -84 -41t-114 -12q-69 0 -117 11t-86 44q-42 37 -55.5 97t-13.5 148v471h62zM295 813l119 137h80
l-121 -137h-78z" />
    <glyph glyph-name="Ucircumflex" unicode="&#xdb;" horiz-adv-x="739" 
d="M161 754v-471q0 -75 9 -122t44 -77q29 -25 66.5 -33t89.5 -8q51 0 89.5 8.5t66.5 32.5q34 29 43 76.5t9 122.5v471h62v-471q0 -87 -11.5 -147.5t-59.5 -99.5q-36 -29 -84 -41t-114 -12q-69 0 -117 11t-86 44q-42 37 -55.5 97t-13.5 148v471h62zM336 950h70l126 -137h-75
l-86 92l-86 -92h-75z" />
    <glyph glyph-name="Udieresis" unicode="&#xdc;" horiz-adv-x="739" 
d="M161 754v-471q0 -75 9 -122t44 -77q29 -25 66.5 -33t89.5 -8q51 0 89.5 8.5t66.5 32.5q34 29 43 76.5t9 122.5v471h62v-471q0 -87 -11.5 -147.5t-59.5 -99.5q-36 -29 -84 -41t-114 -12q-69 0 -117 11t-86 44q-42 37 -55.5 97t-13.5 148v471h62zM439 818v132h63v-132h-63z
M300 950v-132h-63v132h63z" />
    <glyph glyph-name="Yacute" unicode="&#xdd;" horiz-adv-x="606" 
d="M67 754l237 -396l238 396h72l-279 -465v-289h-64v289l-279 465h75zM229 813l119 137h80l-121 -137h-78z" />
    <glyph glyph-name="Thorn" unicode="&#xde;" horiz-adv-x="656" 
d="M102 0v754h62v-140h213q65 0 105.5 -13.5t68.5 -44.5q25 -27 37 -67t12 -84q0 -48 -10 -88.5t-36 -73.5q-25 -32 -60.5 -47t-86.5 -20q-33 -3 -99.5 -3.5t-143.5 -0.5v-172h-62zM164 232q69 0 133 0.5t104 4.5q39 4 65 15t43 38q15 23 21 51.5t6 63.5q0 33 -9 64t-29 51
q-21 21 -52 27.5t-74 6.5h-208v-322z" />
    <glyph glyph-name="germandbls" unicode="&#xdf;" horiz-adv-x="588" 
d="M83 511q0 24 1 52t6 57q4 23 13.5 44.5t26.5 39.5q28 29 68.5 44.5t80.5 15.5q76 0 120 -32q28 -20 42.5 -50t14.5 -75q0 -39 -13 -66t-35 -53q-20 -23 -37.5 -42t-31.5 -33l105 -93q20 -17 37.5 -36t30.5 -38q27 -38 27 -96q0 -73 -58 -118q-25 -19 -63.5 -30t-81.5 -11
q-28 0 -55.5 2.5t-53.5 6.5v59q29 -5 55.5 -7.5t53.5 -2.5q26 0 55 6.5t47 19.5q39 28 39 75q0 18 -2 30t-10 26q-7 12 -23 31t-39 39l-149 131q17 18 43.5 46.5t49.5 55.5q27 32 37 52t10 46q0 23 -6 41.5t-23 33.5q-15 14 -36.5 19t-49.5 5q-32 0 -63.5 -13.5t-48.5 -39.5
q-12 -17 -15 -33.5t-5 -32.5q-2 -23 -2.5 -41.5t-0.5 -34.5v-511h-61v511z" />
    <glyph glyph-name="agrave" unicode="&#xe0;" 
d="M105 461q32 49 76 66.5t105 17.5q48 0 99 -16t110 -38v-491h-61v89q-14 -13 -29 -25t-33 -26q-35 -26 -65 -40.5t-65 -14.5q-60 0 -93 22.5t-53 60.5q-17 32 -25 86t-8 114q0 57 9.5 108.5t32.5 86.5zM147 103q14 -32 36 -47t59 -15q25 0 50 12.5t52 33.5q23 18 47 38
t43 37v289q-37 14 -73.5 25t-74.5 11q-49 0 -80 -14t-51 -49q-16 -28 -23 -70t-7 -88q0 -48 5.5 -93t16.5 -70zM285 617l-118 137h79l116 -137h-77z" />
    <glyph glyph-name="aacute" unicode="&#xe1;" 
d="M105 461q32 49 76 66.5t105 17.5q48 0 99 -16t110 -38v-491h-61v89q-14 -13 -29 -25t-33 -26q-35 -26 -65 -40.5t-65 -14.5q-60 0 -93 22.5t-53 60.5q-17 32 -25 86t-8 114q0 57 9.5 108.5t32.5 86.5zM147 103q14 -32 36 -47t59 -15q25 0 50 12.5t52 33.5q23 18 47 38
t43 37v289q-37 14 -73.5 25t-74.5 11q-49 0 -80 -14t-51 -49q-16 -28 -23 -70t-7 -88q0 -48 5.5 -93t16.5 -70zM225 617l119 137h80l-121 -137h-78z" />
    <glyph glyph-name="acircumflex" unicode="&#xe2;" 
d="M105 461q32 49 76 66.5t105 17.5q48 0 99 -16t110 -38v-491h-61v89q-14 -13 -29 -25t-33 -26q-35 -26 -65 -40.5t-65 -14.5q-60 0 -93 22.5t-53 60.5q-17 32 -25 86t-8 114q0 57 9.5 108.5t32.5 86.5zM147 103q14 -32 36 -47t59 -15q25 0 50 12.5t52 33.5q23 18 47 38
t43 37v289q-37 14 -73.5 25t-74.5 11q-49 0 -80 -14t-51 -49q-16 -28 -23 -70t-7 -88q0 -48 5.5 -93t16.5 -70zM260 754h70l126 -137h-75l-86 92l-86 -92h-75z" />
    <glyph glyph-name="atilde" unicode="&#xe3;" 
d="M105 461q32 49 76 66.5t105 17.5q48 0 99 -16t110 -38v-491h-61v89q-14 -13 -29 -25t-33 -26q-35 -26 -65 -40.5t-65 -14.5q-60 0 -93 22.5t-53 60.5q-17 32 -25 86t-8 114q0 57 9.5 108.5t32.5 86.5zM147 103q14 -32 36 -47t59 -15q25 0 50 12.5t52 33.5q23 18 47 38
t43 37v289q-37 14 -73.5 25t-74.5 11q-49 0 -80 -14t-51 -49q-16 -28 -23 -70t-7 -88q0 -48 5.5 -93t16.5 -70zM111 625q13 33 24 55t24 35.5t28.5 19t37.5 5.5q20 0 39.5 -7.5t45.5 -27.5q21 -17 33.5 -24t28.5 -7q23 0 34 15t22 41h59q-10 -24 -20.5 -44t-23 -34.5
t-30 -23t-41.5 -8.5q-21 0 -40 6t-40 23q-23 19 -37.5 28t-29.5 9q-23 0 -34 -17.5t-22 -43.5h-58z" />
    <glyph glyph-name="adieresis" unicode="&#xe4;" 
d="M105 461q32 49 76 66.5t105 17.5q48 0 99 -16t110 -38v-491h-61v89q-14 -13 -29 -25t-33 -26q-35 -26 -65 -40.5t-65 -14.5q-60 0 -93 22.5t-53 60.5q-17 32 -25 86t-8 114q0 57 9.5 108.5t32.5 86.5zM125 266q0 -48 5.5 -93t16.5 -70q14 -32 36 -47t59 -15q25 0 50 12.5
t52 33.5q23 18 47 38t43 37v289q-37 14 -73.5 25t-74.5 11q-49 0 -80 -14t-51 -49q-16 -28 -23 -70t-7 -88zM352 754h62v-132h-62v132zM165 754h62v-132h-62v132z" />
    <glyph glyph-name="aring" unicode="&#xe5;" 
d="M105 461q32 49 76 66.5t105 17.5q48 0 99 -16t110 -38v-491h-61v89q-14 -13 -29 -25t-33 -26q-35 -26 -65 -40.5t-65 -14.5q-60 0 -93 22.5t-53 60.5q-17 32 -25 86t-8 114q0 57 9.5 108.5t32.5 86.5zM147 103q14 -32 36 -47t59 -15q25 0 50 12.5t52 33.5q23 18 47 38
t43 37v289q-37 14 -73.5 25t-74.5 11q-49 0 -80 -14t-51 -49q-16 -28 -23 -70t-7 -88q0 -48 5.5 -93t16.5 -70zM204 777q14 14 36 24t53 10t53 -10t36 -24q28 -31 28 -79q0 -42 -24 -71q-14 -17 -37.5 -28t-55.5 -11t-55.5 11t-37.5 28q-24 29 -24 71q0 48 28 79zM241 659
q8 -9 20.5 -15t31.5 -6t31.5 6t20.5 15q13 15 13 39q0 11 -2.5 22t-11.5 21q-8 9 -20 14.5t-31 5.5t-31 -5.5t-20 -14.5q-8 -10 -11 -21t-3 -22q0 -24 13 -39z" />
    <glyph glyph-name="ae" unicode="&#xe6;" horiz-adv-x="918" 
d="M60 135q0 41 14.5 76t45.5 52q29 17 68 22t101 5h136v68q0 29 -2 52.5t-13 38.5q-15 21 -42.5 29.5t-75.5 8.5q-22 0 -51 -3.5t-58.5 -9t-56 -11t-43.5 -9.5v59q19 4 46 9.5t56 10.5t57.5 8.5t49.5 3.5q65 0 111 -16.5t67 -61.5q23 35 65 56.5t113 21.5q77 0 120 -26
t65 -64q17 -29 21 -60t4 -57q0 -19 -2.5 -47t-7.5 -55h-364q0 -40 3.5 -70.5t18.5 -56.5q21 -37 56.5 -52.5t98.5 -15.5q45 0 91.5 7.5t78.5 13.5v-59q-15 -3 -36 -6.5t-44.5 -6.5t-46.5 -5t-43 -2q-35 0 -67 4t-59.5 16t-50 33t-38.5 55q-22 -17 -42.5 -32t-41.5 -29
q-32 -20 -67.5 -33.5t-70.5 -13.5q-41 0 -69.5 7t-51.5 27t-33 50t-10 68zM792 290q2 11 3 24t1 28q0 21 -3.5 43.5t-13.5 39.5q-35 62 -131 62q-54 0 -87.5 -17t-53.5 -54q-14 -26 -18.5 -57.5t-4.5 -68.5h308zM149 59q14 -11 32 -14.5t44 -3.5q30 0 60.5 12t63.5 33
q18 11 37 24t39 27v99h-135q-43 0 -76.5 -3t-57.5 -19q-20 -13 -27 -33t-7 -45q0 -28 5.5 -46t21.5 -31z" />
    <glyph glyph-name="ccedilla" unicode="&#xe7;" horiz-adv-x="483" 
d="M63 260q0 48 4.5 94t17.5 78q11 28 26.5 49t38.5 35.5t55.5 21.5t77.5 7q38 0 82 -11t75 -20v-59q-14 4 -34 9.5t-42 10.5t-43 8.5t-38 3.5q-57 0 -88 -15t-50 -58q-11 -26 -15.5 -68t-4.5 -84q0 -46 7.5 -90t22.5 -71q20 -35 51 -47.5t77 -12.5q35 0 79.5 9t77.5 17v-59
q-32 -8 -76 -16.5t-81 -8.5q-74 0 -114 19.5t-66 64.5q-22 38 -31 90t-9 103zM161 -192l82 132h74l-82 -132h-74z" />
    <glyph glyph-name="egrave" unicode="&#xe8;" horiz-adv-x="559" 
d="M63 262q0 50 6 97t29 91q22 41 66 68t125 27q77 0 120 -26t65 -64q17 -29 21 -60t4 -57q0 -19 -2.5 -47t-7.5 -55h-364q0 -29 5 -65t19 -62q20 -37 55 -52.5t98 -15.5q45 0 91.5 7.5t78.5 13.5v-59q-15 -3 -36 -6.5t-44.5 -6.5t-46.5 -5t-43 -2q-44 0 -76 5.5t-56 17
t-41 28t-30 37.5q-21 35 -28.5 80.5t-7.5 110.5zM125 290h308q2 11 3 24t1 28q0 21 -3.5 43.5t-13.5 39.5q-35 62 -131 62q-53 0 -86.5 -16.5t-53.5 -54.5q-7 -13 -11.5 -30t-7.5 -34.5t-4 -33.5t-1 -28zM279 617l-118 137h79l116 -137h-77z" />
    <glyph glyph-name="eacute" unicode="&#xe9;" horiz-adv-x="559" 
d="M63 262q0 50 6 97t29 91q22 41 66 68t125 27q77 0 120 -26t65 -64q17 -29 21 -60t4 -57q0 -19 -2.5 -47t-7.5 -55h-364q0 -29 5 -65t19 -62q20 -37 55 -52.5t98 -15.5q45 0 91.5 7.5t78.5 13.5v-59q-15 -3 -36 -6.5t-44.5 -6.5t-46.5 -5t-43 -2q-44 0 -76 5.5t-56 17
t-41 28t-30 37.5q-21 35 -28.5 80.5t-7.5 110.5zM125 290h308q2 11 3 24t1 28q0 21 -3.5 43.5t-13.5 39.5q-35 62 -131 62q-53 0 -86.5 -16.5t-53.5 -54.5q-7 -13 -11.5 -30t-7.5 -34.5t-4 -33.5t-1 -28zM219 617l119 137h80l-121 -137h-78z" />
    <glyph glyph-name="ecircumflex" unicode="&#xea;" horiz-adv-x="559" 
d="M63 262q0 50 6 97t29 91q22 41 66 68t125 27q77 0 120 -26t65 -64q17 -29 21 -60t4 -57q0 -19 -2.5 -47t-7.5 -55h-364q0 -29 5 -65t19 -62q20 -37 55 -52.5t98 -15.5q45 0 91.5 7.5t78.5 13.5v-59q-15 -3 -36 -6.5t-44.5 -6.5t-46.5 -5t-43 -2q-44 0 -76 5.5t-56 17
t-41 28t-30 37.5q-21 35 -28.5 80.5t-7.5 110.5zM125 290h308q2 11 3 24t1 28q0 21 -3.5 43.5t-13.5 39.5q-35 62 -131 62q-53 0 -86.5 -16.5t-53.5 -54.5q-7 -13 -11.5 -30t-7.5 -34.5t-4 -33.5t-1 -28zM252 754h70l126 -137h-75l-86 92l-86 -92h-75z" />
    <glyph glyph-name="edieresis" unicode="&#xeb;" horiz-adv-x="559" 
d="M63 262q0 50 6 97t29 91q22 41 66 68t125 27q77 0 120 -26t65 -64q17 -29 21 -60t4 -57q0 -19 -2.5 -47t-7.5 -55h-364q0 -29 5 -65t19 -62q20 -37 55 -52.5t98 -15.5q45 0 91.5 7.5t78.5 13.5v-59q-15 -3 -36 -6.5t-44.5 -6.5t-46.5 -5t-43 -2q-44 0 -76 5.5t-56 17
t-41 28t-30 37.5q-21 35 -28.5 80.5t-7.5 110.5zM125 290h308q2 11 3 24t1 28q0 21 -3.5 43.5t-13.5 39.5q-35 62 -131 62q-53 0 -86.5 -16.5t-53.5 -54.5q-7 -13 -11.5 -30t-7.5 -34.5t-4 -33.5t-1 -28zM342 622v132h62v-132h-62zM168 754h62v-132h-62v132z" />
    <glyph glyph-name="igrave" unicode="&#xec;" horiz-adv-x="227" 
d="M86 617l-118 137h79l116 -137h-77zM83 0v528h61v-528h-61z" />
    <glyph glyph-name="iacute" unicode="&#xed;" horiz-adv-x="227" 
d="M60 617l119 137h80l-121 -137h-78zM83 0v528h61v-528h-61z" />
    <glyph glyph-name="icircumflex" unicode="&#xee;" horiz-adv-x="227" 
d="M78 754h70l126 -137h-75l-86 92l-86 -92h-75zM83 0v528h61v-528h-61z" />
    <glyph glyph-name="idieresis" unicode="&#xef;" horiz-adv-x="227" 
d="M83 528h61v-528h-61v528zM207 754v-132h-62v132h62zM82 754v-132h-62v132h62z" />
    <glyph glyph-name="eth" unicode="&#xf0;" horiz-adv-x="587" 
d="M88 392q23 50 64.5 78t126.5 28q40 0 79 -11.5t71 -22.5q-5 28 -21 74.5t-51 88.5l-159 -78v58l118 58q-31 20 -62 32t-56 18v60q44 -11 90 -30t86 -51l121 60v-58l-82 -41q29 -36 48 -84.5t30.5 -103t16.5 -111.5t5 -110q0 -108 -34 -166q-26 -45 -71 -71t-120 -26
q-72 0 -114 19.5t-70 61.5q-21 32 -31 77.5t-10 100.5q0 46 5 82t20 68zM154 103q21 -37 53.5 -49.5t80.5 -12.5q96 0 132 60q17 28 24 63t7 85q0 45 -2.5 82t-9.5 70q-13 5 -31.5 11.5t-40 12.5t-44.5 10.5t-44 4.5q-53 0 -83.5 -15.5t-47.5 -50.5q-14 -28 -18.5 -58
t-4.5 -72q0 -90 29 -141z" />
    <glyph glyph-name="ntilde" unicode="&#xf1;" horiz-adv-x="581" 
d="M83 0v528h61v-39q52 23 100 39.5t92 16.5t75 -9.5t54 -38.5q22 -26 28 -64.5t6 -88.5v-344h-61v344q0 35 -3.5 63.5t-17.5 47.5q-14 18 -33 25t-48 7q-22 0 -47.5 -6t-50.5 -15t-49 -19.5t-45 -19.5v-427h-61zM108 625q13 33 24 55t24 35.5t28.5 19t37.5 5.5
q20 0 39.5 -7.5t45.5 -27.5q21 -17 33.5 -24t28.5 -7q23 0 34 15t22 41h59q-10 -24 -20.5 -44t-23 -34.5t-30 -23t-41.5 -8.5q-21 0 -40 6t-40 23q-23 19 -37.5 28t-29.5 9q-23 0 -34 -17.5t-22 -43.5h-58z" />
    <glyph glyph-name="ograve" unicode="&#xf2;" 
d="M89 430q23 53 68.5 84t131.5 31q63 0 106 -17t72 -57q30 -42 39 -97t9 -110q0 -57 -9 -106t-26 -79q-25 -45 -70.5 -70.5t-120.5 -25.5q-72 0 -113.5 19.5t-69.5 61.5q-21 32 -32 85.5t-11 110.5q0 46 6 92t20 78zM125 262q0 -47 7.5 -90t22.5 -69q21 -37 53.5 -49.5
t80.5 -12.5q96 0 132 60q17 28 24.5 72t7.5 94q0 45 -5 83t-22 69q-21 39 -54 53.5t-83 14.5q-54 0 -87 -17.5t-53 -57.5q-14 -28 -19 -68t-5 -82zM277 617l-118 137h79l116 -137h-77z" />
    <glyph glyph-name="oacute" unicode="&#xf3;" 
d="M89 430q23 53 68.5 84t131.5 31q63 0 106 -17t72 -57q30 -42 39 -97t9 -110q0 -57 -9 -106t-26 -79q-25 -45 -70.5 -70.5t-120.5 -25.5q-72 0 -113.5 19.5t-69.5 61.5q-21 32 -32 85.5t-11 110.5q0 46 6 92t20 78zM125 262q0 -47 7.5 -90t22.5 -69q21 -37 53.5 -49.5
t80.5 -12.5q96 0 132 60q17 28 24.5 72t7.5 94q0 45 -5 83t-22 69q-21 39 -54 53.5t-83 14.5q-54 0 -87 -17.5t-53 -57.5q-14 -28 -19 -68t-5 -82zM211 617l119 137h80l-121 -137h-78z" />
    <glyph glyph-name="ocircumflex" unicode="&#xf4;" 
d="M89 430q23 53 68.5 84t131.5 31q63 0 106 -17t72 -57q30 -42 39 -97t9 -110q0 -57 -9 -106t-26 -79q-25 -45 -70.5 -70.5t-120.5 -25.5q-72 0 -113.5 19.5t-69.5 61.5q-21 32 -32 85.5t-11 110.5q0 46 6 92t20 78zM125 262q0 -47 7.5 -90t22.5 -69q21 -37 53.5 -49.5
t80.5 -12.5q96 0 132 60q17 28 24.5 72t7.5 94q0 45 -5 83t-22 69q-21 39 -54 53.5t-83 14.5q-54 0 -87 -17.5t-53 -57.5q-14 -28 -19 -68t-5 -82zM254 754h70l126 -137h-75l-86 92l-86 -92h-75z" />
    <glyph glyph-name="otilde" unicode="&#xf5;" 
d="M89 430q23 53 68.5 84t131.5 31q63 0 106 -17t72 -57q30 -42 39 -97t9 -110q0 -57 -9 -106t-26 -79q-25 -45 -70.5 -70.5t-120.5 -25.5q-72 0 -113.5 19.5t-69.5 61.5q-21 32 -32 85.5t-11 110.5q0 46 6 92t20 78zM125 262q0 -47 7.5 -90t22.5 -69q21 -37 53.5 -49.5
t80.5 -12.5q96 0 132 60q17 28 24.5 72t7.5 94q0 45 -5 83t-22 69q-21 39 -54 53.5t-83 14.5q-54 0 -87 -17.5t-53 -57.5q-14 -28 -19 -68t-5 -82zM105 625q13 33 24 55t24 35.5t28.5 19t37.5 5.5q20 0 39.5 -7.5t45.5 -27.5q21 -17 33.5 -24t28.5 -7q23 0 34 15t22 41h59
q-10 -24 -20.5 -44t-23 -34.5t-30 -23t-41.5 -8.5q-21 0 -40 6t-40 23q-23 19 -37.5 28t-29.5 9q-23 0 -34 -17.5t-22 -43.5h-58z" />
    <glyph glyph-name="odieresis" unicode="&#xf6;" 
d="M89 430q23 53 68.5 84t131.5 31q63 0 106 -17t72 -57q30 -42 39 -97t9 -110q0 -57 -9 -106t-26 -79q-25 -45 -70.5 -70.5t-120.5 -25.5q-72 0 -113.5 19.5t-69.5 61.5q-21 32 -32 85.5t-11 110.5q0 46 6 92t20 78zM155 103q21 -37 53.5 -49.5t80.5 -12.5q96 0 132 60
q17 28 24.5 72t7.5 94q0 45 -5 83t-22 69q-21 39 -54 53.5t-83 14.5q-54 0 -87 -17.5t-53 -57.5q-14 -28 -19 -68t-5 -82q0 -47 7.5 -90t22.5 -69zM410 754v-132h-62v132h62zM168 622v132h62v-132h-62z" />
    <glyph glyph-name="divide" unicode="&#xf7;" horiz-adv-x="700" 
d="M616 407v-60h-532v60h532zM310 240h80v-116h-80v116zM310 514v116h80v-116h-80z" />
    <glyph glyph-name="oslash" unicode="&#xf8;" 
d="M89 430q23 53 68.5 84t131.5 31q63 0 106 -17t72 -57q30 -42 39 -97t9 -110q0 -57 -9 -106t-26 -79q-25 -45 -70.5 -70.5t-120.5 -25.5q-72 0 -113.5 19.5t-69.5 61.5q-21 32 -32 85.5t-11 110.5q0 46 6 92t20 78zM289 41q96 0 132 60q17 28 24.5 72t7.5 94q0 63 -8 100
t-22 59l-232 -363q19 -13 43 -17.5t55 -4.5zM125 262q0 -47 7.5 -90t22.5 -69l231 362q-19 12 -43 17t-54 5q-54 0 -87 -17.5t-53 -57.5q-14 -28 -19 -68t-5 -82z" />
    <glyph glyph-name="ugrave" unicode="&#xf9;" horiz-adv-x="571" 
d="M82 200v328h61v-328q0 -38 3 -71.5t18 -53.5q14 -19 35 -26.5t59 -7.5q57 0 97 9t72 19v459h61v-503q-62 -17 -116 -29.5t-114 -12.5q-52 0 -86.5 11.5t-56.5 39.5q-21 26 -27 68.5t-6 97.5zM281 617l-118 137h79l116 -137h-77z" />
    <glyph glyph-name="uacute" unicode="&#xfa;" horiz-adv-x="571" 
d="M82 200v328h61v-328q0 -38 3 -71.5t18 -53.5q14 -19 35 -26.5t59 -7.5q57 0 97 9t72 19v459h61v-503q-62 -17 -116 -29.5t-114 -12.5q-52 0 -86.5 11.5t-56.5 39.5q-21 26 -27 68.5t-6 97.5zM216 617l119 137h80l-121 -137h-78z" />
    <glyph glyph-name="ucircumflex" unicode="&#xfb;" horiz-adv-x="571" 
d="M82 200v328h61v-328q0 -38 3 -71.5t18 -53.5q14 -19 35 -26.5t59 -7.5q57 0 97 9t72 19v459h61v-503q-62 -17 -116 -29.5t-114 -12.5q-52 0 -86.5 11.5t-56.5 39.5q-21 26 -27 68.5t-6 97.5zM249 754h70l126 -137h-75l-86 92l-86 -92h-75z" />
    <glyph glyph-name="udieresis" unicode="&#xfc;" horiz-adv-x="571" 
d="M143 528v-328q0 -38 3 -71.5t18 -53.5q14 -19 35 -26.5t59 -7.5q57 0 97 9t72 19v459h61v-503q-62 -17 -116 -29.5t-114 -12.5q-52 0 -86.5 11.5t-56.5 39.5q-21 26 -27 68.5t-6 97.5v328h61zM349 622v132h62v-132h-62zM160 622v132h62v-132h-62z" />
    <glyph glyph-name="yacute" unicode="&#xfd;" horiz-adv-x="507" 
d="M78 528l175 -439l176 439h67l-290 -720h-66l80 199l-209 521h67zM182 617l119 137h80l-121 -137h-78z" />
    <glyph glyph-name="thorn" unicode="&#xfe;" horiz-adv-x="584" 
d="M83 -192v946h61v-287q17 12 34.5 23.5t36.5 22.5q24 14 50.5 23t58.5 9q60 0 97 -20.5t63 -65.5q18 -32 27.5 -83.5t9.5 -111.5q0 -62 -9.5 -111t-31.5 -85q-25 -42 -65 -63.5t-105 -21.5q-44 0 -84 14t-82 34v-223h-61zM144 94q40 -19 80.5 -36t85.5 -17q43 0 71 14.5
t47 46.5q16 27 23.5 69.5t7.5 92.5q0 48 -6 89t-20 69q-17 35 -43.5 50t-65.5 15q-26 0 -49.5 -8.5t-46.5 -22.5q-21 -13 -42.5 -28t-41.5 -30v-304z" />
    <glyph glyph-name="ydieresis" unicode="&#xff;" horiz-adv-x="507" 
d="M78 528l175 -439l176 439h67l-290 -720h-66l80 199l-209 521h67zM312 754h62v-132h-62v132zM195 754v-132h-62v132h62z" />
    <glyph glyph-name="Amacron" unicode="&#x100;" horiz-adv-x="686" 
d="M17 0l285 754h82l285 -754h-67l-76 200h-368l-76 -200h-65zM180 260h323l-161 430zM196 839v55h294v-55h-294z" />
    <glyph glyph-name="amacron" unicode="&#x101;" 
d="M105 461q32 49 76 66.5t105 17.5q48 0 99 -16t110 -38v-491h-61v89q-14 -13 -29 -25t-33 -26q-35 -26 -65 -40.5t-65 -14.5q-60 0 -93 22.5t-53 60.5q-17 32 -25 86t-8 114q0 57 9.5 108.5t32.5 86.5zM147 103q14 -32 36 -47t59 -15q25 0 50 12.5t52 33.5q23 18 47 38
t43 37v289q-37 14 -73.5 25t-74.5 11q-49 0 -80 -14t-51 -49q-16 -28 -23 -70t-7 -88q0 -48 5.5 -93t16.5 -70zM149 645v55h294v-55h-294z" />
    <glyph glyph-name="Abreve" unicode="&#x102;" horiz-adv-x="686" 
d="M17 0l285 754h82l285 -754h-67l-76 200h-368l-76 -200h-65zM180 260h323l-161 430zM252 950q5 -17 12 -35t18 -31q11 -14 25.5 -19t35.5 -5q22 0 36.5 7t24.5 18q11 13 18.5 32t11.5 33h61q-8 -29 -21.5 -59.5t-36.5 -49.5q-19 -16 -41.5 -24t-52.5 -8q-61 0 -97 33
q-19 17 -33 48t-22 60h61z" />
    <glyph glyph-name="abreve" unicode="&#x103;" 
d="M105 461q32 49 76 66.5t105 17.5q48 0 99 -16t110 -38v-491h-61v89q-14 -13 -29 -25t-33 -26q-35 -26 -65 -40.5t-65 -14.5q-60 0 -93 22.5t-53 60.5q-17 32 -25 86t-8 114q0 57 9.5 108.5t32.5 86.5zM147 103q14 -32 36 -47t59 -15q25 0 50 12.5t52 33.5q23 18 47 38
t43 37v289q-37 14 -73.5 25t-74.5 11q-49 0 -80 -14t-51 -49q-16 -28 -23 -70t-7 -88q0 -48 5.5 -93t16.5 -70zM196 754q5 -17 12 -35t18 -31q11 -14 25.5 -19t35.5 -5q22 0 36.5 7t24.5 18q11 13 18.5 32t11.5 33h61q-8 -29 -21.5 -59.5t-36.5 -49.5q-19 -16 -41.5 -24
t-52.5 -8q-61 0 -97 33q-19 17 -33 48t-22 60h61z" />
    <glyph glyph-name="Aogonek" unicode="&#x104;" horiz-adv-x="686" 
d="M302 754h82l287 -754q-17 -13 -39.5 -31t-38.5 -35q-14 -15 -19.5 -26.5t-5.5 -24.5q0 -24 30 -24q17 0 36.5 7t36.5 15v-59q-18 -8 -39 -13.5t-41 -5.5q-46 0 -68 22q-18 18 -18 55q0 33 28 66q14 17 31 32t34 29l-73 193h-367l-75 -200h-66zM503 260l-161 430
l-162 -430h323z" />
    <glyph glyph-name="aogonek" unicode="&#x105;" 
d="M105 461q32 49 76 66.5t105 17.5q48 0 99 -16t110 -38v-491q-17 -12 -40.5 -31t-37.5 -35q-14 -17 -19.5 -27.5t-5.5 -23.5q0 -24 30 -24q17 0 36.5 7t36.5 15v-59q-18 -8 -39 -13.5t-41 -5.5q-46 0 -68 22q-18 18 -18 55q0 35 28 66q14 16 37.5 36t39.5 31v76
q-14 -13 -29 -25t-33 -26q-35 -26 -65 -40.5t-65 -14.5q-60 0 -93 22.5t-53 60.5q-17 32 -25 86t-8 114q0 57 9.5 108.5t32.5 86.5zM125 266q0 -48 5.5 -93t16.5 -70q14 -32 36 -47t59 -15q25 0 50 12.5t52 33.5q23 18 47 38t43 37v289q-37 14 -73.5 25t-74.5 11
q-49 0 -80 -14t-51 -49q-16 -28 -23 -70t-7 -88z" />
    <glyph glyph-name="Cacute" unicode="&#x106;" horiz-adv-x="658" 
d="M87 373q0 82 11.5 158t40.5 127q33 56 85.5 84.5t151.5 28.5q34 0 64.5 -4.5t58.5 -9.5q29 -5 58 -12.5t45 -12.5v-62q-30 8 -59.5 15.5t-60.5 13.5q-26 5 -52 8.5t-54 3.5q-74 0 -117.5 -21.5t-70.5 -75.5q-20 -39 -28.5 -105t-8.5 -136q0 -69 7.5 -126.5t22.5 -93.5
q23 -56 68 -83t123 -27q57 0 114.5 10t115.5 23v-62q-59 -12 -114.5 -21.5t-115.5 -9.5q-105 0 -161 35.5t-87 105.5q-19 42 -28 109.5t-9 139.5zM297 813l119 137h80l-121 -137h-78z" />
    <glyph glyph-name="cacute" unicode="&#x107;" horiz-adv-x="483" 
d="M63 260q0 48 4.5 94t17.5 78q11 28 26.5 49t38.5 35.5t55.5 21.5t77.5 7q38 0 82 -11t75 -20v-59q-14 4 -34 9.5t-42 10.5t-43 8.5t-38 3.5q-57 0 -88 -15t-50 -58q-11 -26 -15.5 -68t-4.5 -84q0 -46 7.5 -90t22.5 -71q20 -35 51 -47.5t77 -12.5q35 0 79.5 9t77.5 17v-59
q-32 -8 -76 -16.5t-81 -8.5q-74 0 -114 19.5t-66 64.5q-22 38 -31 90t-9 103zM195 617l119 137h80l-121 -137h-78z" />
    <glyph glyph-name="Ccircumflex" unicode="&#x108;" horiz-adv-x="658" 
d="M87 373q0 82 11.5 158t40.5 127q33 56 85.5 84.5t151.5 28.5q34 0 64.5 -4.5t58.5 -9.5q29 -5 58 -12.5t45 -12.5v-62q-30 8 -59.5 15.5t-60.5 13.5q-26 5 -52 8.5t-54 3.5q-74 0 -117.5 -21.5t-70.5 -75.5q-20 -39 -28.5 -105t-8.5 -136q0 -69 7.5 -126.5t22.5 -93.5
q23 -56 68 -83t123 -27q57 0 114.5 10t115.5 23v-62q-59 -12 -114.5 -21.5t-115.5 -9.5q-105 0 -161 35.5t-87 105.5q-19 42 -28 109.5t-9 139.5zM336 950h70l126 -137h-75l-86 92l-86 -92h-75z" />
    <glyph glyph-name="ccircumflex" unicode="&#x109;" horiz-adv-x="483" 
d="M63 260q0 48 4.5 94t17.5 78q11 28 26.5 49t38.5 35.5t55.5 21.5t77.5 7q38 0 82 -11t75 -20v-59q-14 4 -34 9.5t-42 10.5t-43 8.5t-38 3.5q-57 0 -88 -15t-50 -58q-11 -26 -15.5 -68t-4.5 -84q0 -46 7.5 -90t22.5 -71q20 -35 51 -47.5t77 -12.5q35 0 79.5 9t77.5 17v-59
q-32 -8 -76 -16.5t-81 -8.5q-74 0 -114 19.5t-66 64.5q-22 38 -31 90t-9 103zM233 754h70l126 -137h-75l-86 92l-86 -92h-75z" />
    <glyph glyph-name="Cdotaccent" unicode="&#x10a;" horiz-adv-x="658" 
d="M87 373q0 82 11.5 158t40.5 127q33 56 85.5 84.5t151.5 28.5q34 0 64.5 -4.5t58.5 -9.5q29 -5 58 -12.5t45 -12.5v-62q-30 8 -59.5 15.5t-60.5 13.5q-26 5 -52 8.5t-54 3.5q-74 0 -117.5 -21.5t-70.5 -75.5q-20 -39 -28.5 -105t-8.5 -136q0 -69 7.5 -126.5t22.5 -93.5
q23 -56 68 -83t123 -27q57 0 114.5 10t115.5 23v-62q-59 -12 -114.5 -21.5t-115.5 -9.5q-105 0 -161 35.5t-87 105.5q-19 42 -28 109.5t-9 139.5zM328 818v132h65v-132h-65z" />
    <glyph glyph-name="cdotaccent" unicode="&#x10b;" horiz-adv-x="483" 
d="M63 260q0 48 4.5 94t17.5 78q11 28 26.5 49t38.5 35.5t55.5 21.5t77.5 7q38 0 82 -11t75 -20v-59q-14 4 -34 9.5t-42 10.5t-43 8.5t-38 3.5q-57 0 -88 -15t-50 -58q-11 -26 -15.5 -68t-4.5 -84q0 -46 7.5 -90t22.5 -71q20 -35 51 -47.5t77 -12.5q35 0 79.5 9t77.5 17v-59
q-32 -8 -76 -16.5t-81 -8.5q-74 0 -114 19.5t-66 64.5q-22 38 -31 90t-9 103zM233 622v132h65v-132h-65z" />
    <glyph glyph-name="Ccaron" unicode="&#x10c;" horiz-adv-x="658" 
d="M87 373q0 82 11.5 158t40.5 127q33 56 85.5 84.5t151.5 28.5q34 0 64.5 -4.5t58.5 -9.5q29 -5 58 -12.5t45 -12.5v-62q-30 8 -59.5 15.5t-60.5 13.5q-26 5 -52 8.5t-54 3.5q-74 0 -117.5 -21.5t-70.5 -75.5q-20 -39 -28.5 -105t-8.5 -136q0 -69 7.5 -126.5t22.5 -93.5
q23 -56 68 -83t123 -27q57 0 114.5 10t115.5 23v-62q-59 -12 -114.5 -21.5t-115.5 -9.5q-105 0 -161 35.5t-87 105.5q-19 42 -28 109.5t-9 139.5zM203 950h75l86 -92l86 92h75l-126 -137h-70z" />
    <glyph glyph-name="ccaron" unicode="&#x10d;" horiz-adv-x="483" 
d="M63 260q0 48 4.5 94t17.5 78q11 28 26.5 49t38.5 35.5t55.5 21.5t77.5 7q38 0 82 -11t75 -20v-59q-14 4 -34 9.5t-42 10.5t-43 8.5t-38 3.5q-57 0 -88 -15t-50 -58q-11 -26 -15.5 -68t-4.5 -84q0 -46 7.5 -90t22.5 -71q20 -35 51 -47.5t77 -12.5q35 0 79.5 9t77.5 17v-59
q-32 -8 -76 -16.5t-81 -8.5q-74 0 -114 19.5t-66 64.5q-22 38 -31 90t-9 103zM103 754h75l86 -92l86 92h75l-126 -137h-70z" />
    <glyph glyph-name="Dcaron" unicode="&#x10e;" horiz-adv-x="748" 
d="M357 754q79 0 126.5 -14t86.5 -51q47 -45 69 -128t22 -181q0 -99 -22 -180t-70 -129q-41 -41 -92.5 -56t-127.5 -15h-247v754h255zM349 60q71 0 112 16t70 48q32 35 49 101.5t17 154.5q0 81 -16 150.5t-51 108.5q-31 35 -72.5 45t-100.5 10h-193v-634h185zM171 950h75
l86 -92l86 92h75l-126 -137h-70z" />
    <glyph glyph-name="dcaron" unicode="&#x10f;" horiz-adv-x="610" 
d="M100 462q26 47 69.5 65t100.5 18q23 0 46.5 -3.5t46 -9t42.5 -11t35 -10.5v243h61v-754h-61v70q-11 -8 -30.5 -21t-41.5 -27q-28 -17 -59 -28t-65 -11q-65 0 -96.5 23t-50.5 61q-18 37 -26 88.5t-8 109.5q0 55 7.5 105.5t29.5 91.5zM125 265q0 -50 5 -90t18 -71
q14 -32 35 -47.5t61 -15.5q29 0 54.5 10.5t47.5 23.5q28 17 51 33.5t43 31.5v310q-48 15 -89.5 26t-80.5 11q-42 0 -72 -13.5t-47 -48.5q-15 -31 -20.5 -72t-5.5 -88zM560 754h61v-66q0 -23 -2 -53t-9 -72h-50v191z" />
    <glyph glyph-name="Dcroat" unicode="&#x110;" horiz-adv-x="757" 
d="M35 360v60h76v334h255q79 0 126.5 -14t86.5 -51q47 -45 69 -128t22 -181q0 -99 -22 -180t-70 -129q-41 -41 -92.5 -56t-127.5 -15h-247v360h-76zM389 420v-60h-216v-300h185q71 0 112 16t70 48q32 35 49 101.5t17 154.5q0 81 -16 150.5t-51 108.5q-31 35 -72.5 45
t-100.5 10h-193v-274h216z" />
    <glyph glyph-name="dcroat" unicode="&#x111;" horiz-adv-x="584" 
d="M100 462q26 47 69.5 65t100.5 18q22 0 46 -3.5t46.5 -9t42.5 -11t35 -10.5v90h-142v58h142v95h61v-95h83v-58h-83v-601h-61v70q-11 -8 -30.5 -21t-41.5 -27q-28 -17 -59 -28t-65 -11q-65 0 -96.5 23t-50.5 61q-18 37 -26 88.5t-8 109.5q0 55 7.5 105.5t29.5 91.5z
M148 104q14 -32 35 -47.5t61 -15.5q29 0 54.5 10.5t47.5 23.5q28 17 51 33.5t43 31.5v310q-48 15 -89.5 26t-80.5 11q-42 0 -72 -13.5t-47 -48.5q-15 -31 -20.5 -72t-5.5 -88q0 -50 5 -90t18 -71z" />
    <glyph glyph-name="Emacron" unicode="&#x112;" horiz-adv-x="652" 
d="M596 754v-60h-432v-279h410v-60h-410v-295h448v-60h-510v754h494zM202 839v55h294v-55h-294z" />
    <glyph glyph-name="emacron" unicode="&#x113;" horiz-adv-x="559" 
d="M63 262q0 50 6 97t29 91q22 41 66 68t125 27q77 0 120 -26t65 -64q17 -29 21 -60t4 -57q0 -19 -2.5 -47t-7.5 -55h-364q0 -29 5 -65t19 -62q20 -37 55 -52.5t98 -15.5q45 0 91.5 7.5t78.5 13.5v-59q-15 -3 -36 -6.5t-44.5 -6.5t-46.5 -5t-43 -2q-44 0 -76 5.5t-56 17
t-41 28t-30 37.5q-21 35 -28.5 80.5t-7.5 110.5zM125 290h308q2 11 3 24t1 28q0 21 -3.5 43.5t-13.5 39.5q-35 62 -131 62q-53 0 -86.5 -16.5t-53.5 -54.5q-7 -13 -11.5 -30t-7.5 -34.5t-4 -33.5t-1 -28zM142 645v55h294v-55h-294z" />
    <glyph glyph-name="Ebreve" unicode="&#x114;" horiz-adv-x="652" 
d="M596 754v-60h-432v-279h410v-60h-410v-295h448v-60h-510v754h494zM252 950q5 -17 12 -35t18 -31q11 -14 25.5 -19t35.5 -5q22 0 36.5 7t24.5 18q11 13 18.5 32t11.5 33h61q-8 -29 -21.5 -59.5t-36.5 -49.5q-19 -16 -41.5 -24t-52.5 -8q-61 0 -97 33q-19 17 -33 48t-22 60
h61z" />
    <glyph glyph-name="ebreve" unicode="&#x115;" horiz-adv-x="559" 
d="M63 262q0 50 6 97t29 91q22 41 66 68t125 27q77 0 120 -26t65 -64q17 -29 21 -60t4 -57q0 -19 -2.5 -47t-7.5 -55h-364q0 -29 5 -65t19 -62q20 -37 55 -52.5t98 -15.5q45 0 91.5 7.5t78.5 13.5v-59q-15 -3 -36 -6.5t-44.5 -6.5t-46.5 -5t-43 -2q-44 0 -76 5.5t-56 17
t-41 28t-30 37.5q-21 35 -28.5 80.5t-7.5 110.5zM125 290h308q2 11 3 24t1 28q0 21 -3.5 43.5t-13.5 39.5q-35 62 -131 62q-53 0 -86.5 -16.5t-53.5 -54.5q-7 -13 -11.5 -30t-7.5 -34.5t-4 -33.5t-1 -28zM195 754q5 -17 12 -35t18 -31q11 -14 25.5 -19t35.5 -5q22 0 36.5 7
t24.5 18q11 13 18.5 32t11.5 33h61q-8 -29 -21.5 -59.5t-36.5 -49.5q-19 -16 -41.5 -24t-52.5 -8q-61 0 -97 33q-19 17 -33 48t-22 60h61z" />
    <glyph glyph-name="Edotaccent" unicode="&#x116;" horiz-adv-x="652" 
d="M596 754v-60h-432v-279h410v-60h-410v-295h448v-60h-510v754h494zM313 818v132h65v-132h-65z" />
    <glyph glyph-name="edotaccent" unicode="&#x117;" horiz-adv-x="559" 
d="M63 262q0 50 6 97t29 91q22 41 66 68t125 27q77 0 120 -26t65 -64q17 -29 21 -60t4 -57q0 -19 -2.5 -47t-7.5 -55h-364q0 -29 5 -65t19 -62q20 -37 55 -52.5t98 -15.5q45 0 91.5 7.5t78.5 13.5v-59q-15 -3 -36 -6.5t-44.5 -6.5t-46.5 -5t-43 -2q-44 0 -76 5.5t-56 17
t-41 28t-30 37.5q-21 35 -28.5 80.5t-7.5 110.5zM125 290h308q2 11 3 24t1 28q0 21 -3.5 43.5t-13.5 39.5q-35 62 -131 62q-53 0 -86.5 -16.5t-53.5 -54.5q-7 -13 -11.5 -30t-7.5 -34.5t-4 -33.5t-1 -28zM251 622v132h65v-132h-65z" />
    <glyph glyph-name="Eogonek" unicode="&#x118;" horiz-adv-x="652" 
d="M596 754v-60h-432v-279h410v-60h-410v-295h448v-60q-17 -14 -39 -31t-39 -35q-14 -15 -19.5 -26.5t-5.5 -24.5q0 -24 30 -24q17 0 36.5 7t36.5 15v-59q-18 -8 -39 -13.5t-41 -5.5q-46 0 -68 22q-18 18 -18 55q0 17 6.5 34t20.5 32q15 16 33.5 30t32.5 24h-437v754h494z
" />
    <glyph glyph-name="eogonek" unicode="&#x119;" horiz-adv-x="559" 
d="M98 450q22 41 66 68t125 27q77 0 120 -26t65 -64q17 -29 21 -60t4 -57q0 -19 -2.5 -47t-7.5 -55h-364q0 -29 5 -65t19 -62q20 -37 55 -52.5t98 -15.5q45 0 91.5 7.5t78.5 13.5v-59q-17 -13 -39 -31.5t-39 -36.5q-14 -15 -19.5 -27t-5.5 -25q0 -24 30 -24q17 0 36.5 7
t36.5 15v-59q-18 -8 -39 -13.5t-41 -5.5q-46 0 -68 22q-18 18 -18 55q0 17 6 34t21 32q11 11 25.5 23.5t25.5 20.5q-21 -3 -43 -5t-39 -2q-44 0 -76 5.5t-56 17t-41 28t-30 37.5q-21 35 -28.5 80.5t-7.5 110.5q0 50 6 97t29 91zM433 290q2 11 3 24t1 28q0 21 -3.5 43.5
t-13.5 39.5q-35 62 -131 62q-53 0 -86.5 -16.5t-53.5 -54.5q-14 -26 -18.5 -63t-4.5 -63h307z" />
    <glyph glyph-name="Ecaron" unicode="&#x11a;" horiz-adv-x="652" 
d="M596 754v-60h-432v-279h410v-60h-410v-295h448v-60h-510v754h494zM188 950h75l86 -92l86 92h75l-126 -137h-70z" />
    <glyph glyph-name="ecaron" unicode="&#x11b;" horiz-adv-x="559" 
d="M63 262q0 50 6 97t29 91q22 41 66 68t125 27q77 0 120 -26t65 -64q17 -29 21 -60t4 -57q0 -19 -2.5 -47t-7.5 -55h-364q0 -29 5 -65t19 -62q20 -37 55 -52.5t98 -15.5q45 0 91.5 7.5t78.5 13.5v-59q-15 -3 -36 -6.5t-44.5 -6.5t-46.5 -5t-43 -2q-44 0 -76 5.5t-56 17
t-41 28t-30 37.5q-21 35 -28.5 80.5t-7.5 110.5zM125 290h308q2 11 3 24t1 28q0 21 -3.5 43.5t-13.5 39.5q-35 62 -131 62q-53 0 -86.5 -16.5t-53.5 -54.5q-7 -13 -11.5 -30t-7.5 -34.5t-4 -33.5t-1 -28zM119 754h75l86 -92l86 92h75l-126 -137h-70z" />
    <glyph glyph-name="Gcircumflex" unicode="&#x11c;" horiz-adv-x="737" 
d="M87 373q0 82 11.5 158t40.5 127q33 56 86 84.5t151 28.5q34 0 64.5 -4.5t58.5 -9.5q31 -6 60 -13t52 -13v-62q-29 8 -62 15.5t-67 14.5q-26 5 -52 8.5t-54 3.5q-74 0 -117.5 -21.5t-70.5 -75.5q-20 -39 -28.5 -105t-8.5 -136q0 -72 8 -129t24 -93q23 -53 67.5 -80.5
t121.5 -27.5q24 0 51 1.5t54.5 4t53 5.5t44.5 6v342h62v-394q-60 -9 -127 -17t-138 -8q-55 0 -94.5 10t-68 28t-48 43t-34.5 56q-20 42 -30 108t-10 145zM340 950h70l126 -137h-75l-86 92l-86 -92h-75z" />
    <glyph glyph-name="gcircumflex" unicode="&#x11d;" horiz-adv-x="580" 
d="M64 269q0 59 8 107t28 83q28 51 71.5 68.5t106.5 17.5q24 0 53.5 -5.5t59 -13t57.5 -16.5t49 -16v-457q0 -66 -16 -110t-45 -73t-76.5 -46t-109.5 -17q-45 0 -88.5 4.5t-78.5 9.5v59q14 -2 33.5 -4.5t42 -5t46.5 -4t45 -1.5q47 0 84 12.5t60 39.5q23 26 32.5 59.5
t9.5 70.5v26q-22 -11 -73 -32q-59 -25 -116 -25q-65 0 -98 21.5t-51 55.5q-17 31 -25.5 81.5t-8.5 110.5zM150 112q14 -29 36.5 -41.5t60.5 -12.5q24 0 48.5 6t50.5 16q28 11 48.5 20t41.5 20v331q-11 4 -30 10t-41 12t-45 10t-42 4q-49 0 -78.5 -14t-47.5 -49
q-14 -27 -20 -68t-6 -87q0 -104 24 -157zM255 754h70l126 -137h-75l-86 92l-86 -92h-75z" />
    <glyph glyph-name="Gbreve" unicode="&#x11e;" horiz-adv-x="737" 
d="M87 373q0 82 11.5 158t40.5 127q33 56 86 84.5t151 28.5q34 0 64.5 -4.5t58.5 -9.5q31 -6 60 -13t52 -13v-62q-29 8 -62 15.5t-67 14.5q-26 5 -52 8.5t-54 3.5q-74 0 -117.5 -21.5t-70.5 -75.5q-20 -39 -28.5 -105t-8.5 -136q0 -72 8 -129t24 -93q23 -53 67.5 -80.5
t121.5 -27.5q24 0 51 1.5t54.5 4t53 5.5t44.5 6v342h62v-394q-60 -9 -127 -17t-138 -8q-55 0 -94.5 10t-68 28t-48 43t-34.5 56q-20 42 -30 108t-10 145zM285 950q5 -17 12 -35t18 -31q11 -14 25.5 -19t35.5 -5q22 0 36.5 7t24.5 18q11 13 18.5 32t11.5 33h61
q-8 -29 -21.5 -59.5t-36.5 -49.5q-19 -16 -41.5 -24t-52.5 -8q-61 0 -97 33q-19 17 -33 48t-22 60h61z" />
    <glyph glyph-name="gbreve" unicode="&#x11f;" horiz-adv-x="580" 
d="M64 269q0 59 8 107t28 83q28 51 71.5 68.5t106.5 17.5q24 0 53.5 -5.5t59 -13t57.5 -16.5t49 -16v-457q0 -66 -16 -110t-45 -73t-76.5 -46t-109.5 -17q-45 0 -88.5 4.5t-78.5 9.5v59q14 -2 33.5 -4.5t42 -5t46.5 -4t45 -1.5q47 0 84 12.5t60 39.5q23 26 32.5 59.5
t9.5 70.5v26q-22 -11 -73 -32q-59 -25 -116 -25q-65 0 -98 21.5t-51 55.5q-17 31 -25.5 81.5t-8.5 110.5zM150 112q14 -29 36.5 -41.5t60.5 -12.5q24 0 48.5 6t50.5 16q28 11 48.5 20t41.5 20v331q-11 4 -30 10t-41 12t-45 10t-42 4q-49 0 -78.5 -14t-47.5 -49
q-14 -27 -20 -68t-6 -87q0 -104 24 -157zM194 754q5 -17 12 -35t18 -31q11 -14 25.5 -19t35.5 -5q22 0 36.5 7t24.5 18q11 13 18.5 32t11.5 33h61q-8 -29 -21.5 -59.5t-36.5 -49.5q-19 -16 -41.5 -24t-52.5 -8q-61 0 -97 33q-19 17 -33 48t-22 60h61z" />
    <glyph glyph-name="Gdotaccent" unicode="&#x120;" horiz-adv-x="737" 
d="M87 373q0 82 11.5 158t40.5 127q33 56 86 84.5t151 28.5q34 0 64.5 -4.5t58.5 -9.5q31 -6 60 -13t52 -13v-62q-29 8 -62 15.5t-67 14.5q-26 5 -52 8.5t-54 3.5q-74 0 -117.5 -21.5t-70.5 -75.5q-20 -39 -28.5 -105t-8.5 -136q0 -72 8 -129t24 -93q23 -53 67.5 -80.5
t121.5 -27.5q24 0 51 1.5t54.5 4t53 5.5t44.5 6v342h62v-394q-60 -9 -127 -17t-138 -8q-55 0 -94.5 10t-68 28t-48 43t-34.5 56q-20 42 -30 108t-10 145zM341 818v132h65v-132h-65z" />
    <glyph glyph-name="gdotaccent" unicode="&#x121;" horiz-adv-x="580" 
d="M64 269q0 59 8 107t28 83q28 51 71.5 68.5t106.5 17.5q24 0 53.5 -5.5t59 -13t57.5 -16.5t49 -16v-457q0 -66 -16 -110t-45 -73t-76.5 -46t-109.5 -17q-45 0 -88.5 4.5t-78.5 9.5v59q14 -2 33.5 -4.5t42 -5t46.5 -4t45 -1.5q47 0 84 12.5t60 39.5q23 26 32.5 59.5
t9.5 70.5v26q-22 -11 -73 -32q-59 -25 -116 -25q-65 0 -98 21.5t-51 55.5q-17 31 -25.5 81.5t-8.5 110.5zM150 112q14 -29 36.5 -41.5t60.5 -12.5q24 0 48.5 6t50.5 16q28 11 48.5 20t41.5 20v331q-11 4 -30 10t-41 12t-45 10t-42 4q-49 0 -78.5 -14t-47.5 -49
q-14 -27 -20 -68t-6 -87q0 -104 24 -157zM254 622v132h65v-132h-65z" />
    <glyph glyph-name="uni0122" unicode="&#x122;" horiz-adv-x="737" 
d="M87 373q0 82 11.5 158t40.5 127q33 56 86 84.5t151 28.5q34 0 64.5 -4.5t58.5 -9.5q31 -6 60 -13t52 -13v-62q-29 8 -62 15.5t-67 14.5q-26 5 -52 8.5t-54 3.5q-74 0 -117.5 -21.5t-70.5 -75.5q-20 -39 -28.5 -105t-8.5 -136q0 -72 8 -129t24 -93q23 -53 67.5 -80.5
t121.5 -27.5q24 0 51 1.5t54.5 4t53 5.5t44.5 6v342h62v-394q-60 -9 -127 -17t-138 -8q-55 0 -94.5 10t-68 28t-48 43t-34.5 56q-20 42 -30 108t-10 145zM336 -279q6 25 9 45t4.5 39.5t2 39.5t0.5 44v52h62v-62q0 -45 -4.5 -80.5t-21.5 -77.5h-52z" />
    <glyph glyph-name="uni0123" unicode="&#x123;" horiz-adv-x="580" 
d="M64 269q0 59 8 107t28 83q28 51 71.5 68.5t106.5 17.5q24 0 53.5 -5.5t59 -13t57.5 -16.5t49 -16v-457q0 -66 -16 -110t-45 -73t-76.5 -46t-109.5 -17q-45 0 -88.5 4.5t-78.5 9.5v59q14 -2 33.5 -4.5t42 -5t46.5 -4t45 -1.5q47 0 84 12.5t60 39.5q23 26 32.5 59.5
t9.5 70.5v26q-22 -11 -73 -32q-59 -25 -116 -25q-65 0 -98 21.5t-51 55.5q-17 31 -25.5 81.5t-8.5 110.5zM126 269q0 -104 24 -157q14 -29 36.5 -41.5t60.5 -12.5q24 0 48.5 6t50.5 16q28 11 48.5 20t41.5 20v331q-11 4 -30 10t-41 12t-45 10t-42 4q-49 0 -78.5 -14
t-47.5 -49q-14 -27 -20 -68t-6 -87zM251 665q0 45 4.5 80.5t21.5 77.5h52q-6 -25 -9 -45t-4.5 -39.5t-2 -39.5t-0.5 -44v-52h-62v62z" />
    <glyph glyph-name="Hcircumflex" unicode="&#x124;" horiz-adv-x="764" 
d="M164 754v-324h436v324h62v-754h-62v370h-436v-370h-62v754h62zM347 950h70l126 -137h-75l-86 92l-86 -92h-75z" />
    <glyph glyph-name="hcircumflex" unicode="&#x125;" 
d="M83 0v754h61v-261q53 22 97.5 37t88.5 15q47 0 77.5 -10t54.5 -38q22 -25 28 -62.5t6 -90.5v-344h-61v343q0 35 -4 65t-18 48t-34 24.5t-49 6.5q-45 0 -94.5 -18.5t-91.5 -37.5v-431h-61zM80 950h70l126 -137h-75l-86 92l-86 -92h-75z" />
    <glyph glyph-name="Hbar" unicode="&#x126;" horiz-adv-x="764" 
d="M102 754h62v-155h436v155h62v-754h-62v360h-436v-360h-62v754zM164 539v-119h436v119h-436z" />
    <glyph glyph-name="hbar" unicode="&#x127;" 
d="M0 601v58h83v95h61v-95h145v-58h-145v-108q52 21 97.5 36.5t88.5 15.5q47 0 77.5 -10t54.5 -38q22 -25 28 -62.5t6 -90.5v-344h-61v343q0 35 -4 65t-18 48t-34 24.5t-49 6.5q-45 0 -94.5 -18.5t-91.5 -37.5v-431h-61v601h-83z" />
    <glyph glyph-name="Itilde" unicode="&#x128;" horiz-adv-x="266" 
d="M102 0v754h62v-754h-62zM-53 826q13 33 24 55t24 35.5t28.5 19t37.5 5.5q20 0 39.5 -7.5t45.5 -27.5q21 -17 33.5 -24t28.5 -7q23 0 34 15t22 41h59q-10 -24 -20.5 -44t-23 -34.5t-30 -23t-41.5 -8.5q-21 0 -40 6t-40 23q-23 19 -37.5 28t-29.5 9q-23 0 -34 -17.5
t-22 -43.5h-58z" />
    <glyph glyph-name="itilde" unicode="&#x129;" horiz-adv-x="227" 
d="M83 0v528h61v-528h-61zM-72 625q13 33 24 55t24 35.5t28.5 19t37.5 5.5q20 0 39.5 -7.5t45.5 -27.5q21 -17 33.5 -24t28.5 -7q23 0 34 15t22 41h59q-10 -24 -20.5 -44t-23 -34.5t-30 -23t-41.5 -8.5q-21 0 -40 6t-40 23q-23 19 -37.5 28t-29.5 9q-23 0 -34 -17.5
t-22 -43.5h-58z" />
    <glyph glyph-name="Imacron" unicode="&#x12a;" horiz-adv-x="266" 
d="M102 0v754h62v-754h-62zM-14 839v55h294v-55h-294z" />
    <glyph glyph-name="imacron" unicode="&#x12b;" horiz-adv-x="227" 
d="M83 0v528h61v-528h-61zM-33 645v55h294v-55h-294z" />
    <glyph glyph-name="Ibreve" unicode="&#x12c;" horiz-adv-x="266" 
d="M102 0v754h62v-754h-62zM42 950q5 -17 12 -35t18 -31q11 -14 25.5 -19t35.5 -5q22 0 36.5 7t24.5 18q11 13 18.5 32t11.5 33h61q-8 -29 -21.5 -59.5t-36.5 -49.5q-19 -16 -41.5 -24t-52.5 -8q-61 0 -97 33q-19 17 -33 48t-22 60h61z" />
    <glyph glyph-name="ibreve" unicode="&#x12d;" horiz-adv-x="227" 
d="M83 0v528h61v-528h-61zM22 754q5 -17 12 -35t18 -31q11 -14 25.5 -19t35.5 -5q22 0 36.5 7t24.5 18q11 13 18.5 32t11.5 33h61q-8 -29 -21.5 -59.5t-36.5 -49.5q-19 -16 -41.5 -24t-52.5 -8q-61 0 -97 33q-19 17 -33 48t-22 60h61z" />
    <glyph glyph-name="Iogonek" unicode="&#x12e;" horiz-adv-x="266" 
d="M46 -120q0 33 21 70q8 14 16.5 26t18.5 24v754h62v-754q-8 -11 -20.5 -28.5t-20.5 -33.5q-7 -14 -10.5 -27.5t-3.5 -27.5q0 -24 30 -24q17 0 36.5 7t36.5 15v-59q-18 -8 -39 -13.5t-41 -5.5q-47 0 -68 21q-10 10 -14 24.5t-4 31.5z" />
    <glyph glyph-name="iogonek" unicode="&#x12f;" horiz-adv-x="227" 
d="M27 -120q0 33 21 70q8 14 16.5 26t18.5 24v528h61v-528q-8 -11 -20.5 -28.5t-20.5 -33.5q-13 -27 -13 -55q0 -24 30 -24q17 0 36.5 7t36.5 15v-59q-18 -8 -39 -13.5t-41 -5.5q-46 0 -68 22q-18 18 -18 55zM146 754v-137h-65v137h65z" />
    <glyph glyph-name="Idotaccent" unicode="&#x130;" horiz-adv-x="266" 
d="M102 0v754h62v-754h-62zM101 818v132h65v-132h-65z" />
    <glyph glyph-name="dotlessi" unicode="&#x131;" horiz-adv-x="227" 
d="M83 0v528h61v-528h-61z" />
    <glyph glyph-name="IJ" unicode="&#x132;" horiz-adv-x="615" 
d="M102 0v754h62v-754h-62zM233 -29q13 4 33 11t42 15.5t43.5 17.5t36.5 18q21 12 34.5 25t20.5 32q8 22 9 56.5t1 71.5v536h62v-534q0 -52 -1.5 -87.5t-10.5 -64.5q-6 -20 -20 -38.5t-36 -32.5q-21 -14 -49.5 -27.5t-58.5 -25t-58 -21t-48 -15.5v63z" />
    <glyph glyph-name="ij" unicode="&#x133;" horiz-adv-x="456" 
d="M83 0v528h61v-528h-61zM81 622v132h65v-132h-65zM177 -211v61q7 3 20 9.5t27.5 14t27.5 15.5t20 15q13 11 20.5 22.5t12.5 25.5t6 40.5t1 48.5v487h61v-487q0 -28 -1 -59.5t-7 -49.5q-8 -25 -22.5 -43.5t-39.5 -36.5q-12 -9 -29 -18t-34.5 -17.5t-34 -15.5t-28.5 -12z
M310 754h65v-132h-65v132z" />
    <glyph glyph-name="Jcircumflex" unicode="&#x134;" horiz-adv-x="372" 
d="M-10 -29q13 4 33 11t42 15.5t43.5 17.5t36.5 18q21 12 34.5 25t20.5 32q8 22 9 56.5t1 71.5v536h62v-534q0 -52 -1.5 -87.5t-10.5 -64.5q-6 -20 -20 -38.5t-36 -32.5q-21 -14 -49.5 -27.5t-58.5 -25t-58 -21t-48 -15.5v63zM200 950h70l126 -137h-75l-86 92l-86 -92h-75z
" />
    <glyph glyph-name="jcircumflex" unicode="&#x135;" horiz-adv-x="241" 
d="M81 754h70l126 -137h-75l-86 92l-86 -92h-75zM-40 -150q7 3 20 9.5t27.5 14t27.5 15.5t20 15q13 11 20.5 22.5t12.5 25.5t6 40.5t1 48.5v487h61v-487q0 -28 -1 -59.5t-7 -49.5q-8 -25 -22.5 -43.5t-39.5 -36.5q-12 -9 -29 -18t-34.5 -17.5t-34 -15.5t-28.5 -12v61z" />
    <glyph glyph-name="uni0136" unicode="&#x136;" horiz-adv-x="637" 
d="M164 754v-361l362 361h89l-373 -372l405 -382h-93l-390 367v-367h-62v754h62zM259 -280q6 25 9 45t4.5 39.5t2 39.5t0.5 44v52h62v-62q0 -45 -4.5 -80.5t-21.5 -77.5h-52z" />
    <glyph glyph-name="uni0137" unicode="&#x137;" horiz-adv-x="497" 
d="M83 0v754h61v-456l243 230h87l-255 -242l278 -286h-85l-268 275v-275h-61zM194 -280q6 25 9 45t4.5 39.5t2 39.5t0.5 44v52h62v-62q0 -45 -4.5 -80.5t-21.5 -77.5h-52z" />
    <glyph glyph-name="kgreenlandic" unicode="&#x138;" horiz-adv-x="509" 
d="M144 528v-239q22 6 47 15.5t50.5 22t49.5 27.5t43 33q23 21 40 58t28 83h62q-14 -66 -36 -113t-58 -79q-29 -26 -63 -45t-68 -33l258 -258h-86l-267 266v-266h-61v528h61z" />
    <glyph glyph-name="Lacute" unicode="&#x139;" horiz-adv-x="614" 
d="M102 0v754h62v-694h415v-60h-477zM93 813l119 137h80l-121 -137h-78z" />
    <glyph glyph-name="lacute" unicode="&#x13a;" horiz-adv-x="227" 
d="M83 0v754h61v-754h-61zM71 813l119 137h80l-121 -137h-78z" />
    <glyph glyph-name="uni013B" unicode="&#x13b;" horiz-adv-x="614" 
d="M102 0v754h62v-694h415v-60h-477zM290 -280q6 25 9 45t4.5 39.5t2 39.5t0.5 44v52h62v-62q0 -45 -4.5 -80.5t-21.5 -77.5h-52z" />
    <glyph glyph-name="uni013C" unicode="&#x13c;" horiz-adv-x="227" 
d="M83 0v754h61v-754h-61zM67 -280q6 25 9 45t4.5 39.5t2 39.5t0.5 44v52h62v-62q0 -45 -4.5 -80.5t-21.5 -77.5h-52z" />
    <glyph glyph-name="Lcaron" unicode="&#x13d;" horiz-adv-x="614" 
d="M102 754h62v-694h415v-60h-477v754zM322 563v191h61v-66q0 -23 -2 -53t-9 -72h-50z" />
    <glyph glyph-name="lcaron" unicode="&#x13e;" horiz-adv-x="253" 
d="M144 754v-754h-61v754h61zM203 754h61v-66q0 -23 -2 -53t-9 -72h-50v191z" />
    <glyph glyph-name="Ldot" unicode="&#x13f;" horiz-adv-x="614" 
d="M102 0v754h62v-694h415v-60h-477zM404 324v132h65v-132h-65z" />
    <glyph glyph-name="ldot" unicode="&#x140;" horiz-adv-x="292" 
d="M83 0v754h61v-754h-61zM227 324v132h65v-132h-65z" />
    <glyph glyph-name="Lslash" unicode="&#x141;" horiz-adv-x="614" 
d="M102 396v358h62v-319l162 105v-70l-162 -105v-304h415v-61h-477v326l-83 -54v70z" />
    <glyph glyph-name="lslash" unicode="&#x142;" horiz-adv-x="251" 
d="M95 416v338h61v-299l80 52v-69l-80 -52v-386h-61v347l-80 -51v69z" />
    <glyph glyph-name="Nacute" unicode="&#x143;" horiz-adv-x="757" 
d="M102 0v754h93l398 -685v685h62v-754h-92l-399 685v-685h-62zM303 813l119 137h80l-121 -137h-78z" />
    <glyph glyph-name="nacute" unicode="&#x144;" horiz-adv-x="581" 
d="M83 0v528h61v-39q52 23 100 39.5t92 16.5t75 -9.5t54 -38.5q22 -26 28 -64.5t6 -88.5v-344h-61v344q0 35 -3.5 63.5t-17.5 47.5q-14 18 -33 25t-48 7q-22 0 -47.5 -6t-50.5 -15t-49 -19.5t-45 -19.5v-427h-61zM206 617l119 137h80l-121 -137h-78z" />
    <glyph glyph-name="uni0145" unicode="&#x145;" horiz-adv-x="757" 
d="M102 0v754h93l398 -685v685h62v-754h-92l-399 685v-685h-62zM328 -280q6 25 9 45t4.5 39.5t2 39.5t0.5 44v52h62v-62q0 -45 -4.5 -80.5t-21.5 -77.5h-52z" />
    <glyph glyph-name="uni0146" unicode="&#x146;" horiz-adv-x="581" 
d="M83 0v528h61v-39q52 23 100 39.5t92 16.5t75 -9.5t54 -38.5q22 -26 28 -64.5t6 -88.5v-344h-61v344q0 35 -3.5 63.5t-17.5 47.5q-14 18 -33 25t-48 7q-22 0 -47.5 -6t-50.5 -15t-49 -19.5t-45 -19.5v-427h-61zM235 -280q6 25 9 45t4.5 39.5t2 39.5t0.5 44v52h62v-62
q0 -45 -4.5 -80.5t-21.5 -77.5h-52z" />
    <glyph glyph-name="Ncaron" unicode="&#x147;" horiz-adv-x="757" 
d="M102 0v754h93l398 -685v685h62v-754h-92l-399 685v-685h-62zM214 950h75l86 -92l86 92h75l-126 -137h-70z" />
    <glyph glyph-name="ncaron" unicode="&#x148;" horiz-adv-x="581" 
d="M83 0v528h61v-39q52 23 100 39.5t92 16.5t75 -9.5t54 -38.5q22 -26 28 -64.5t6 -88.5v-344h-61v344q0 35 -3.5 63.5t-17.5 47.5q-14 18 -33 25t-48 7q-22 0 -47.5 -6t-50.5 -15t-49 -19.5t-45 -19.5v-427h-61zM128 754h75l86 -92l86 92h75l-126 -137h-70z" />
    <glyph glyph-name="napostrophe" unicode="&#x149;" horiz-adv-x="622" 
d="M124 0v528h61v-39q52 23 100 39.5t92 16.5t75 -9.5t54 -38.5q22 -26 28 -64.5t6 -88.5v-344h-61v344q0 35 -3.5 63.5t-17.5 47.5q-14 18 -33 25t-48 7q-22 0 -47.5 -6t-50.5 -15t-49 -19.5t-45 -19.5v-427h-61zM8 534q6 25 9 45t4.5 39.5t2 39.5t0.5 44v52h62v-62
q0 -45 -4.5 -80.5t-21.5 -77.5h-52z" />
    <glyph glyph-name="Eng" unicode="&#x14a;" horiz-adv-x="757" 
d="M195 754l398 -685v685h62v-674q0 -45 -1.5 -76t-9.5 -59q-6 -20 -20.5 -39t-36.5 -33q-21 -14 -49 -27t-58 -24.5t-58 -21t-49 -15.5v65q14 4 34 11t41.5 15t43 17t36.5 17q18 10 34 21.5t22 33.5l-420 720v-685h-62v754h93z" />
    <glyph glyph-name="eng" unicode="&#x14b;" horiz-adv-x="581" 
d="M83 528h61v-39q52 22 100 39t92 17t75 -9.5t54 -38.5q22 -26 28 -64.5t6 -88.5v-303q0 -28 -1 -59.5t-7 -49.5q-8 -25 -22.5 -43.5t-39.5 -36.5q-12 -9 -29 -18t-34.5 -17.5t-34 -15.5t-28.5 -12v61q8 3 20.5 9.5t27 14t27.5 15.5t20 15q13 11 20.5 22.5t12.5 25.5
t6 40.5t1 48.5v303q0 35 -3.5 63.5t-17.5 47.5q-14 18 -33 25t-48 7q-22 0 -47.5 -6t-50.5 -15t-49 -19.5t-45 -19.5v-427h-61v528z" />
    <glyph glyph-name="Omacron" unicode="&#x14c;" horiz-adv-x="796" 
d="M131 640q32 60 98 95.5t169 35.5q91 0 150 -25.5t97 -79.5q18 -25 30.5 -59.5t20 -73t10.5 -78.5t3 -78q0 -32 -2.5 -70t-9 -76t-18.5 -73.5t-30 -62.5q-42 -62 -104 -87t-147 -25q-103 0 -164 27.5t-94 82.5q-15 25 -25.5 58.5t-16.5 71t-8.5 77.5t-2.5 77q0 33 2 69.5
t7 72t13.5 67t21.5 54.5zM151 377q0 -29 2 -63.5t6.5 -68t12 -63t19.5 -50.5q16 -28 38 -45t48.5 -27t57 -13.5t63.5 -3.5q60 0 106 15t81 58q18 21 29.5 51t18 65t9.5 72t3 73q0 33 -2.5 67.5t-8 66.5t-14.5 60.5t-23 50.5q-31 50 -81 69.5t-118 19.5q-69 0 -124.5 -22.5
t-86.5 -80.5q-10 -19 -17 -46.5t-11.5 -58t-6 -63.5t-1.5 -63zM250 839v55h294v-55h-294z" />
    <glyph glyph-name="omacron" unicode="&#x14d;" 
d="M89 430q23 53 68.5 84t131.5 31q63 0 106 -17t72 -57q30 -42 39 -97t9 -110q0 -57 -9 -106t-26 -79q-25 -45 -70.5 -70.5t-120.5 -25.5q-72 0 -113.5 19.5t-69.5 61.5q-21 32 -32 85.5t-11 110.5q0 46 6 92t20 78zM125 262q0 -47 7.5 -90t22.5 -69q21 -37 53.5 -49.5
t80.5 -12.5q96 0 132 60q17 28 24.5 72t7.5 94q0 45 -5 83t-22 69q-21 39 -54 53.5t-83 14.5q-54 0 -87 -17.5t-53 -57.5q-14 -28 -19 -68t-5 -82zM143 645v55h294v-55h-294z" />
    <glyph glyph-name="Obreve" unicode="&#x14e;" horiz-adv-x="796" 
d="M131 640q32 60 98 95.5t169 35.5q91 0 150 -25.5t97 -79.5q18 -25 30.5 -59.5t20 -73t10.5 -78.5t3 -78q0 -32 -2.5 -70t-9 -76t-18.5 -73.5t-30 -62.5q-42 -62 -104 -87t-147 -25q-103 0 -164 27.5t-94 82.5q-15 25 -25.5 58.5t-16.5 71t-8.5 77.5t-2.5 77q0 33 2 69.5
t7 72t13.5 67t21.5 54.5zM151 377q0 -29 2 -63.5t6.5 -68t12 -63t19.5 -50.5q16 -28 38 -45t48.5 -27t57 -13.5t63.5 -3.5q60 0 106 15t81 58q18 21 29.5 51t18 65t9.5 72t3 73q0 33 -2.5 67.5t-8 66.5t-14.5 60.5t-23 50.5q-31 50 -81 69.5t-118 19.5q-69 0 -124.5 -22.5
t-86.5 -80.5q-10 -19 -17 -46.5t-11.5 -58t-6 -63.5t-1.5 -63zM305 950q5 -17 12 -35t18 -31q11 -14 25.5 -19t35.5 -5q22 0 36.5 7t24.5 18q11 13 18.5 32t11.5 33h61q-8 -29 -21.5 -59.5t-36.5 -49.5q-19 -16 -41.5 -24t-52.5 -8q-61 0 -97 33q-19 17 -33 48t-22 60h61z
" />
    <glyph glyph-name="obreve" unicode="&#x14f;" 
d="M89 430q23 53 68.5 84t131.5 31q63 0 106 -17t72 -57q30 -42 39 -97t9 -110q0 -57 -9 -106t-26 -79q-25 -45 -70.5 -70.5t-120.5 -25.5q-72 0 -113.5 19.5t-69.5 61.5q-21 32 -32 85.5t-11 110.5q0 46 6 92t20 78zM125 262q0 -47 7.5 -90t22.5 -69q21 -37 53.5 -49.5
t80.5 -12.5q96 0 132 60q17 28 24.5 72t7.5 94q0 45 -5 83t-22 69q-21 39 -54 53.5t-83 14.5q-54 0 -87 -17.5t-53 -57.5q-14 -28 -19 -68t-5 -82zM198 754q5 -17 12 -35t18 -31q11 -14 25.5 -19t35.5 -5q22 0 36.5 7t24.5 18q11 13 18.5 32t11.5 33h61q-8 -29 -21.5 -59.5
t-36.5 -49.5q-19 -16 -41.5 -24t-52.5 -8q-61 0 -97 33q-19 17 -33 48t-22 60h61z" />
    <glyph glyph-name="Ohungarumlaut" unicode="&#x150;" horiz-adv-x="796" 
d="M131 640q32 60 98 95.5t169 35.5q91 0 150 -25.5t97 -79.5q18 -25 30.5 -59.5t20 -73t10.5 -78.5t3 -78q0 -32 -2.5 -70t-9 -76t-18.5 -73.5t-30 -62.5q-42 -62 -104 -87t-147 -25q-103 0 -164 27.5t-94 82.5q-15 25 -25.5 58.5t-16.5 71t-8.5 77.5t-2.5 77q0 33 2 69.5
t7 72t13.5 67t21.5 54.5zM151 377q0 -29 2 -63.5t6.5 -68t12 -63t19.5 -50.5q16 -28 38 -45t48.5 -27t57 -13.5t63.5 -3.5q60 0 106 15t81 58q18 21 29.5 51t18 65t9.5 72t3 73q0 33 -2.5 67.5t-8 66.5t-14.5 60.5t-23 50.5q-31 50 -81 69.5t-118 19.5q-69 0 -124.5 -22.5
t-86.5 -80.5q-10 -19 -17 -46.5t-11.5 -58t-6 -63.5t-1.5 -63zM506 950h66l-91 -137h-64zM280 813l89 137h66l-91 -137h-64z" />
    <glyph glyph-name="ohungarumlaut" unicode="&#x151;" 
d="M89 430q23 53 68.5 84t131.5 31q63 0 106 -17t72 -57q30 -42 39 -97t9 -110q0 -57 -9 -106t-26 -79q-25 -45 -70.5 -70.5t-120.5 -25.5q-72 0 -113.5 19.5t-69.5 61.5q-21 32 -32 85.5t-11 110.5q0 46 6 92t20 78zM125 262q0 -47 7.5 -90t22.5 -69q21 -37 53.5 -49.5
t80.5 -12.5q96 0 132 60q17 28 24.5 72t7.5 94q0 45 -5 83t-22 69q-21 39 -54 53.5t-83 14.5q-54 0 -87 -17.5t-53 -57.5q-14 -28 -19 -68t-5 -82zM398 754h66l-91 -137h-64zM172 617l89 137h66l-91 -137h-64z" />
    <glyph glyph-name="OE" unicode="&#x152;" horiz-adv-x="1159" 
d="M87 377q0 33 2 69.5t7 72t13.5 67t21.5 54.5q32 60 98 95.5t169 35.5q59 0 95.5 -5.5t62.5 -11.5h547v-60h-471q11 -12 22 -32q14 -23 22.5 -53.5t13 -63.5t6.5 -66.5t2 -63.5h383v-60h-383q0 -30 -1 -65t-5 -69.5t-12.5 -67t-23.5 -58.5q-13 -21 -25 -35h488v-60h-572
q-27 -7 -64 -12t-85 -5q-103 0 -164 27.5t-94 82.5q-15 25 -25.5 58.5t-16.5 71t-8.5 77.5t-2.5 77zM151 377q0 -29 2 -63.5t6.5 -68t12 -63t19.5 -50.5q16 -28 38 -45t48.5 -27t57 -13.5t63.5 -3.5q66 0 115 12.5t81 59.5q29 42 35 106.5t6 155.5q0 74 -5 139t-27 108
q-13 26 -31 43t-42 27t-56.5 13.5t-75.5 3.5q-69 0 -124.5 -22.5t-86.5 -80.5q-10 -19 -17 -46.5t-11.5 -58t-6 -63.5t-1.5 -63z" />
    <glyph glyph-name="oe" unicode="&#x153;" horiz-adv-x="945" 
d="M89 430q23 53 68.5 84t131.5 31q68 0 116.5 -22.5t76.5 -81.5q21 45 65 74.5t128 29.5q77 0 120 -26t65 -64q17 -29 21 -60t4 -57q0 -19 -2.5 -47t-7.5 -55h-364q0 -29 5 -65t19 -62q20 -37 55 -52.5t98 -15.5q45 0 91.5 7.5t78.5 13.5v-59q-15 -3 -36 -6.5t-44.5 -6.5
t-46.5 -5t-43 -2q-47 0 -81 6.5t-58.5 19.5t-41 32t-27.5 44q-25 -51 -71 -76.5t-120 -25.5q-72 0 -113.5 19.5t-69.5 61.5q-21 32 -32 85.5t-11 110.5q0 46 6 92t20 78zM125 262q0 -47 7.5 -90t22.5 -69q21 -37 53.5 -49.5t80.5 -12.5q96 0 132 60q17 28 24.5 72t7.5 94
q0 45 -5 83t-22 69q-21 39 -54 53.5t-83 14.5q-54 0 -87 -17.5t-53 -57.5q-14 -28 -19 -68t-5 -82zM511 290h308q2 11 3 24t1 28q0 21 -3.5 43.5t-13.5 39.5q-35 62 -131 62q-53 0 -86.5 -16.5t-53.5 -54.5q-7 -13 -11.5 -30t-7.5 -34.5t-4 -33.5t-1 -28z" />
    <glyph glyph-name="Racute" unicode="&#x154;" horiz-adv-x="690" 
d="M102 0v754h256q76 0 122.5 -9t79.5 -32q34 -24 50 -63.5t16 -85.5q0 -50 -19.5 -87t-47.5 -68q-22 -24 -46 -48.5t-41 -40.5l193 -320h-76l-189 313h-236v-313h-62zM164 694v-321h276q20 21 36.5 38t30.5 34q22 25 38.5 54t16.5 64t-12 63.5t-42 45.5q-23 14 -57.5 18
t-93.5 4h-193zM268 813l119 137h80l-121 -137h-78z" />
    <glyph glyph-name="racute" unicode="&#x155;" horiz-adv-x="344" 
d="M83 528h61v-66q18 13 34.5 23t36.5 20q23 11 53 20t64 15v-62q-53 -10 -98 -30q-24 -11 -47 -24.5t-43 -27.5v-396h-61v528zM88 617l119 137h80l-121 -137h-78z" />
    <glyph glyph-name="uni0156" unicode="&#x156;" horiz-adv-x="690" 
d="M102 0v754h256q76 0 122.5 -9t79.5 -32q34 -24 50 -63.5t16 -85.5q0 -50 -19.5 -87t-47.5 -68q-22 -24 -46 -48.5t-41 -40.5l193 -320h-76l-189 313h-236v-313h-62zM164 694v-321h276q20 21 36.5 38t30.5 34q22 25 38.5 54t16.5 64t-12 63.5t-42 45.5q-23 14 -57.5 18
t-93.5 4h-193zM290 -280q6 25 9 45t4.5 39.5t2 39.5t0.5 44v52h62v-62q0 -45 -4.5 -80.5t-21.5 -77.5h-52z" />
    <glyph glyph-name="uni0157" unicode="&#x157;" horiz-adv-x="344" 
d="M83 528h61v-66q18 13 34.5 23t36.5 20q23 11 53 20t64 15v-62q-53 -10 -98 -30q-24 -11 -47 -24.5t-43 -27.5v-396h-61v528zM67 -280q6 25 9 45t4.5 39.5t2 39.5t0.5 44v52h62v-62q0 -45 -4.5 -80.5t-21.5 -77.5h-52z" />
    <glyph glyph-name="Rcaron" unicode="&#x158;" horiz-adv-x="690" 
d="M102 0v754h256q76 0 122.5 -9t79.5 -32q34 -24 50 -63.5t16 -85.5q0 -50 -19.5 -87t-47.5 -68q-22 -24 -46 -48.5t-41 -40.5l193 -320h-76l-189 313h-236v-313h-62zM164 694v-321h276q20 21 36.5 38t30.5 34q22 25 38.5 54t16.5 64t-12 63.5t-42 45.5q-23 14 -57.5 18
t-93.5 4h-193zM166 950h75l86 -92l86 92h75l-126 -137h-70z" />
    <glyph glyph-name="rcaron" unicode="&#x159;" horiz-adv-x="344" 
d="M83 528h61v-66q18 13 34.5 23t36.5 20q23 11 53 20t64 15v-62q-53 -10 -98 -30q-24 -11 -47 -24.5t-43 -27.5v-396h-61v528zM14 754h75l86 -92l86 92h75l-126 -137h-70z" />
    <glyph glyph-name="Sacute" unicode="&#x15a;" horiz-adv-x="641" 
d="M62 571q0 37 12 76t44 70q32 32 76 43t112 11q63 0 126 -13.5t127 -30.5v-62q-26 7 -58.5 15t-66.5 15t-67 11.5t-61 4.5q-49 0 -81 -7t-56 -27q-23 -20 -33 -48.5t-10 -57.5q0 -28 5 -48t21 -36q13 -13 39.5 -24t61.5 -23l162 -56q53 -18 81.5 -34.5t48.5 -41.5
q34 -43 34 -117q0 -43 -15 -81t-44 -66q-35 -34 -83 -47.5t-117 -13.5q-32 0 -66.5 4t-68.5 10t-64 12.5t-53 11.5v62q26 -6 58.5 -13t66.5 -13t67 -10t60 -4q51 0 83.5 8t59.5 28q26 20 39 49.5t13 62.5q0 25 -5 45t-19 37t-39.5 28.5t-67.5 25.5l-162 56q-42 14 -71 27.5
t-49 35.5q-21 23 -30.5 54.5t-9.5 70.5zM243 813l119 137h80l-121 -137h-78z" />
    <glyph glyph-name="sacute" unicode="&#x15b;" horiz-adv-x="508" 
d="M58 400q0 32 10.5 60.5t38.5 49.5q27 20 60 27.5t81 7.5q22 0 48 -3.5t51.5 -8.5t47.5 -10t35 -9v-59q-15 4 -38 9.5t-48.5 10.5t-50.5 8.5t-45 3.5q-38 0 -60 -4.5t-38 -15.5q-17 -13 -23.5 -30t-6.5 -37q0 -18 4.5 -33.5t17.5 -24.5q11 -8 29 -15t46 -16l99 -31
q38 -12 59.5 -22t38.5 -27t26.5 -42t9.5 -53q0 -35 -13.5 -66t-42.5 -51t-64 -28t-87 -8t-99 8.5t-80 16.5v59q42 -9 90 -17.5t89 -8.5q32 0 58.5 3.5t46.5 16.5q40 25 40 72q0 16 -4 30t-15 25q-13 13 -34 21t-47 16l-92 29q-38 12 -61 22t-39 24q-20 17 -29 43t-9 57z
M179 617l119 137h80l-121 -137h-78z" />
    <glyph glyph-name="Scircumflex" unicode="&#x15c;" horiz-adv-x="641" 
d="M62 571q0 37 12 76t44 70q32 32 76 43t112 11q63 0 126 -13.5t127 -30.5v-62q-26 7 -58.5 15t-66.5 15t-67 11.5t-61 4.5q-49 0 -81 -7t-56 -27q-23 -20 -33 -48.5t-10 -57.5q0 -28 5 -48t21 -36q13 -13 39.5 -24t61.5 -23l162 -56q53 -18 81.5 -34.5t48.5 -41.5
q34 -43 34 -117q0 -43 -15 -81t-44 -66q-35 -34 -83 -47.5t-117 -13.5q-32 0 -66.5 4t-68.5 10t-64 12.5t-53 11.5v62q26 -6 58.5 -13t66.5 -13t67 -10t60 -4q51 0 83.5 8t59.5 28q26 20 39 49.5t13 62.5q0 25 -5 45t-19 37t-39.5 28.5t-67.5 25.5l-162 56q-42 14 -71 27.5
t-49 35.5q-21 23 -30.5 54.5t-9.5 70.5zM284 950h70l126 -137h-75l-86 92l-86 -92h-75z" />
    <glyph glyph-name="scircumflex" unicode="&#x15d;" horiz-adv-x="508" 
d="M58 400q0 32 10.5 60.5t38.5 49.5q27 20 60 27.5t81 7.5q22 0 48 -3.5t51.5 -8.5t47.5 -10t35 -9v-59q-15 4 -38 9.5t-48.5 10.5t-50.5 8.5t-45 3.5q-38 0 -60 -4.5t-38 -15.5q-17 -13 -23.5 -30t-6.5 -37q0 -18 4.5 -33.5t17.5 -24.5q11 -8 29 -15t46 -16l99 -31
q38 -12 59.5 -22t38.5 -27t26.5 -42t9.5 -53q0 -35 -13.5 -66t-42.5 -51t-64 -28t-87 -8t-99 8.5t-80 16.5v59q42 -9 90 -17.5t89 -8.5q32 0 58.5 3.5t46.5 16.5q40 25 40 72q0 16 -4 30t-15 25q-13 13 -34 21t-47 16l-92 29q-38 12 -61 22t-39 24q-20 17 -29 43t-9 57z
M218 754h70l126 -137h-75l-86 92l-86 -92h-75z" />
    <glyph glyph-name="Scedilla" unicode="&#x15e;" horiz-adv-x="641" 
d="M62 571q0 37 12 76t44 70q32 32 76 43t112 11q63 0 126 -13.5t127 -30.5v-62q-26 7 -58.5 15t-66.5 15t-67 11.5t-61 4.5q-49 0 -81 -7t-56 -27q-23 -20 -33 -48.5t-10 -57.5q0 -28 5 -48t21 -36q13 -13 39.5 -24t61.5 -23l162 -56q53 -18 81.5 -34.5t48.5 -41.5
q34 -43 34 -117q0 -43 -15 -81t-44 -66q-35 -34 -83 -47.5t-117 -13.5q-32 0 -66.5 4t-68.5 10t-64 12.5t-53 11.5v62q26 -6 58.5 -13t66.5 -13t67 -10t60 -4q51 0 83.5 8t59.5 28q26 20 39 49.5t13 62.5q0 25 -5 45t-19 37t-39.5 28.5t-67.5 25.5l-162 56q-42 14 -71 27.5
t-49 35.5q-21 23 -30.5 54.5t-9.5 70.5zM217 -192l82 132h74l-82 -132h-74z" />
    <glyph glyph-name="scedilla" unicode="&#x15f;" horiz-adv-x="508" 
d="M58 400q0 32 10.5 60.5t38.5 49.5q27 20 60 27.5t81 7.5q22 0 48 -3.5t51.5 -8.5t47.5 -10t35 -9v-59q-15 4 -38 9.5t-48.5 10.5t-50.5 8.5t-45 3.5q-38 0 -60 -4.5t-38 -15.5q-17 -13 -23.5 -30t-6.5 -37q0 -18 4.5 -33.5t17.5 -24.5q11 -8 29 -15t46 -16l99 -31
q38 -12 59.5 -22t38.5 -27t26.5 -42t9.5 -53q0 -35 -13.5 -66t-42.5 -51t-64 -28t-87 -8t-99 8.5t-80 16.5v59q42 -9 90 -17.5t89 -8.5q32 0 58.5 3.5t46.5 16.5q40 25 40 72q0 16 -4 30t-15 25q-13 13 -34 21t-47 16l-92 29q-38 12 -61 22t-39 24q-20 17 -29 43t-9 57z
M153 -192l82 132h74l-82 -132h-74z" />
    <glyph glyph-name="Scaron" unicode="&#x160;" horiz-adv-x="641" 
d="M62 571q0 37 12 76t44 70q32 32 76 43t112 11q63 0 126 -13.5t127 -30.5v-62q-26 7 -58.5 15t-66.5 15t-67 11.5t-61 4.5q-49 0 -81 -7t-56 -27q-23 -20 -33 -48.5t-10 -57.5q0 -28 5 -48t21 -36q13 -13 39.5 -24t61.5 -23l162 -56q53 -18 81.5 -34.5t48.5 -41.5
q34 -43 34 -117q0 -43 -15 -81t-44 -66q-35 -34 -83 -47.5t-117 -13.5q-32 0 -66.5 4t-68.5 10t-64 12.5t-53 11.5v62q26 -6 58.5 -13t66.5 -13t67 -10t60 -4q51 0 83.5 8t59.5 28q26 20 39 49.5t13 62.5q0 25 -5 45t-19 37t-39.5 28.5t-67.5 25.5l-162 56q-42 14 -71 27.5
t-49 35.5q-21 23 -30.5 54.5t-9.5 70.5zM160 950h75l86 -92l86 92h75l-126 -137h-70z" />
    <glyph glyph-name="scaron" unicode="&#x161;" horiz-adv-x="508" 
d="M58 400q0 32 10.5 60.5t38.5 49.5q27 20 60 27.5t81 7.5q22 0 48 -3.5t51.5 -8.5t47.5 -10t35 -9v-59q-15 4 -38 9.5t-48.5 10.5t-50.5 8.5t-45 3.5q-38 0 -60 -4.5t-38 -15.5q-17 -13 -23.5 -30t-6.5 -37q0 -18 4.5 -33.5t17.5 -24.5q11 -8 29 -15t46 -16l99 -31
q38 -12 59.5 -22t38.5 -27t26.5 -42t9.5 -53q0 -35 -13.5 -66t-42.5 -51t-64 -28t-87 -8t-99 8.5t-80 16.5v59q42 -9 90 -17.5t89 -8.5q32 0 58.5 3.5t46.5 16.5q40 25 40 72q0 16 -4 30t-15 25q-13 13 -34 21t-47 16l-92 29q-38 12 -61 22t-39 24q-20 17 -29 43t-9 57z
M86 754h75l86 -92l86 92h75l-126 -137h-70z" />
    <glyph glyph-name="uni0162" unicode="&#x162;" horiz-adv-x="664" 
d="M25 754h614v-60h-276v-694h-62v694h-276v60zM231 -192l82 132h74l-82 -132h-74z" />
    <glyph glyph-name="uni0163" unicode="&#x163;" horiz-adv-x="317" 
d="M82 200v461h61v-140h160v-58h-160v-263q0 -32 0.5 -51t2.5 -37t10 -29.5t26 -17.5t44 -9t54 -5v-58q-36 2 -70.5 6t-58.5 12q-46 14 -59 53q-8 23 -9 51.5t-1 84.5zM72 -192l82 132h74l-82 -132h-74z" />
    <glyph glyph-name="Tcaron" unicode="&#x164;" horiz-adv-x="664" 
d="M25 754h614v-60h-276v-694h-62v694h-276v60zM173 950h75l86 -92l86 92h75l-126 -137h-70z" />
    <glyph glyph-name="tcaron" unicode="&#x165;" horiz-adv-x="317" 
d="M143 661v-140h160v-58h-160v-263q0 -32 0.5 -51t2.5 -37t10 -29.5t26 -17.5t44 -9t54 -5v-58q-36 2 -70.5 6t-58.5 12q-46 14 -59 53q-8 23 -9 51.5t-1 84.5v461h61zM261 754v-64q0 -23 -2 -50t-9 -69h-50v183h61z" />
    <glyph glyph-name="Tbar" unicode="&#x166;" horiz-adv-x="664" 
d="M639 754v-60h-276v-274h146v-60h-146v-360h-62v360h-146v60h146v274h-276v60h614z" />
    <glyph glyph-name="tbar" unicode="&#x167;" horiz-adv-x="325" 
d="M82 200v461h61v-140h160v-58h-160v-97h160v-58h-160v-108q0 -32 0.5 -51t2.5 -37t10.5 -29.5t26.5 -17.5t44.5 -9t52.5 -5v-58q-36 2 -70.5 6t-58.5 12q-46 14 -59 53q-8 23 -9 51.5t-1 84.5z" />
    <glyph glyph-name="Utilde" unicode="&#x168;" horiz-adv-x="739" 
d="M161 754v-471q0 -75 9 -122t44 -77q29 -25 66.5 -33t89.5 -8q51 0 89.5 8.5t66.5 32.5q34 29 43 76.5t9 122.5v471h62v-471q0 -87 -11.5 -147.5t-59.5 -99.5q-36 -29 -84 -41t-114 -12q-69 0 -117 11t-86 44q-42 37 -55.5 97t-13.5 148v471h62zM185 818q13 33 24 55
t24 35.5t28.5 19t37.5 5.5q20 0 39.5 -7.5t45.5 -27.5q21 -17 33.5 -24t28.5 -7q23 0 34 15t22 41h59q-10 -24 -20.5 -44t-23 -34.5t-30 -23t-41.5 -8.5q-21 0 -40 6t-40 23q-23 19 -37.5 28t-29.5 9q-23 0 -34 -17.5t-22 -43.5h-58z" />
    <glyph glyph-name="utilde" unicode="&#x169;" horiz-adv-x="571" 
d="M82 200v328h61v-328q0 -38 3 -71.5t18 -53.5q14 -19 35 -26.5t59 -7.5q57 0 97 9t72 19v459h61v-503q-62 -17 -116 -29.5t-114 -12.5q-52 0 -86.5 11.5t-56.5 39.5q-21 26 -27 68.5t-6 97.5zM102 625q13 33 24 55t24 35.5t28.5 19t37.5 5.5q20 0 39.5 -7.5t45.5 -27.5
q21 -17 33.5 -24t28.5 -7q23 0 34 15t22 41h59q-10 -24 -20.5 -44t-23 -34.5t-30 -23t-41.5 -8.5q-21 0 -40 6t-40 23q-23 19 -37.5 28t-29.5 9q-23 0 -34 -17.5t-22 -43.5h-58z" />
    <glyph glyph-name="Umacron" unicode="&#x16a;" horiz-adv-x="739" 
d="M161 754v-471q0 -75 9 -122t44 -77q29 -25 66.5 -33t89.5 -8q51 0 89.5 8.5t66.5 32.5q34 29 43 76.5t9 122.5v471h62v-471q0 -87 -11.5 -147.5t-59.5 -99.5q-36 -29 -84 -41t-114 -12q-69 0 -117 11t-86 44q-42 37 -55.5 97t-13.5 148v471h62zM223 839v55h294v-55h-294z
" />
    <glyph glyph-name="umacron" unicode="&#x16b;" horiz-adv-x="571" 
d="M82 200v328h61v-328q0 -38 3 -71.5t18 -53.5q14 -19 35 -26.5t59 -7.5q57 0 97 9t72 19v459h61v-503q-62 -17 -116 -29.5t-114 -12.5q-52 0 -86.5 11.5t-56.5 39.5q-21 26 -27 68.5t-6 97.5zM138 645v55h294v-55h-294z" />
    <glyph glyph-name="Ubreve" unicode="&#x16c;" horiz-adv-x="739" 
d="M161 754v-471q0 -75 9 -122t44 -77q29 -25 66.5 -33t89.5 -8q51 0 89.5 8.5t66.5 32.5q34 29 43 76.5t9 122.5v471h62v-471q0 -87 -11.5 -147.5t-59.5 -99.5q-36 -29 -84 -41t-114 -12q-69 0 -117 11t-86 44q-42 37 -55.5 97t-13.5 148v471h62zM280 950q5 -17 12 -35
t18 -31q11 -14 25.5 -19t35.5 -5q22 0 36.5 7t24.5 18q11 13 18.5 32t11.5 33h61q-8 -29 -21.5 -59.5t-36.5 -49.5q-19 -16 -41.5 -24t-52.5 -8q-61 0 -97 33q-19 17 -33 48t-22 60h61z" />
    <glyph glyph-name="ubreve" unicode="&#x16d;" horiz-adv-x="571" 
d="M82 200v328h61v-328q0 -38 3 -71.5t18 -53.5q14 -19 35 -26.5t59 -7.5q57 0 97 9t72 19v459h61v-503q-62 -17 -116 -29.5t-114 -12.5q-52 0 -86.5 11.5t-56.5 39.5q-21 26 -27 68.5t-6 97.5zM194 754q5 -17 12 -35t18 -31q11 -14 25.5 -19t35.5 -5q22 0 36.5 7t24.5 18
q11 13 18.5 32t11.5 33h61q-8 -29 -21.5 -59.5t-36.5 -49.5q-19 -16 -41.5 -24t-52.5 -8q-61 0 -97 33q-19 17 -33 48t-22 60h61z" />
    <glyph glyph-name="Uring" unicode="&#x16e;" horiz-adv-x="739" 
d="M161 754v-471q0 -75 9 -122t44 -77q29 -25 66.5 -33t89.5 -8q51 0 89.5 8.5t66.5 32.5q34 29 43 76.5t9 122.5v471h62v-471q0 -87 -11.5 -147.5t-59.5 -99.5q-36 -29 -84 -41t-114 -12q-69 0 -117 11t-86 44q-42 37 -55.5 97t-13.5 148v471h62zM279 969q14 14 36 24
t53 10t53 -10t36 -24q28 -31 28 -79q0 -42 -24 -71q-14 -17 -37.5 -28t-55.5 -11t-55.5 11t-37.5 28q-24 29 -24 71q0 48 28 79zM316 851q8 -9 20.5 -15t31.5 -6t31.5 6t20.5 15q13 15 13 39q0 11 -2.5 22t-11.5 21q-8 9 -20 14.5t-31 5.5t-31 -5.5t-20 -14.5
q-8 -10 -11 -21t-3 -22q0 -24 13 -39z" />
    <glyph glyph-name="uring" unicode="&#x16f;" horiz-adv-x="571" 
d="M82 200v328h61v-328q0 -38 3 -71.5t18 -53.5q14 -19 35 -26.5t59 -7.5q57 0 97 9t72 19v459h61v-503q-62 -17 -116 -29.5t-114 -12.5q-52 0 -86.5 11.5t-56.5 39.5q-21 26 -27 68.5t-6 97.5zM197 777q14 14 36 24t53 10t53 -10t36 -24q28 -31 28 -79q0 -42 -24 -71
q-14 -17 -37.5 -28t-55.5 -11t-55.5 11t-37.5 28q-24 29 -24 71q0 48 28 79zM234 659q8 -9 20.5 -15t31.5 -6t31.5 6t20.5 15q13 15 13 39q0 11 -2.5 22t-11.5 21q-8 9 -20 14.5t-31 5.5t-31 -5.5t-20 -14.5q-8 -10 -11 -21t-3 -22q0 -24 13 -39z" />
    <glyph glyph-name="Uhungarumlaut" unicode="&#x170;" horiz-adv-x="739" 
d="M161 754v-471q0 -75 9 -122t44 -77q29 -25 66.5 -33t89.5 -8q51 0 89.5 8.5t66.5 32.5q34 29 43 76.5t9 122.5v471h62v-471q0 -87 -11.5 -147.5t-59.5 -99.5q-36 -29 -84 -41t-114 -12q-69 0 -117 11t-86 44q-42 37 -55.5 97t-13.5 148v471h62zM473 950h66l-91 -137h-64z
M247 813l89 137h66l-91 -137h-64z" />
    <glyph glyph-name="uhungarumlaut" unicode="&#x171;" horiz-adv-x="571" 
d="M82 200v328h61v-328q0 -38 3 -71.5t18 -53.5q14 -19 35 -26.5t59 -7.5q57 0 97 9t72 19v459h61v-503q-62 -17 -116 -29.5t-114 -12.5q-52 0 -86.5 11.5t-56.5 39.5q-21 26 -27 68.5t-6 97.5zM392 754h66l-91 -137h-64zM166 617l89 137h66l-91 -137h-64z" />
    <glyph glyph-name="Uogonek" unicode="&#x172;" horiz-adv-x="739" 
d="M99 754h62v-471q0 -75 9.5 -121.5t43.5 -77.5q28 -25 66 -33t90 -8q51 0 89.5 8.5t66.5 32.5q34 29 43 76.5t9 122.5v471h62v-471q0 -33 -1 -66.5t-7 -64t-17.5 -57t-32.5 -46.5q-15 -14 -37.5 -27t-39.5 -21q-15 -8 -40 -29t-40 -38q-14 -15 -19.5 -26.5t-5.5 -24.5
q0 -24 30 -24q17 0 36.5 7t36.5 15v-59q-18 -8 -39 -13.5t-41 -5.5q-46 0 -68 22q-18 18 -18 55q0 17 7 34t21 32q19 20 43 38q-9 -1 -18 -1h-19q-69 0 -117 11t-86 44q-42 37 -55.5 97t-13.5 148v471z" />
    <glyph glyph-name="uogonek" unicode="&#x173;" horiz-adv-x="571" 
d="M82 528h61v-328q0 -38 3 -71.5t18 -53.5q14 -19 35 -26.5t59 -7.5q57 0 97 9t72 19v459h61v-503q-6 -7 -16.5 -18.5t-22 -24.5t-22 -26t-17.5 -22q-13 -17 -19 -27.5t-6 -23.5q0 -24 30 -24q17 0 36.5 7t36.5 15v-59q-18 -8 -39 -13.5t-41 -5.5q-46 0 -68 22
q-18 18 -18 55q0 32 29 66q12 14 27.5 30.5t26.5 27.5q-36 -10 -71.5 -15.5t-75.5 -5.5q-52 0 -86.5 11.5t-56.5 39.5q-21 26 -27 68t-6 97v329z" />
    <glyph glyph-name="Wcircumflex" unicode="&#x174;" horiz-adv-x="893" 
d="M30 754h63l146 -694l164 580h82l166 -580l145 694h63l-157 -754h-96l-162 566l-160 -566h-96zM404 950h70l126 -137h-75l-86 92l-86 -92h-75z" />
    <glyph glyph-name="wcircumflex" unicode="&#x175;" horiz-adv-x="777" 
d="M17 528h63l131 -463l139 463h78l140 -463l130 463h62l-149 -528h-85l-138 464l-138 -464h-83zM355 754h70l126 -137h-75l-86 92l-86 -92h-75z" />
    <glyph glyph-name="Ycircumflex" unicode="&#x176;" horiz-adv-x="606" 
d="M67 754l237 -396l238 396h72l-279 -465v-289h-64v289l-279 465h75zM269 950h70l126 -137h-75l-86 92l-86 -92h-75z" />
    <glyph glyph-name="ycircumflex" unicode="&#x177;" horiz-adv-x="507" 
d="M78 528l175 -439l176 439h67l-290 -720h-66l80 199l-209 521h67zM218 754h70l126 -137h-75l-86 92l-86 -92h-75z" />
    <glyph glyph-name="Ydieresis" unicode="&#x178;" horiz-adv-x="606" 
d="M67 754l237 -396l238 396h72l-279 -465v-289h-64v289l-279 465h75zM371 950h63v-132h-63v132zM172 818v132h63v-132h-63z" />
    <glyph glyph-name="Zacute" unicode="&#x179;" horiz-adv-x="641" 
d="M50 0v64l458 630h-443v60h519v-64l-458 -630h465v-60h-541zM250 813l119 137h80l-121 -137h-78z" />
    <glyph glyph-name="zacute" unicode="&#x17a;" horiz-adv-x="516" 
d="M41 0v53l343 417h-328v58h413v-53l-344 -417h353v-58h-437zM192 617l119 137h80l-121 -137h-78z" />
    <glyph glyph-name="Zdotaccent" unicode="&#x17b;" horiz-adv-x="641" 
d="M50 0v64l458 630h-443v60h519v-64l-458 -630h465v-60h-541zM286 818v132h65v-132h-65z" />
    <glyph glyph-name="zdotaccent" unicode="&#x17c;" horiz-adv-x="516" 
d="M41 0v53l343 417h-328v58h413v-53l-344 -417h353v-58h-437zM227 622v132h65v-132h-65z" />
    <glyph glyph-name="Zcaron" unicode="&#x17d;" horiz-adv-x="641" 
d="M50 0v64l458 630h-443v60h519v-64l-458 -630h465v-60h-541zM160 950h75l86 -92l86 92h75l-126 -137h-70z" />
    <glyph glyph-name="zcaron" unicode="&#x17e;" horiz-adv-x="516" 
d="M41 0v53l343 417h-328v58h413v-53l-344 -417h353v-58h-437zM101 754h75l86 -92l86 92h75l-126 -137h-70z" />
    <glyph glyph-name="uni018F" unicode="&#x18f;" horiz-adv-x="727" 
d="M85 258q0 69 9 135h482q0 67 -9 125t-29 96q-29 54 -72 75.5t-117 21.5q-60 0 -120.5 -12t-117.5 -26v61q55 14 115.5 25.5t122.5 11.5q98 0 152 -30t87 -85q31 -51 41.5 -123.5t10.5 -164.5q0 -75 -10 -137.5t-30 -104.5q-32 -68 -91 -105.5t-154 -37.5q-77 0 -126 17.5
t-87 58.5q-29 31 -43 81.5t-14 117.5zM185 107q28 -35 69 -49.5t101 -14.5q73 0 119.5 29.5t70.5 83.5q14 30 22.5 80t8.5 97h-423q-2 -11 -3 -28t-1 -47q0 -47 8 -86t28 -65z" />
    <glyph glyph-name="florin" unicode="&#x192;" horiz-adv-x="358" 
d="M-12 -211v61q7 3 20 9.5t27.5 14t27.5 15.5t20 15q13 11 20.5 22.5t12.5 25.5t6 40.5t1 48.5v478q0 24 1 53t6 58q4 23 14.5 43.5t29.5 36.5q32 27 74 41t83 24v-60q-33 -8 -66.5 -20t-54.5 -35q-14 -15 -17.5 -31t-5.5 -32q-2 -23 -2.5 -41.5t-0.5 -34.5h149v-58h-149
v-422q0 -28 -1 -59.5t-7 -49.5q-8 -25 -22.5 -43.5t-39.5 -36.5q-12 -9 -29 -18t-34.5 -17.5t-34 -15.5t-28.5 -12z" />
    <glyph glyph-name="uni019D" unicode="&#x19d;" horiz-adv-x="757" 
d="M-81 -215v63q26 8 56.5 20.5t61.5 29.5q21 12 34.5 25t20.5 32q8 22 9 56.5t1 71.5v671h93l398 -685v685h62v-754h-92l-399 685v-600q0 -52 -1.5 -87.5t-10.5 -64.5q-6 -20 -20 -38.5t-36 -32.5q-43 -28 -90 -46.5t-87 -30.5z" />
    <glyph glyph-name="Gcaron" unicode="&#x1e6;" horiz-adv-x="737" 
d="M87 373q0 82 11.5 158t40.5 127q33 56 86 84.5t151 28.5q34 0 64.5 -4.5t58.5 -9.5q31 -6 60 -13t52 -13v-62q-29 8 -62 15.5t-67 14.5q-26 5 -52 8.5t-54 3.5q-74 0 -117.5 -21.5t-70.5 -75.5q-20 -39 -28.5 -105t-8.5 -136q0 -72 8 -129t24 -93q23 -53 67.5 -80.5
t121.5 -27.5q24 0 51 1.5t54.5 4t53 5.5t44.5 6v342h62v-394q-60 -9 -127 -17t-138 -8q-55 0 -94.5 10t-68 28t-48 43t-34.5 56q-20 42 -30 108t-10 145zM213 950h75l86 -92l86 92h75l-126 -137h-70z" />
    <glyph glyph-name="gcaron" unicode="&#x1e7;" horiz-adv-x="580" 
d="M64 269q0 59 8 107t28 83q28 51 71.5 68.5t106.5 17.5q24 0 53.5 -5.5t59 -13t57.5 -16.5t49 -16v-457q0 -66 -16 -110t-45 -73t-76.5 -46t-109.5 -17q-45 0 -88.5 4.5t-78.5 9.5v59q14 -2 33.5 -4.5t42 -5t46.5 -4t45 -1.5q47 0 84 12.5t60 39.5q23 26 32.5 59.5
t9.5 70.5v26q-22 -11 -73 -32q-59 -25 -116 -25q-65 0 -98 21.5t-51 55.5q-17 31 -25.5 81.5t-8.5 110.5zM150 112q14 -29 36.5 -41.5t60.5 -12.5q24 0 48.5 6t50.5 16q28 11 48.5 20t41.5 20v331q-11 4 -30 10t-41 12t-45 10t-42 4q-49 0 -78.5 -14t-47.5 -49
q-14 -27 -20 -68t-6 -87q0 -104 24 -157zM125 754h75l86 -92l86 92h75l-126 -137h-70z" />
    <glyph glyph-name="uni01EA" unicode="&#x1ea;" horiz-adv-x="796" 
d="M131 640q32 60 96.5 95.5t167.5 35.5q91 0 152 -25.5t99 -79.5q18 -25 30.5 -59.5t20 -73t10.5 -78.5t3 -78q0 -32 -2.5 -70t-9 -76t-18.5 -73.5t-30 -62.5q-24 -35 -55 -55.5t-69 -37.5q-20 -9 -43.5 -29.5t-40.5 -38.5q-14 -15 -19.5 -26.5t-5.5 -24.5q0 -24 30 -24
q17 0 36.5 7t36.5 15v-59q-18 -8 -39 -13.5t-41 -5.5q-46 0 -68 22q-18 18 -18 55q0 17 7 34t21 32q10 11 21 20.5t22 17.5q-9 -1 -15.5 -1h-14.5q-103 0 -162.5 27.5t-92.5 82.5q-15 25 -25 58.5t-16.5 71t-9 77.5t-2.5 77q0 33 2 69.5t7 72t13.5 67t21.5 54.5zM151 377
q0 -29 2 -63.5t6.5 -68t12 -63t19.5 -50.5q32 -55 85 -72t119 -17q60 0 108 15t83 58q18 21 29.5 51t18 65t9.5 72t3 73q0 33 -2.5 67.5t-8 66.5t-14.5 60.5t-23 50.5q-31 50 -83 69.5t-120 19.5q-69 0 -123 -22.5t-85 -80.5q-10 -19 -17 -46.5t-11.5 -58t-6 -63.5t-1.5 -63
z" />
    <glyph glyph-name="uni01EB" unicode="&#x1eb;" 
d="M89 430q23 53 68.5 84t131.5 31q63 0 106 -17t72 -57q30 -42 39 -97t9 -110q0 -57 -9 -106t-26 -79q-15 -28 -39 -46t-54 -35q-20 -11 -43 -31t-35 -33q-14 -15 -19.5 -26.5t-5.5 -24.5q0 -24 30 -24q17 0 36.5 7t36.5 15v-59q-18 -8 -39 -13.5t-41 -5.5q-46 0 -68 22
q-18 18 -18 55q0 17 7 34t21 32q9 10 20.5 20t19.5 17q-72 0 -113.5 19.5t-69.5 61.5q-21 32 -32 85.5t-11 110.5q0 46 6 92t20 78zM125 262q0 -47 7.5 -90t22.5 -69q21 -37 53.5 -49.5t80.5 -12.5q96 0 132 60q17 28 24.5 72t7.5 94q0 45 -5 83t-22 69q-21 39 -54 53.5
t-83 14.5q-54 0 -87 -17.5t-53 -57.5q-14 -28 -19 -68t-5 -82z" />
    <glyph glyph-name="Aringacute" unicode="&#x1fa;" horiz-adv-x="686" 
d="M287 713q-23 11 -37 28q-24 29 -24 71q0 48 28 79q14 14 36 24t53 10t53 -10t36 -24q28 -31 28 -79q0 -42 -24 -71q-14 -17 -37 -28l270 -713h-67l-76 200h-368l-76 -200h-65zM180 260h323l-161 430zM278 812q0 -24 13 -39q8 -9 20.5 -15t31.5 -6t31.5 6t20.5 15
q13 15 13 39q0 11 -2.5 22t-11.5 21q-8 9 -20 14.5t-31 5.5t-31 -5.5t-20 -14.5q-8 -10 -11 -21t-3 -22zM381 1060h79l-91 -100h-77z" />
    <glyph glyph-name="aringacute" unicode="&#x1fb;" 
d="M105 461q32 49 76 66.5t105 17.5q48 0 99 -16t110 -38v-491h-61v89q-14 -13 -29 -25t-33 -26q-35 -26 -65 -40.5t-65 -14.5q-60 0 -93 22.5t-53 60.5q-17 32 -25 86t-8 114q0 57 9.5 108.5t32.5 86.5zM147 103q14 -32 36 -47t59 -15q25 0 50 12.5t52 33.5q23 18 47 38
t43 37v289q-37 14 -73.5 25t-74.5 11q-49 0 -80 -14t-51 -49q-16 -28 -23 -70t-7 -88q0 -48 5.5 -93t16.5 -70zM178 698q0 48 28 79q14 14 36 24t53 10t53 -10t36 -24q28 -31 28 -79q0 -42 -24 -71q-14 -17 -37.5 -28t-55.5 -11t-55.5 11t-37.5 28q-24 29 -24 71zM243 659
q8 -9 20.5 -15t31.5 -6t31.5 6t20.5 15q13 15 13 39q0 11 -2.5 22t-11.5 21q-8 9 -20 14.5t-31 5.5t-31 -5.5t-20 -14.5q-8 -10 -11 -21t-3 -22q0 -24 13 -39zM247 826l108 124h79l-110 -124h-77z" />
    <glyph glyph-name="AEacute" unicode="&#x1fc;" horiz-adv-x="1090" 
d="M0 0l507 754h527v-60h-432v-279h410v-60h-410v-295h448v-60h-510v200h-332l-134 -200h-74zM249 260h291v435zM527 813l119 137h80l-121 -137h-78z" />
    <glyph glyph-name="aeacute" unicode="&#x1fd;" horiz-adv-x="918" 
d="M60 135q0 41 14.5 76t45.5 52q29 17 68 22t101 5h136v68q0 29 -2 52.5t-13 38.5q-15 21 -42.5 29.5t-75.5 8.5q-22 0 -51 -3.5t-58.5 -9t-56 -11t-43.5 -9.5v59q19 4 46 9.5t56 10.5t57.5 8.5t49.5 3.5q65 0 111 -16.5t67 -61.5q23 35 65 56.5t113 21.5q77 0 120 -26
t65 -64q17 -29 21 -60t4 -57q0 -19 -2.5 -47t-7.5 -55h-364q0 -40 3.5 -70.5t18.5 -56.5q21 -37 56.5 -52.5t98.5 -15.5q45 0 91.5 7.5t78.5 13.5v-59q-15 -3 -36 -6.5t-44.5 -6.5t-46.5 -5t-43 -2q-35 0 -67 4t-59.5 16t-50 33t-38.5 55q-22 -17 -42.5 -32t-41.5 -29
q-32 -20 -67.5 -33.5t-70.5 -13.5q-41 0 -69.5 7t-51.5 27t-33 50t-10 68zM792 290q2 11 3 24t1 28q0 21 -3.5 43.5t-13.5 39.5q-35 62 -131 62q-54 0 -87.5 -17t-53.5 -54q-14 -26 -18.5 -57.5t-4.5 -68.5h308zM149 59q14 -11 32 -14.5t44 -3.5q30 0 60.5 12t63.5 33
q18 11 37 24t39 27v99h-135q-43 0 -76.5 -3t-57.5 -19q-20 -13 -27 -33t-7 -45q0 -28 5.5 -46t21.5 -31zM397 617l119 137h80l-121 -137h-78z" />
    <glyph glyph-name="Oslashacute" unicode="&#x1fe;" horiz-adv-x="796" 
d="M131 640q32 60 98 95.5t169 35.5q91 0 150 -25.5t97 -79.5q18 -25 30.5 -59.5t20 -73t10.5 -78.5t3 -78q0 -32 -2.5 -70t-9 -76t-18.5 -73.5t-30 -62.5q-42 -62 -104 -87t-147 -25q-103 0 -164 27.5t-94 82.5q-15 25 -25.5 58.5t-16.5 71t-8.5 77.5t-2.5 77q0 33 2 69.5
t7 72t13.5 67t21.5 54.5zM398 43q60 0 106 15t81 58q18 21 29.5 51t18 65t9.5 72t3 73q0 70 -11.5 139.5t-40.5 113.5l-352 -552q32 -21 72 -28t85 -7zM151 377q0 -33 2.5 -70.5t7.5 -73t14 -65t22 -47.5l352 552q-29 20 -67 29t-84 9q-69 0 -124.5 -22.5t-86.5 -80.5
q-10 -19 -17 -46.5t-11.5 -58t-6 -63.5t-1.5 -63zM329 813l119 137h80l-121 -137h-78z" />
    <glyph glyph-name="oslashacute" unicode="&#x1ff;" 
d="M89 430q23 53 68.5 84t131.5 31q63 0 106 -17t72 -57q30 -42 39 -97t9 -110q0 -57 -9 -106t-26 -79q-25 -45 -70.5 -70.5t-120.5 -25.5q-72 0 -113.5 19.5t-69.5 61.5q-21 32 -32 85.5t-11 110.5q0 46 6 92t20 78zM289 41q96 0 132 60q17 28 24.5 72t7.5 94q0 63 -8 100
t-22 59l-232 -363q19 -13 43 -17.5t55 -4.5zM125 262q0 -47 7.5 -90t22.5 -69l231 362q-19 12 -43 17t-54 5q-54 0 -87 -17.5t-53 -57.5q-14 -28 -19 -68t-5 -82zM211 617l119 137h80l-121 -137h-78z" />
    <glyph glyph-name="uni0218" unicode="&#x218;" horiz-adv-x="641" 
d="M62 571q0 37 12 76t44 70q32 32 76 43t112 11q63 0 126 -13.5t127 -30.5v-62q-26 7 -58.5 15t-66.5 15t-67 11.5t-61 4.5q-49 0 -81 -7t-56 -27q-23 -20 -33 -48.5t-10 -57.5q0 -28 5 -48t21 -36q13 -13 39.5 -24t61.5 -23l162 -56q53 -18 81.5 -34.5t48.5 -41.5
q34 -43 34 -117q0 -43 -15 -81t-44 -66q-35 -34 -83 -47.5t-117 -13.5q-32 0 -66.5 4t-68.5 10t-64 12.5t-53 11.5v62q26 -6 58.5 -13t66.5 -13t67 -10t60 -4q51 0 83.5 8t59.5 28q26 20 39 49.5t13 62.5q0 25 -5 45t-19 37t-39.5 28.5t-67.5 25.5l-162 56q-42 14 -71 27.5
t-49 35.5q-21 23 -30.5 54.5t-9.5 70.5zM275 -280q6 25 9 45t4.5 39.5t2 39.5t0.5 44v52h62v-62q0 -45 -4.5 -80.5t-21.5 -77.5h-52z" />
    <glyph glyph-name="uni0219" unicode="&#x219;" horiz-adv-x="508" 
d="M58 400q0 32 10.5 60.5t38.5 49.5q27 20 60 27.5t81 7.5q22 0 48 -3.5t51.5 -8.5t47.5 -10t35 -9v-59q-15 4 -38 9.5t-48.5 10.5t-50.5 8.5t-45 3.5q-38 0 -60 -4.5t-38 -15.5q-17 -13 -23.5 -30t-6.5 -37q0 -18 4.5 -33.5t17.5 -24.5q11 -8 29 -15t46 -16l99 -31
q38 -12 59.5 -22t38.5 -27t26.5 -42t9.5 -53q0 -35 -13.5 -66t-42.5 -51t-64 -28t-87 -8t-99 8.5t-80 16.5v59q42 -9 90 -17.5t89 -8.5q32 0 58.5 3.5t46.5 16.5q40 25 40 72q0 16 -4 30t-15 25q-13 13 -34 21t-47 16l-92 29q-38 12 -61 22t-39 24q-20 17 -29 43t-9 57z
M208 -280q6 25 9 45t4.5 39.5t2 39.5t0.5 44v52h62v-62q0 -45 -4.5 -80.5t-21.5 -77.5h-52z" />
    <glyph glyph-name="uni021A" unicode="&#x21a;" horiz-adv-x="664" 
d="M25 754h614v-60h-276v-694h-62v694h-276v60zM286 -280q6 25 9 45t4.5 39.5t2 39.5t0.5 44v52h62v-62q0 -45 -4.5 -80.5t-21.5 -77.5h-52z" />
    <glyph glyph-name="uni021B" unicode="&#x21b;" horiz-adv-x="317" 
d="M82 200v461h61v-140h160v-58h-160v-263q0 -32 0.5 -51t2.5 -37t10 -29.5t26 -17.5t44 -9t54 -5v-58q-36 2 -70.5 6t-58.5 12q-46 14 -59 53q-8 23 -9 51.5t-1 84.5zM118 -280q6 25 9 45t4.5 39.5t2 39.5t0.5 44v52h62v-62q0 -45 -4.5 -80.5t-21.5 -77.5h-52z" />
    <glyph glyph-name="uni0232" unicode="&#x232;" horiz-adv-x="606" 
d="M67 754l237 -396l238 396h72l-279 -465v-289h-64v289l-279 465h75zM157 841v55h294v-55h-294z" />
    <glyph glyph-name="uni0233" unicode="&#x233;" horiz-adv-x="507" 
d="M78 528l175 -439l176 439h67l-290 -720h-66l80 199l-209 521h67zM106 645v55h294v-55h-294z" />
    <glyph glyph-name="uni0237" unicode="&#x237;" horiz-adv-x="241" 
d="M-40 -150q7 3 20 9.5t27.5 14t27.5 15.5t20 15q13 11 20.5 22.5t12.5 25.5t6 40.5t1 48.5v487h61v-487q0 -28 -1 -59.5t-7 -49.5q-8 -25 -22.5 -43.5t-39.5 -36.5q-12 -9 -29 -18t-34.5 -17.5t-34 -15.5t-28.5 -12v61z" />
    <glyph glyph-name="uni0259" unicode="&#x259;" horiz-adv-x="559" 
d="M70 290h364q0 29 -5 66t-19 63q-20 37 -55 52.5t-98 15.5q-46 0 -92.5 -7.5t-77.5 -13.5v59q15 3 37 6.5t45 6.5t46.5 5t41.5 2q44 0 76 -5.5t56 -17t41 -28t30 -37.5q21 -35 28.5 -80.5t7.5 -110.5q0 -48 -5.5 -96t-28.5 -91q-23 -42 -67 -69t-125 -27q-77 0 -120 26
t-65 64q-17 29 -21 60t-4 57q0 19 2.5 46t7.5 54zM139 103q35 -62 131 -62q53 0 86.5 16.5t53.5 54.5q14 26 18.5 62t4.5 62h-307q-2 -11 -3 -23t-1 -27q0 -21 3.5 -43.5t13.5 -39.5z" />
    <glyph glyph-name="uni0272" unicode="&#x272;" horiz-adv-x="581" 
d="M-52 -211v61q7 3 20 9.5t27.5 14t27.5 15.5t20 15q26 23 33 48t7 58v518h61v-39q52 22 100 39t92 17t75 -9.5t54 -38.5q22 -26 28 -64.5t6 -88.5v-344h-61v344q0 35 -3.5 63.5t-17.5 47.5q-14 18 -33 25t-48 7q-22 0 -47.5 -6t-50.5 -15t-49 -19.5t-45 -19.5v-386
q0 -28 -1 -59.5t-7 -49.5q-8 -25 -22.5 -43.5t-39.5 -36.5q-12 -9 -29 -18t-34.5 -17.5t-34 -15.5t-28.5 -12z" />
    <glyph glyph-name="circumflex" unicode="&#x2c6;" horiz-adv-x="400" 
d="M165 754h70l126 -137h-75l-86 92l-86 -92h-75z" />
    <glyph glyph-name="caron" unicode="&#x2c7;" horiz-adv-x="400" 
d="M39 754h75l86 -92l86 92h75l-126 -137h-70z" />
    <glyph glyph-name="breve" unicode="&#x2d8;" horiz-adv-x="400" 
d="M109 754q5 -17 12 -35t18 -31q11 -14 25.5 -19t35.5 -5q22 0 36.5 7t24.5 18q11 13 18.5 32t11.5 33h61q-8 -29 -21.5 -59.5t-36.5 -49.5q-19 -16 -41.5 -24t-52.5 -8q-61 0 -97 33q-19 17 -33 48t-22 60h61z" />
    <glyph glyph-name="dotaccent" unicode="&#x2d9;" horiz-adv-x="400" 
d="M168 622v132h65v-132h-65z" />
    <glyph glyph-name="ring" unicode="&#x2da;" horiz-adv-x="400" 
d="M113 777q14 14 36 24t53 10t53 -10t36 -24q28 -31 28 -79q0 -42 -24 -71q-14 -17 -37.5 -28t-55.5 -11t-55.5 11t-37.5 28q-24 29 -24 71q0 48 28 79zM150 659q8 -9 20.5 -15t31.5 -6t31.5 6t20.5 15q13 15 13 39q0 11 -2.5 22t-11.5 21q-8 9 -20 14.5t-31 5.5t-31 -5.5
t-20 -14.5q-8 -10 -11 -21t-3 -22q0 -24 13 -39z" />
    <glyph glyph-name="ogonek" unicode="&#x2db;" horiz-adv-x="400" 
d="M234 -120q0 35 28 66q14 16 32.5 30t32.5 24h73q-17 -14 -39 -31t-39 -35q-14 -15 -19.5 -26.5t-5.5 -24.5q0 -24 30 -24q17 0 36.5 7t36.5 15v-59q-18 -8 -39 -13.5t-41 -5.5q-46 0 -68 22q-18 18 -18 55z" />
    <glyph glyph-name="tilde" unicode="&#x2dc;" horiz-adv-x="400" 
d="M12 629q13 33 24 55t24 35.5t28.5 19t37.5 5.5q20 0 39.5 -7.5t45.5 -27.5q21 -17 33.5 -24t28.5 -7q23 0 34 15t22 41h59q-10 -24 -20.5 -44t-23 -34.5t-30 -23t-41.5 -8.5q-21 0 -40 6t-40 23q-23 19 -37.5 28t-29.5 9q-23 0 -34 -17.5t-22 -43.5h-58z" />
    <glyph glyph-name="hungarumlaut" unicode="&#x2dd;" horiz-adv-x="400" 
d="M289 754h66l-91 -137h-64zM63 617l89 137h66l-91 -137h-64z" />
    <glyph glyph-name="uni0326" unicode="&#x326;" horiz-adv-x="400" 
d="M158 -280q6 25 9 45t4.5 39.5t2 39.5t0.5 44v52h62v-62q0 -45 -4.5 -80.5t-21.5 -77.5h-52z" />
    <glyph glyph-name="pi" unicode="&#x3c0;" horiz-adv-x="602" 
d="M582 528v-58h-108v-272q0 -32 0.5 -53t2.5 -39t9.5 -29.5t24.5 -16.5q13 -4 24 -5.5t28 -3.5v-58q-21 2 -40 4.5t-41 8.5q-46 13 -59 52q-8 23 -9 53.5t-1 86.5v272h-229v-470h-61v470h-108v58h567z" />
    <glyph glyph-name="Wgrave" unicode="&#x1e80;" horiz-adv-x="893" 
d="M30 754h63l146 -694l164 580h82l166 -580l145 694h63l-157 -754h-96l-162 566l-160 -566h-96zM426 813l-118 137h79l116 -137h-77z" />
    <glyph glyph-name="wgrave" unicode="&#x1e81;" horiz-adv-x="777" 
d="M17 528h63l131 -463l139 463h78l140 -463l130 463h62l-149 -528h-85l-138 464l-138 -464h-83zM380 617l-118 137h79l116 -137h-77z" />
    <glyph glyph-name="Wacute" unicode="&#x1e82;" horiz-adv-x="893" 
d="M30 754h63l146 -694l164 580h82l166 -580l145 694h63l-157 -754h-96l-162 566l-160 -566h-96zM373 813l119 137h80l-121 -137h-78z" />
    <glyph glyph-name="wacute" unicode="&#x1e83;" horiz-adv-x="777" 
d="M17 528h63l131 -463l139 463h78l140 -463l130 463h62l-149 -528h-85l-138 464l-138 -464h-83zM323 617l119 137h80l-121 -137h-78z" />
    <glyph glyph-name="Wdieresis" unicode="&#x1e84;" horiz-adv-x="893" 
d="M30 754h63l146 -694l164 580h82l166 -580l145 694h63l-157 -754h-96l-162 566l-160 -566h-96zM502 950h62v-132h-62v132zM384 950v-132h-62v132h62z" />
    <glyph glyph-name="wdieresis" unicode="&#x1e85;" horiz-adv-x="777" 
d="M17 528h63l131 -463l139 463h78l140 -463l130 463h62l-149 -528h-85l-138 464l-138 -464h-83zM447 754h62v-132h-62v132zM329 754v-132h-62v132h62z" />
    <glyph glyph-name="Germandbls" unicode="&#x1e9e;" horiz-adv-x="754" 
d="M99 373q0 89 4.5 161t30.5 124q29 58 88 85.5t166 27.5q66 0 136 -13t125 -28v-62l-146 -254l41 -21q48 -25 76 -44t48 -45q34 -43 34 -116q0 -43 -13.5 -80t-43.5 -66q-35 -33 -84.5 -46t-118.5 -13q-44 0 -90.5 6.5t-71.5 11.5v62q26 -5 70 -12.5t92 -7.5q53 0 87 7.5
t61 27.5q26 20 37 49t11 61q0 25 -4.5 44.5t-18.5 36.5t-37 32.5t-61 34.5l-101 50l170 297q-16 5 -39.5 9.5t-50 9t-54.5 7t-54 2.5q-75 0 -124.5 -16.5t-76.5 -72.5q-19 -39 -22.5 -99.5t-3.5 -135.5v-387h-62v373z" />
    <glyph glyph-name="uni1EA0" unicode="&#x1ea0;" horiz-adv-x="686" 
d="M17 0l285 754h82l285 -754h-67l-76 200h-368l-76 -200h-65zM180 260h323l-161 430zM312 -192v132h65v-132h-65z" />
    <glyph glyph-name="uni1EA1" unicode="&#x1ea1;" 
d="M105 461q32 49 76 66.5t105 17.5q48 0 99 -16t110 -38v-491h-61v89q-14 -13 -29 -25t-33 -26q-35 -26 -65 -40.5t-65 -14.5q-60 0 -93 22.5t-53 60.5q-17 32 -25 86t-8 114q0 57 9.5 108.5t32.5 86.5zM147 103q14 -32 36 -47t59 -15q25 0 50 12.5t52 33.5q23 18 47 38
t43 37v289q-37 14 -73.5 25t-74.5 11q-49 0 -80 -14t-51 -49q-16 -28 -23 -70t-7 -88q0 -48 5.5 -93t16.5 -70zM245 -192v132h65v-132h-65z" />
    <glyph glyph-name="uni1EB8" unicode="&#x1eb8;" horiz-adv-x="652" 
d="M596 754v-60h-432v-279h410v-60h-410v-295h448v-60h-510v754h494zM318 -192v132h65v-132h-65z" />
    <glyph glyph-name="uni1EB9" unicode="&#x1eb9;" horiz-adv-x="559" 
d="M63 262q0 50 6 97t29 91q22 41 66 68t125 27q77 0 120 -26t65 -64q17 -29 21 -60t4 -57q0 -19 -2.5 -47t-7.5 -55h-364q0 -29 5 -65t19 -62q20 -37 55 -52.5t98 -15.5q45 0 91.5 7.5t78.5 13.5v-59q-15 -3 -36 -6.5t-44.5 -6.5t-46.5 -5t-43 -2q-44 0 -76 5.5t-56 17
t-41 28t-30 37.5q-21 35 -28.5 80.5t-7.5 110.5zM125 290h308q2 11 3 24t1 28q0 21 -3.5 43.5t-13.5 39.5q-35 62 -131 62q-53 0 -86.5 -16.5t-53.5 -54.5q-7 -13 -11.5 -30t-7.5 -34.5t-4 -33.5t-1 -28zM246 -192v132h65v-132h-65z" />
    <glyph glyph-name="uni1EBC" unicode="&#x1ebc;" horiz-adv-x="652" 
d="M596 754v-60h-432v-279h410v-60h-410v-295h448v-60h-510v754h494zM168 818q13 33 24 55t24 35.5t28.5 19t37.5 5.5q20 0 39.5 -7.5t45.5 -27.5q21 -17 33.5 -24t28.5 -7q23 0 34 15t22 41h59q-10 -24 -20.5 -44t-23 -34.5t-30 -23t-41.5 -8.5q-21 0 -40 6t-40 23
q-23 19 -37.5 28t-29.5 9q-23 0 -34 -17.5t-22 -43.5h-58z" />
    <glyph glyph-name="uni1EBD" unicode="&#x1ebd;" horiz-adv-x="559" 
d="M63 262q0 50 6 97t29 91q22 41 66 68t125 27q77 0 120 -26t65 -64q17 -29 21 -60t4 -57q0 -19 -2.5 -47t-7.5 -55h-364q0 -29 5 -65t19 -62q20 -37 55 -52.5t98 -15.5q45 0 91.5 7.5t78.5 13.5v-59q-15 -3 -36 -6.5t-44.5 -6.5t-46.5 -5t-43 -2q-44 0 -76 5.5t-56 17
t-41 28t-30 37.5q-21 35 -28.5 80.5t-7.5 110.5zM125 290h308q2 11 3 24t1 28q0 21 -3.5 43.5t-13.5 39.5q-35 62 -131 62q-53 0 -86.5 -16.5t-53.5 -54.5q-7 -13 -11.5 -30t-7.5 -34.5t-4 -33.5t-1 -28zM101 629q13 33 24 55t24 35.5t28.5 19t37.5 5.5q20 0 39.5 -7.5
t45.5 -27.5q21 -17 33.5 -24t28.5 -7q23 0 34 15t22 41h59q-10 -24 -20.5 -44t-23 -34.5t-30 -23t-41.5 -8.5q-21 0 -40 6t-40 23q-23 19 -37.5 28t-29.5 9q-23 0 -34 -17.5t-22 -43.5h-58z" />
    <glyph glyph-name="uni1ECA" unicode="&#x1eca;" horiz-adv-x="266" 
d="M102 0v754h62v-754h-62zM100 -192v132h65v-132h-65z" />
    <glyph glyph-name="uni1ECB" unicode="&#x1ecb;" horiz-adv-x="227" 
d="M83 0v528h61v-528h-61zM81 622v132h65v-132h-65zM81 -192v132h65v-132h-65z" />
    <glyph glyph-name="uni1ECC" unicode="&#x1ecc;" horiz-adv-x="796" 
d="M131 640q32 60 98 95.5t169 35.5q91 0 150 -25.5t97 -79.5q18 -25 30.5 -59.5t20 -73t10.5 -78.5t3 -78q0 -32 -2.5 -70t-9 -76t-18.5 -73.5t-30 -62.5q-42 -62 -104 -87t-147 -25q-103 0 -164 27.5t-94 82.5q-15 25 -25.5 58.5t-16.5 71t-8.5 77.5t-2.5 77q0 33 2 69.5
t7 72t13.5 67t21.5 54.5zM151 377q0 -29 2 -63.5t6.5 -68t12 -63t19.5 -50.5q16 -28 38 -45t48.5 -27t57 -13.5t63.5 -3.5q60 0 106 15t81 58q18 21 29.5 51t18 65t9.5 72t3 73q0 33 -2.5 67.5t-8 66.5t-14.5 60.5t-23 50.5q-31 50 -81 69.5t-118 19.5q-69 0 -124.5 -22.5
t-86.5 -80.5q-10 -19 -17 -46.5t-11.5 -58t-6 -63.5t-1.5 -63zM362 -187v132h65v-132h-65z" />
    <glyph glyph-name="uni1ECD" unicode="&#x1ecd;" 
d="M89 430q23 53 68.5 84t131.5 31q63 0 106 -17t72 -57q30 -42 39 -97t9 -110q0 -57 -9 -106t-26 -79q-25 -45 -70.5 -70.5t-120.5 -25.5q-72 0 -113.5 19.5t-69.5 61.5q-21 32 -32 85.5t-11 110.5q0 46 6 92t20 78zM125 262q0 -47 7.5 -90t22.5 -69q21 -37 53.5 -49.5
t80.5 -12.5q96 0 132 60q17 28 24.5 72t7.5 94q0 45 -5 83t-22 69q-21 39 -54 53.5t-83 14.5q-54 0 -87 -17.5t-53 -57.5q-14 -28 -19 -68t-5 -82zM255 -187v132h65v-132h-65z" />
    <glyph glyph-name="uni1EE4" unicode="&#x1ee4;" horiz-adv-x="739" 
d="M161 754v-471q0 -75 9 -122t44 -77q29 -25 66.5 -33t89.5 -8q51 0 89.5 8.5t66.5 32.5q34 29 43 76.5t9 122.5v471h62v-471q0 -87 -11.5 -147.5t-59.5 -99.5q-36 -29 -84 -41t-114 -12q-69 0 -117 11t-86 44q-42 37 -55.5 97t-13.5 148v471h62zM338 -192v132h65v-132h-65
z" />
    <glyph glyph-name="uni1EE5" unicode="&#x1ee5;" horiz-adv-x="571" 
d="M82 200v328h61v-328q0 -38 3 -71.5t18 -53.5q14 -19 35 -26.5t59 -7.5q57 0 97 9t72 19v459h61v-503q-62 -17 -116 -29.5t-114 -12.5q-52 0 -86.5 11.5t-56.5 39.5q-21 26 -27 68.5t-6 97.5zM248 -192v132h65v-132h-65z" />
    <glyph glyph-name="Ygrave" unicode="&#x1ef2;" horiz-adv-x="606" 
d="M67 754l237 -396l238 396h72l-279 -465v-289h-64v289l-279 465h75zM295 813l-118 137h79l116 -137h-77z" />
    <glyph glyph-name="ygrave" unicode="&#x1ef3;" horiz-adv-x="507" 
d="M78 528l175 -439l176 439h67l-290 -720h-66l80 199l-209 521h67zM244 617l-118 137h79l116 -137h-77z" />
    <glyph glyph-name="uni1EF8" unicode="&#x1ef8;" horiz-adv-x="606" 
d="M67 754l237 -396l238 396h72l-279 -465v-289h-64v289l-279 465h75zM121 818q13 33 24 55t24 35.5t28.5 19t37.5 5.5q20 0 39.5 -7.5t45.5 -27.5q21 -17 33.5 -24t28.5 -7q23 0 34 15t22 41h59q-10 -24 -20.5 -44t-23 -34.5t-30 -23t-41.5 -8.5q-21 0 -40 6t-40 23
q-23 19 -37.5 28t-29.5 9q-23 0 -34 -17.5t-22 -43.5h-58z" />
    <glyph glyph-name="uni1EF9" unicode="&#x1ef9;" horiz-adv-x="507" 
d="M78 528l175 -439l176 439h67l-290 -720h-66l80 199l-209 521h67zM76 629q13 33 24 55t24 35.5t28.5 19t37.5 5.5q20 0 39.5 -7.5t45.5 -27.5q21 -17 33.5 -24t28.5 -7q23 0 34 15t22 41h59q-10 -24 -20.5 -44t-23 -34.5t-30 -23t-41.5 -8.5q-21 0 -40 6t-40 23
q-23 19 -37.5 28t-29.5 9q-23 0 -34 -17.5t-22 -43.5h-58z" />
    <glyph glyph-name="endash" unicode="&#x2013;" horiz-adv-x="600" 
d="M50 234v60h500v-60h-500z" />
    <glyph glyph-name="emdash" unicode="&#x2014;" horiz-adv-x="1000" 
d="M0 234v60h1000v-60h-1000z" />
    <glyph glyph-name="quoteleft" unicode="&#x2018;" horiz-adv-x="258" 
d="M87 557q0 58 13.5 106.5t30.5 90.5h53q-6 -25 -11 -47.5t-8 -47.5t-5 -56t-2 -72v-82h-71v108z" />
    <glyph glyph-name="quoteright" unicode="&#x2019;" horiz-adv-x="258" 
d="M74 449q6 25 11 47.5t8 47.5t5 56t2 72v82h71v-108q0 -58 -13.5 -106.5t-30.5 -90.5h-53z" />
    <glyph glyph-name="quotesinglbase" unicode="&#x201a;" horiz-adv-x="258" 
d="M74 -173q6 25 11 47.5t8 47.5t5 56t2 72v82h71v-108q0 -58 -13.5 -106.5t-30.5 -90.5h-53z" />
    <glyph glyph-name="quotedblleft" unicode="&#x201c;" horiz-adv-x="410" 
d="M239 449v108q0 58 13.5 106.5t30.5 90.5h53q-6 -25 -11 -47.5t-8 -47.5t-5 -56t-2 -72v-82h-71zM87 557q0 58 13.5 106.5t30.5 90.5h53q-6 -25 -11 -47.5t-8 -47.5t-5 -56t-2 -72v-82h-71v108z" />
    <glyph glyph-name="quotedblright" unicode="&#x201d;" horiz-adv-x="410" 
d="M226 449q6 25 11 47.5t8 47.5t5 56t2 72v82h71v-108q0 -58 -13.5 -106.5t-30.5 -90.5h-53zM100 672v82h71v-108q0 -58 -13.5 -106.5t-30.5 -90.5h-53q6 25 11 47.5t8 47.5t5 56t2 72z" />
    <glyph glyph-name="quotedblbase" unicode="&#x201e;" horiz-adv-x="410" 
d="M226 -173q6 25 11 47.5t8 47.5t5 56t2 72v82h71v-108q0 -58 -13.5 -106.5t-30.5 -90.5h-53zM100 50v82h71v-108q0 -58 -13.5 -106.5t-30.5 -90.5h-53q6 25 11 47.5t8 47.5t5 56t2 72z" />
    <glyph glyph-name="dagger" unicode="&#x2020;" 
d="M258 528v226h62v-226h193v-60h-193v-564h-62v564h-193v60h193z" />
    <glyph glyph-name="daggerdbl" unicode="&#x2021;" 
d="M65 528h193v226h62v-226h193v-60h-193v-278h193v-60h-193v-226h-62v226h-193v60h193v278h-193v60z" />
    <glyph glyph-name="bullet" unicode="&#x2022;" horiz-adv-x="466" 
d="M96 377q0 133 137 133t137 -133t-137 -133t-137 133z" />
    <glyph glyph-name="ellipsis" unicode="&#x2026;" horiz-adv-x="819" 
d="M651 136h83v-136h-83v136zM368 136h83v-136h-83v136zM85 136h83v-136h-83v136z" />
    <glyph glyph-name="perthousand" unicode="&#x2030;" horiz-adv-x="1442" 
d="M1054 206q0 64 5.5 103t25.5 68q17 25 50.5 39t74.5 14q84 0 123 -54q23 -32 28.5 -72.5t5.5 -97.5q0 -54 -7.5 -94t-27.5 -68q-19 -26 -48.5 -40.5t-73.5 -14.5q-82 0 -118 43q-20 25 -29 64t-9 110zM1112 206q0 -46 3.5 -80t17.5 -54q12 -17 30 -22.5t47 -5.5
q26 0 46 8.5t33 29.5q14 23 17 53.5t3 70.5q0 50 -3.5 82t-17.5 53q-23 34 -79 34q-25 0 -44 -6t-31 -22q-17 -21 -19.5 -53.5t-2.5 -87.5zM646 206q0 64 5.5 103t25.5 68q17 25 50.5 39t74.5 14q84 0 123 -54q23 -32 28.5 -72.5t5.5 -97.5q0 -54 -7.5 -94t-27.5 -68
q-19 -26 -48.5 -40.5t-73.5 -14.5q-82 0 -118 43q-20 25 -29 64t-9 110zM704 206q0 -46 3.5 -80t17.5 -54q12 -17 30 -22.5t47 -5.5q26 0 46 8.5t33 29.5q14 23 17 53.5t3 70.5q0 50 -3.5 82t-17.5 53q-23 34 -79 34q-25 0 -44 -6t-31 -22q-17 -21 -19.5 -53.5t-2.5 -87.5z
M304 0l370 754h66l-370 -754h-66zM75 541q0 64 5.5 103t25.5 68q17 25 50.5 39t74.5 14q84 0 123 -54q23 -32 28.5 -72.5t5.5 -97.5q0 -54 -7.5 -94t-27.5 -68q-19 -26 -48.5 -40.5t-73.5 -14.5q-82 0 -118 43q-20 25 -29 64t-9 110zM133 541q0 -46 3.5 -80t17.5 -54
q12 -17 30 -22.5t47 -5.5q26 0 46 8.5t33 29.5q14 23 17 53.5t3 70.5q0 50 -3.5 82t-17.5 53q-23 34 -79 34q-25 0 -44 -6t-31 -22q-17 -21 -19.5 -53.5t-2.5 -87.5z" />
    <glyph glyph-name="guilsinglleft" unicode="&#x2039;" horiz-adv-x="330" 
d="M231 58l-169 206l169 206h80l-169 -206l169 -206h-80z" />
    <glyph glyph-name="guilsinglright" unicode="&#x203a;" horiz-adv-x="330" 
d="M19 58l169 206l-169 206h80l169 -206l-169 -206h-80z" />
    <glyph glyph-name="fraction" unicode="&#x2044;" horiz-adv-x="148" 
d="M-139 0l370 754h66l-370 -754h-66z" />
    <glyph glyph-name="uni2070" unicode="&#x2070;" horiz-adv-x="443" 
d="M65 656q0 64 5.5 103t25.5 68q17 25 50.5 39t74.5 14q84 0 123 -54q23 -32 28.5 -72.5t5.5 -97.5q0 -54 -7.5 -94t-27.5 -68q-19 -26 -48.5 -40.5t-73.5 -14.5q-82 0 -118 43q-20 25 -29 64t-9 110zM123 656q0 -46 3.5 -80t17.5 -54q12 -17 30 -22.5t47 -5.5q26 0 46 8.5
t33 29.5q14 23 17 53.5t3 70.5q0 50 -3.5 82t-17.5 53q-23 34 -79 34q-25 0 -44 -6t-31 -22q-17 -21 -19.5 -53.5t-2.5 -87.5z" />
    <glyph glyph-name="uni2071" unicode="&#x2071;" horiz-adv-x="222" 
d="M82 450v313h58v-313h-58zM80 830v109h62v-109h-62z" />
    <glyph glyph-name="uni2074" unicode="&#x2074;" horiz-adv-x="402" 
d="M233 869h72l-203 -273h165v89h57v-235h-57v91h-237v55z" />
    <glyph glyph-name="uni2075" unicode="&#x2075;" horiz-adv-x="413" 
d="M73 507q26 -5 56 -9t62 -4t53 5.5t33 20.5q9 11 12 23.5t3 29.5q0 33 -23 50q-16 11 -43.5 14.5t-84.5 3.5h-62v228h253v-55h-197v-118h47q77 0 112 -20q27 -15 41.5 -43t14.5 -60q0 -60 -32 -94q-22 -23 -52 -31.5t-75 -8.5q-35 0 -65 4t-53 8v56z" />
    <glyph glyph-name="uni2076" unicode="&#x2076;" horiz-adv-x="430" 
d="M138 807q37 29 87 46t116 28v-57q-51 -8 -91 -21.5t-66 -31.5t-37.5 -35.5t-15.5 -37.5q23 1 50 1.5t50 0.5q78 0 112 -38q16 -17 22.5 -41t6.5 -48q0 -50 -31 -87q-38 -47 -124 -47q-45 0 -73 11.5t-48 34.5q-17 20 -24 49t-7 58q0 74 13 126t60 89zM122 593
q0 -21 4 -40.5t17 -34.5q10 -12 29.5 -18t44.5 -6q27 0 44.5 5t30.5 18q22 22 22 56q0 13 -3 26t-11 24q-11 14 -28 19t-41 5q-32 0 -58.5 -0.5t-48.5 -1.5q-2 -12 -2 -25v-27z" />
    <glyph glyph-name="uni2077" unicode="&#x2077;" horiz-adv-x="350" 
d="M58 450l203 364h-249v55h315v-55l-202 -364h-67z" />
    <glyph glyph-name="uni2078" unicode="&#x2078;" horiz-adv-x="476" 
d="M108 634q10 9 19 15.5t18 12.5q-24 11 -37 30q-18 27 -18 73q0 55 43 88q36 27 107 27q34 0 63 -7.5t49 -24.5q19 -15 27.5 -36.5t8.5 -46.5q0 -20 -7 -35.5t-19 -32.5q-7 -9 -16 -18.5t-18 -18.5q29 -11 46 -28q14 -14 21 -32.5t7 -38.5q0 -53 -37 -86q-42 -36 -125 -36
q-44 0 -74.5 8t-50.5 22q-21 15 -31 36.5t-10 54.5q0 23 8.5 40.5t25.5 33.5zM159 508q28 -15 81 -15q54 0 80 17q25 17 25 50q0 20 -11.5 33.5t-38.5 22.5q-20 7 -47 13t-56 12q-7 -5 -18.5 -14.5t-22.5 -20.5q-12 -12 -16 -22.5t-4 -22.5q0 -38 28 -53zM147 765
q0 -28 8 -41t25 -21q16 -8 41 -13.5t56 -11.5q6 6 16.5 17t18.5 22t13.5 22.5t5.5 25.5q0 29 -20 44q-23 17 -71 17q-49 0 -70 -15q-23 -16 -23 -46z" />
    <glyph glyph-name="uni2079" unicode="&#x2079;" horiz-adv-x="430" 
d="M58 738q0 24 6 48t20 42q16 21 46.5 36.5t77.5 15.5q41 0 72 -13.5t49 -36.5q20 -26 28.5 -66.5t8.5 -91.5q0 -25 -1 -52t-6 -53t-16 -49.5t-32 -41.5q-20 -17 -49 -27t-67 -10q-37 0 -62.5 3.5t-54.5 8.5v56q25 -5 54 -9t63 -4q48 0 73 19q22 16 33 51q5 15 6 27.5
t1 23.5q-22 -3 -54.5 -6t-59.5 -3q-42 0 -67 8t-42 28q-27 31 -27 96zM116 738q0 -19 3 -34.5t12 -25.5q10 -11 27.5 -15t38.5 -4q29 0 57 2.5t54 7.5q0 45 -4.5 75.5t-19.5 50.5q-24 30 -76 30q-50 0 -72 -23q-12 -13 -16 -29t-4 -35z" />
    <glyph glyph-name="uni207D" unicode="&#x207d;" horiz-adv-x="266" 
d="M75 733q0 45 5.5 89.5t31.5 80.5q45 61 129 82v-57q-29 -11 -47.5 -24.5t-33.5 -35.5q-19 -28 -23 -67t-4 -81v-121q0 -42 4 -81t23 -67q15 -22 33.5 -35.5t47.5 -24.5v-57q-84 21 -129 82q-26 36 -31.5 80.5t-5.5 89.5v147z" />
    <glyph glyph-name="uni207E" unicode="&#x207e;" horiz-adv-x="266" 
d="M25 334v57q29 11 47.5 24.5t33.5 35.5q19 28 23 67t4 81v121q0 42 -4 81t-23 67q-15 22 -33.5 35.5t-47.5 24.5v57q84 -21 129 -82q26 -36 31.5 -80.5t5.5 -89.5v-147q0 -45 -5.5 -89.5t-31.5 -80.5q-45 -61 -129 -82z" />
    <glyph glyph-name="uni207F" unicode="&#x207f;" horiz-adv-x="449" 
d="M80 450v313h58v-28q26 12 57 24t59 12q35 0 56.5 -7t36.5 -25q14 -17 18.5 -39.5t4.5 -54.5v-195h-58v179q0 17 -1.5 37t-10.5 32q-15 19 -46 19t-63.5 -13t-52.5 -23v-231h-58z" />
    <glyph glyph-name="uni2080" unicode="&#x2080;" horiz-adv-x="443" 
d="M65 76q0 64 5.5 103t25.5 68q17 25 50.5 39t74.5 14q84 0 123 -54q23 -32 28.5 -72.5t5.5 -97.5q0 -54 -7.5 -94t-27.5 -68q-19 -26 -48.5 -40.5t-73.5 -14.5q-82 0 -118 43q-20 25 -29 64t-9 110zM123 76q0 -46 3.5 -80t17.5 -54q12 -17 30 -22.5t47 -5.5q26 0 46 8.5
t33 29.5q14 23 17 53.5t3 70.5q0 50 -3.5 82t-17.5 53q-23 34 -79 34q-25 0 -44 -6t-31 -22q-17 -21 -19.5 -53.5t-2.5 -87.5z" />
    <glyph glyph-name="uni2081" unicode="&#x2081;" horiz-adv-x="282" 
d="M145 -130v356l-118 -36v58l175 54v-432h-57z" />
    <glyph glyph-name="uni2082" unicode="&#x2082;" horiz-adv-x="391" 
d="M40 -72q20 18 44.5 42t50 48.5t48.5 48t39 40.5q24 26 33 44t9 35q0 27 -14 41q-8 9 -24 13.5t-35 4.5q-42 0 -81.5 -8t-56.5 -13v56q19 5 58.5 12.5t79.5 7.5q65 0 101 -33q14 -13 22 -33.5t8 -44.5q0 -32 -11 -56.5t-38 -53.5q-43 -48 -87.5 -89.5t-70.5 -64.5h229v-55
h-304v58z" />
    <glyph glyph-name="uni2083" unicode="&#x2083;" horiz-adv-x="418" 
d="M56 -126v56q25 -5 61.5 -10.5t67.5 -5.5q28 0 44.5 3t27.5 10q28 18 28 57q0 40 -34 60q-11 6 -26.5 7.5t-34.5 1.5h-92v55h143l16 21q12 16 18 29t6 30q0 29 -19 43q-11 8 -26 11t-41 3q-40 0 -78.5 -7.5t-57.5 -12.5v56q10 3 25.5 6t34 6t38.5 5t38 2q74 0 110 -30
q15 -12 24 -33t9 -43q0 -20 -5.5 -36t-16.5 -32q-7 -11 -15.5 -22.5t-12.5 -16.5q9 -6 18 -13.5t15 -15.5q22 -28 22 -73q0 -55 -35 -90q-36 -36 -123 -36q-32 0 -70 5.5t-59 9.5z" />
    <glyph glyph-name="uni2084" unicode="&#x2084;" horiz-adv-x="402" 
d="M233 288h72l-203 -273h165v89h57v-235h-57v91h-237v55z" />
    <glyph glyph-name="uni2085" unicode="&#x2085;" horiz-adv-x="413" 
d="M73 -73q26 -5 56 -9t62 -4t53 5.5t33 20.5q9 11 12 23.5t3 29.5q0 33 -23 50q-16 11 -43.5 14.5t-84.5 3.5h-62v228h253v-55h-197v-118h47q77 0 112 -20q27 -15 41.5 -43t14.5 -60q0 -60 -32 -94q-22 -23 -52 -31.5t-75 -8.5q-35 0 -65 4t-53 8v56z" />
    <glyph glyph-name="uni2086" unicode="&#x2086;" horiz-adv-x="430" 
d="M138 227q37 29 87 46t116 28v-57q-51 -8 -91 -21.5t-66 -31.5t-37.5 -35.5t-15.5 -37.5q23 1 50 1.5t50 0.5q78 0 112 -38q16 -17 22.5 -41t6.5 -48q0 -50 -31 -87q-38 -47 -124 -47q-45 0 -73 11.5t-48 34.5q-17 20 -24 49t-7 58q0 74 13 126t60 89zM122 13
q0 -21 4 -40.5t17 -34.5q10 -12 29.5 -18t44.5 -6q27 0 44.5 5t30.5 18q22 22 22 56q0 13 -3 26t-11 24q-11 14 -28 19t-41 5q-32 0 -58.5 -0.5t-48.5 -1.5q-2 -12 -2 -25v-27z" />
    <glyph glyph-name="uni2087" unicode="&#x2087;" horiz-adv-x="350" 
d="M58 -130l203 364h-249v55h315v-55l-202 -364h-67z" />
    <glyph glyph-name="uni2088" unicode="&#x2088;" horiz-adv-x="476" 
d="M108 54q10 9 19 15.5t18 12.5q-24 11 -37 30q-18 27 -18 73q0 55 43 88q36 27 107 27q34 0 63 -7.5t49 -24.5q19 -15 27.5 -36.5t8.5 -46.5q0 -20 -7 -35.5t-19 -32.5q-7 -9 -16 -18.5t-18 -18.5q29 -11 46 -28q14 -14 21 -32.5t7 -38.5q0 -53 -37 -86q-42 -36 -125 -36
q-44 0 -74.5 8t-50.5 22q-21 15 -31 36.5t-10 54.5q0 23 8.5 40.5t25.5 33.5zM159 -72q28 -15 81 -15q54 0 80 17q25 17 25 50q0 20 -11.5 33.5t-38.5 22.5q-20 7 -47 13t-56 12q-7 -5 -18.5 -14.5t-22.5 -20.5q-12 -12 -16 -22.5t-4 -22.5q0 -38 28 -53zM147 185
q0 -28 8 -41t25 -21q16 -8 41 -13.5t56 -11.5q6 6 16.5 17t18.5 22t13.5 22.5t5.5 25.5q0 29 -20 44q-23 17 -71 17q-49 0 -70 -15q-23 -16 -23 -46z" />
    <glyph glyph-name="uni2089" unicode="&#x2089;" horiz-adv-x="430" 
d="M58 158q0 24 6 48t20 42q16 21 46.5 36.5t77.5 15.5q41 0 72 -13.5t49 -36.5q20 -26 28.5 -66.5t8.5 -91.5q0 -25 -1 -52t-6 -53t-16 -49.5t-32 -41.5q-20 -17 -49 -27t-67 -10q-37 0 -62.5 3.5t-54.5 8.5v56q25 -5 54 -9t63 -4q48 0 73 19q22 16 33 51q5 15 6 27.5
t1 23.5q-22 -3 -54.5 -6t-59.5 -3q-42 0 -67 8t-42 28q-27 31 -27 96zM116 158q0 -19 3 -34.5t12 -25.5q10 -11 27.5 -15t38.5 -4q29 0 57 2.5t54 7.5q0 45 -4.5 75.5t-19.5 50.5q-24 30 -76 30q-50 0 -72 -23q-12 -13 -16 -29t-4 -35z" />
    <glyph glyph-name="uni208D" unicode="&#x208d;" horiz-adv-x="266" 
d="M75 153q0 45 5.5 89.5t31.5 80.5q45 61 129 82v-57q-29 -11 -47.5 -24.5t-33.5 -35.5q-19 -28 -23 -67t-4 -81v-121q0 -42 4 -81t23 -67q15 -22 33.5 -35.5t47.5 -24.5v-57q-84 21 -129 82q-26 36 -31.5 80.5t-5.5 89.5v147z" />
    <glyph glyph-name="uni208E" unicode="&#x208e;" horiz-adv-x="266" 
d="M25 -246v57q29 11 47.5 24.5t33.5 35.5q19 28 23 67t4 81v121q0 42 -4 81t-23 67q-15 22 -33.5 35.5t-47.5 24.5v57q84 -21 129 -82q26 -36 31.5 -80.5t5.5 -89.5v-147q0 -45 -5.5 -89.5t-31.5 -80.5q-45 -61 -129 -82z" />
    <glyph glyph-name="uni2093" unicode="&#x2093;" horiz-adv-x="381" 
d="M27 -130l124 160l-120 153h72l85 -110l86 110h70l-117 -149l127 -164h-71l-93 121l-93 -121h-70z" />
    <glyph glyph-name="Euro" unicode="&#x20ac;" horiz-adv-x="692" 
d="M102 381q0 94 11 161.5t37 114.5q32 57 89.5 85.5t155.5 28.5q63 0 122.5 -10t104.5 -19v-61q-48 10 -106.5 20t-120.5 10q-73 0 -120 -20.5t-74 -71.5q-7 -13 -13 -32t-10 -40t-6.5 -41.5t-3.5 -37.5h341v-59h-343q-1 -8 -1 -14.5v-11.5v-13.5t1 -17.5h343v-59h-341
q2 -38 9 -79t16 -64q21 -52 65 -79.5t128 -27.5q60 0 121.5 6t114.5 13v-61q-49 -6 -111.5 -12t-124.5 -6q-55 0 -96 9.5t-70.5 27.5t-49.5 44.5t-35 61.5q-16 38 -24.5 103.5t-8.5 151.5z" />
    <glyph glyph-name="uni20BA" unicode="&#x20ba;" horiz-adv-x="593" 
d="M178 754v-231l274 88v-62l-274 -88v-61l274 88v-62l-274 -88v-295q77 0 125 11.5t85 51.5q18 19 30 43t19 48.5t10.5 47t4.5 37.5h63q-1 -19 -4.5 -44.5t-10.5 -53t-19 -54.5t-31 -51t-43 -42t-56.5 -30t-75 -18t-98.5 -6q-20 0 -36.5 1t-24.5 2v768h62z" />
    <glyph glyph-name="uni20BD" unicode="&#x20bd;" horiz-adv-x="690" 
d="M116 0v754h281q65 0 104.5 -14t68.5 -44q26 -27 40 -70.5t14 -89.5q0 -49 -9.5 -92.5t-37.5 -78.5q-26 -32 -62.5 -46.5t-87.5 -19.5q-16 -1 -43 -2t-60 -1.5t-70.5 -0.5h-75.5v-57h332v-59h-332v-179h-62zM178 355q69 0 136 0.5t107 4.5q39 4 67.5 15.5t45.5 38.5
q15 23 20.5 54t5.5 68q0 38 -11 71t-32 53t-51.5 27t-73.5 7h-214v-339z" />
    <glyph glyph-name="uni2103" unicode="&#x2103;" horiz-adv-x="1081" 
d="M60 602q0 79 46 124t125 45t125.5 -45t46.5 -124t-46.5 -124t-125.5 -45t-125 45t-46 124zM118 602q0 -53 30 -83t84 -30q52 0 82.5 30t30.5 83t-30.5 83t-82.5 30q-54 0 -84 -30t-30 -83zM510 373q0 82 11.5 158t40.5 127q33 56 85.5 84.5t151.5 28.5q34 0 64.5 -4.5
t58.5 -9.5q29 -5 58 -12.5t45 -12.5v-62q-30 8 -59.5 15.5t-60.5 13.5q-26 5 -52 8.5t-54 3.5q-74 0 -117.5 -21.5t-70.5 -75.5q-20 -39 -28.5 -105t-8.5 -136q0 -69 7.5 -126.5t22.5 -93.5q23 -56 68 -83t123 -27q57 0 114.5 10t115.5 23v-62q-59 -12 -114.5 -21.5
t-115.5 -9.5q-105 0 -161 35.5t-87 105.5q-19 42 -28 109.5t-9 139.5z" />
    <glyph glyph-name="uni2109" unicode="&#x2109;" horiz-adv-x="1066" 
d="M60 602q0 79 46 124t125 45t125.5 -45t46.5 -124t-46.5 -124t-125.5 -45t-125 45t-46 124zM118 602q0 -53 30 -83t84 -30q52 0 82.5 30t30.5 83t-30.5 83t-82.5 30q-54 0 -84 -30t-30 -83zM1034 754v-60h-434v-289h401v-60h-401v-345h-62v754h496z" />
    <glyph glyph-name="uni2113" unicode="&#x2113;" horiz-adv-x="418" 
d="M111 721q17 27 43.5 38.5t64.5 11.5q33 0 56 -9.5t37 -26.5q19 -21 27.5 -51t8.5 -81q0 -34 -10 -72t-33.5 -84.5t-62.5 -103.5t-98 -131v-30q0 -31 0.5 -51.5t2.5 -34.5t5.5 -22.5t10.5 -15.5q11 -12 29.5 -14.5t35.5 -2.5q35 0 71.5 10t63.5 20v-61
q-34 -12 -66.5 -19.5t-68.5 -7.5q-42 0 -73.5 8.5t-47.5 31.5q-18 26 -21 68.5t-3 111.5v322q0 79 5 123t23 73zM144 548v-242q26 35 51 70.5t45.5 73t33 76t12.5 77.5q0 23 -2 43.5t-10 35.5q-17 31 -55 31q-21 0 -35 -6.5t-23 -23.5q-11 -20 -14 -54t-3 -81z" />
    <glyph glyph-name="uni2116" unicode="&#x2116;" horiz-adv-x="1154" 
d="M102 0v754h93l398 -685v685h62v-754h-92l-399 685v-685h-62zM781 686q18 38 54 61.5t102 23.5q51 0 83 -13.5t55 -41.5q25 -30 32 -71t7 -83q0 -38 -8.5 -76t-22.5 -61q-20 -32 -53 -51t-93 -19q-54 0 -88 14.5t-55 44.5q-17 24 -25.5 64.5t-8.5 81.5q0 35 4.5 68.5
t16.5 57.5zM818 561q0 -32 5.5 -60.5t16.5 -47.5q14 -24 38.5 -33t58.5 -9q67 0 93 41q12 19 19 48t7 64q0 31 -5 56.5t-17 47.5q-14 26 -37 36.5t-60 10.5q-38 0 -62.5 -10.5t-38.5 -39.5q-9 -19 -13.5 -47t-4.5 -57z" />
    <glyph glyph-name="trademark" unicode="&#x2122;" horiz-adv-x="1050" 
d="M598 754l130 -279l131 279h89v-429h-57v372l-135 -287h-57l-134 287v-372h-57v429h90zM430 754v-55h-163v-374h-57v374h-163v55h383z" />
    <glyph glyph-name="uni2126" unicode="&#x2126;" horiz-adv-x="796" 
d="M239 60q-23 17 -46 39.5t-40 47.5q-35 50 -50.5 118.5t-15.5 159.5q0 22 2 49.5t7 56.5t13.5 57.5t21.5 51.5q32 60 98 95.5t169 35.5q91 0 149.5 -25.5t96.5 -79.5q18 -25 30.5 -56t20 -63t11 -63.5t3.5 -58.5q0 -90 -15.5 -159t-58.5 -125q-20 -26 -40.5 -46.5
t-37.5 -34.5h176v-60h-282v58q30 17 60 41t62 64q21 27 35 54t22 58t11.5 67.5t3.5 82.5q0 45 -10.5 99t-37.5 98q-31 50 -81 69.5t-118 19.5q-69 0 -124.5 -22.5t-86.5 -80.5q-21 -39 -28.5 -91.5t-7.5 -91.5q0 -93 14.5 -150.5t44.5 -99.5q34 -48 68.5 -73.5t66.5 -43.5
v-58h-282v60h176z" />
    <glyph glyph-name="estimated" unicode="&#x212e;" horiz-adv-x="770" 
d="M144 512q46 44 103 64.5t138 20.5q75 0 129.5 -18t102.5 -57q49 -39 74.5 -101t28.5 -139h-533q-5 0 -9.5 -2t-4.5 -14v-149q0 -12 15.5 -30t43 -35.5t66.5 -30t87 -12.5q63 0 119 27.5t93 69.5h63q-60 -69 -126 -95q-18 -7 -33.5 -12t-32.5 -8t-37 -4.5t-46 -1.5
q-81 0 -138.5 20t-104.5 65q-92 87 -92 221q0 132 94 221zM173 469v-160q0 -8 15 -8h393q10 0 12.5 3.5t2.5 11.5v146q0 18 -19.5 38.5t-50 37t-68 27.5t-73.5 11q-45 0 -83.5 -13t-67 -30.5t-45 -35.5t-16.5 -28z" />
    <glyph glyph-name="onethird" unicode="&#x2153;" horiz-adv-x="848" 
d="M486 4v56q25 -5 61.5 -10.5t67.5 -5.5q28 0 44.5 3t27.5 10q28 18 28 57q0 40 -34 60q-11 6 -26.5 7.5t-34.5 1.5h-92v55h143l16 21q12 16 18 29t6 30q0 29 -19 43q-11 8 -26 11t-41 3q-40 0 -78.5 -7.5t-57.5 -12.5v56q10 3 25.5 6t34 6t38.5 5t38 2q74 0 110 -30
q15 -12 24 -33t9 -43q0 -20 -5.5 -36t-16.5 -32q-7 -11 -15.5 -22.5t-12.5 -16.5q9 -6 18 -13.5t15 -15.5q22 -28 22 -73q0 -55 -35 -90q-36 -36 -123 -36q-32 0 -70 5.5t-59 9.5zM143 0l370 754h66l-370 -754h-66zM145 335v356l-118 -36v58l175 54v-432h-57z" />
    <glyph glyph-name="twothirds" unicode="&#x2154;" horiz-adv-x="957" 
d="M595 4v56q25 -5 61.5 -10.5t67.5 -5.5q28 0 44.5 3t27.5 10q28 18 28 57q0 40 -34 60q-11 6 -26.5 7.5t-34.5 1.5h-92v55h143l16 21q12 16 18 29t6 30q0 29 -19 43q-11 8 -26 11t-41 3q-40 0 -78.5 -7.5t-57.5 -12.5v56q10 3 25.5 6t34 6t38.5 5t38 2q74 0 110 -30
q15 -12 24 -33t9 -43q0 -20 -5.5 -36t-16.5 -32q-7 -11 -15.5 -22.5t-12.5 -16.5q9 -6 18 -13.5t15 -15.5q22 -28 22 -73q0 -55 -35 -90q-36 -36 -123 -36q-32 0 -70 5.5t-59 9.5zM252 0l370 754h66l-370 -754h-66zM40 393q20 18 44.5 42t50 48.5t48.5 48t39 40.5
q24 26 33 44t9 35q0 27 -14 41q-8 9 -24 13.5t-35 4.5q-42 0 -81.5 -8t-56.5 -13v56q19 5 58.5 12.5t79.5 7.5q65 0 101 -33q14 -13 22 -33.5t8 -44.5q0 -32 -11 -56.5t-38 -53.5q-43 -48 -87.5 -89.5t-70.5 -64.5h229v-55h-304v58z" />
    <glyph glyph-name="oneeighth" unicode="&#x215b;" horiz-adv-x="906" 
d="M538 184q10 9 19 15.5t18 12.5q-24 11 -37 30q-18 27 -18 73q0 55 43 88q36 27 107 27q34 0 63 -7.5t49 -24.5q19 -15 27.5 -36.5t8.5 -46.5q0 -20 -7 -35.5t-19 -32.5q-7 -9 -16 -18.5t-18 -18.5q29 -11 46 -28q14 -14 21 -32.5t7 -38.5q0 -53 -37 -86q-42 -36 -125 -36
q-44 0 -74.5 8t-50.5 22q-21 15 -31 36.5t-10 54.5q0 23 8.5 40.5t25.5 33.5zM589 58q28 -15 81 -15q54 0 80 17q25 17 25 50q0 20 -11.5 33.5t-38.5 22.5q-20 7 -47 13t-56 12q-7 -5 -18.5 -14.5t-22.5 -20.5q-12 -12 -16 -22.5t-4 -22.5q0 -38 28 -53zM577 315
q0 -28 8 -41t25 -21q16 -8 41 -13.5t56 -11.5q6 6 16.5 17t18.5 22t13.5 22.5t5.5 25.5q0 29 -20 44q-23 17 -71 17q-49 0 -70 -15q-23 -16 -23 -46zM143 0l370 754h66l-370 -754h-66zM145 335v356l-118 -36v58l175 54v-432h-57z" />
    <glyph glyph-name="threeeighths" unicode="&#x215c;" horiz-adv-x="1042" 
d="M674 184q10 9 19 15.5t18 12.5q-24 11 -37 30q-18 27 -18 73q0 55 43 88q36 27 107 27q34 0 63 -7.5t49 -24.5q19 -15 27.5 -36.5t8.5 -46.5q0 -20 -7 -35.5t-19 -32.5q-7 -9 -16 -18.5t-18 -18.5q29 -11 46 -28q14 -14 21 -32.5t7 -38.5q0 -53 -37 -86q-42 -36 -125 -36
q-44 0 -74.5 8t-50.5 22q-21 15 -31 36.5t-10 54.5q0 23 8.5 40.5t25.5 33.5zM725 58q28 -15 81 -15q54 0 80 17q25 17 25 50q0 20 -11.5 33.5t-38.5 22.5q-20 7 -47 13t-56 12q-7 -5 -18.5 -14.5t-22.5 -20.5q-12 -12 -16 -22.5t-4 -22.5q0 -38 28 -53zM713 315
q0 -28 8 -41t25 -21q16 -8 41 -13.5t56 -11.5q6 6 16.5 17t18.5 22t13.5 22.5t5.5 25.5q0 29 -20 44q-23 17 -71 17q-49 0 -70 -15q-23 -16 -23 -46zM279 0l370 754h66l-370 -754h-66zM56 339v56q25 -5 61.5 -10.5t67.5 -5.5q28 0 44.5 3t27.5 10q28 18 28 57q0 40 -34 60
q-11 6 -26.5 7.5t-34.5 1.5h-92v55h143l16 21q12 16 18 29t6 30q0 29 -19 43q-11 8 -26 11t-41 3q-40 0 -78.5 -7.5t-57.5 -12.5v56q10 3 25.5 6t34 6t38.5 5t38 2q74 0 110 -30q15 -12 24 -33t9 -43q0 -20 -5.5 -36t-16.5 -32q-7 -11 -15.5 -22.5t-12.5 -16.5
q9 -6 18 -13.5t15 -15.5q22 -28 22 -73q0 -55 -35 -90q-36 -36 -123 -36q-32 0 -70 5.5t-59 9.5z" />
    <glyph glyph-name="fiveeighths" unicode="&#x215d;" horiz-adv-x="1037" 
d="M669 184q10 9 19 15.5t18 12.5q-24 11 -37 30q-18 27 -18 73q0 55 43 88q36 27 107 27q34 0 63 -7.5t49 -24.5q19 -15 27.5 -36.5t8.5 -46.5q0 -20 -7 -35.5t-19 -32.5q-7 -9 -16 -18.5t-18 -18.5q29 -11 46 -28q14 -14 21 -32.5t7 -38.5q0 -53 -37 -86q-42 -36 -125 -36
q-44 0 -74.5 8t-50.5 22q-21 15 -31 36.5t-10 54.5q0 23 8.5 40.5t25.5 33.5zM720 58q28 -15 81 -15q54 0 80 17q25 17 25 50q0 20 -11.5 33.5t-38.5 22.5q-20 7 -47 13t-56 12q-7 -5 -18.5 -14.5t-22.5 -20.5q-12 -12 -16 -22.5t-4 -22.5q0 -38 28 -53zM708 315
q0 -28 8 -41t25 -21q16 -8 41 -13.5t56 -11.5q6 6 16.5 17t18.5 22t13.5 22.5t5.5 25.5q0 29 -20 44q-23 17 -71 17q-49 0 -70 -15q-23 -16 -23 -46zM274 0l370 754h66l-370 -754h-66zM73 392q26 -5 56 -9t62 -4t53 5.5t33 20.5q9 11 12 23.5t3 29.5q0 33 -23 50
q-16 11 -43.5 14.5t-84.5 3.5h-62v228h253v-55h-197v-118h47q77 0 112 -20q27 -15 41.5 -43t14.5 -60q0 -60 -32 -94q-22 -23 -52 -31.5t-75 -8.5q-35 0 -65 4t-53 8v56z" />
    <glyph glyph-name="seveneighths" unicode="&#x215e;" horiz-adv-x="974" 
d="M606 184q10 9 19 15.5t18 12.5q-24 11 -37 30q-18 27 -18 73q0 55 43 88q36 27 107 27q34 0 63 -7.5t49 -24.5q19 -15 27.5 -36.5t8.5 -46.5q0 -20 -7 -35.5t-19 -32.5q-7 -9 -16 -18.5t-18 -18.5q29 -11 46 -28q14 -14 21 -32.5t7 -38.5q0 -53 -37 -86q-42 -36 -125 -36
q-44 0 -74.5 8t-50.5 22q-21 15 -31 36.5t-10 54.5q0 23 8.5 40.5t25.5 33.5zM657 58q28 -15 81 -15q54 0 80 17q25 17 25 50q0 20 -11.5 33.5t-38.5 22.5q-20 7 -47 13t-56 12q-7 -5 -18.5 -14.5t-22.5 -20.5q-12 -12 -16 -22.5t-4 -22.5q0 -38 28 -53zM645 315
q0 -28 8 -41t25 -21q16 -8 41 -13.5t56 -11.5q6 6 16.5 17t18.5 22t13.5 22.5t5.5 25.5q0 29 -20 44q-23 17 -71 17q-49 0 -70 -15q-23 -16 -23 -46zM211 0l370 754h66l-370 -754h-66zM58 335l203 364h-249v55h315v-55l-202 -364h-67z" />
    <glyph glyph-name="uni215F" unicode="&#x215f;" horiz-adv-x="430" 
d="M143 0l370 754h66l-370 -754h-66zM145 335v356l-118 -36v58l175 54v-432h-57z" />
    <glyph glyph-name="arrowleft" unicode="&#x2190;" horiz-adv-x="888" 
d="M45 377l282 235h93l-245 -205h641v-60h-641l245 -205h-93z" />
    <glyph glyph-name="arrowup" unicode="&#x2191;" horiz-adv-x="600" 
d="M270 0v641l-205 -245v93l235 282l235 -282v-93l-205 245v-641h-60z" />
    <glyph glyph-name="arrowright" unicode="&#x2192;" horiz-adv-x="888" 
d="M468 142l245 205h-641v60h641l-245 205h93l282 -235l-282 -235h-93z" />
    <glyph glyph-name="arrowdown" unicode="&#x2193;" horiz-adv-x="600" 
d="M65 265v93l205 -245v641h60v-641l205 245v-93l-235 -282z" />
    <glyph glyph-name="arrowboth" unicode="&#x2194;" horiz-adv-x="1040" 
d="M45 377l282 235h93l-245 -205h690l-245 205h93l282 -235l-282 -235h-93l245 205h-690l245 -205h-93z" />
    <glyph glyph-name="arrowupdn" unicode="&#x2195;" horiz-adv-x="600" 
d="M300 852l235 -282v-93l-205 245v-690l205 245v-93l-235 -282l-235 282v93l205 -245v690l-205 -245v93z" />
    <glyph glyph-name="uni2196" unicode="&#x2196;" horiz-adv-x="688" 
d="M132 551l26 -281h-59l-37 395l397 -37v-59l-284 26l427 -427v-86z" />
    <glyph glyph-name="uni2197" unicode="&#x2197;" horiz-adv-x="688" 
d="M86 168l427 427l-284 -26v59l397 37l-37 -395h-59l26 281l-470 -469v86z" />
    <glyph glyph-name="uni2198" unicode="&#x2198;" horiz-adv-x="688" 
d="M205 149v59l284 -26l-427 427v86l470 -469l-26 281h59l37 -395z" />
    <glyph glyph-name="uni2199" unicode="&#x2199;" horiz-adv-x="688" 
d="M86 112l37 395h59l-26 -281l470 469v-86l-427 -427l284 26v-59z" />
    <glyph glyph-name="partialdiff" unicode="&#x2202;" horiz-adv-x="580" 
d="M88 392q23 50 64.5 78t126.5 28q40 0 79 -11.5t71 -22.5q-4 18 -9.5 40t-15 45.5t-23 46.5t-32.5 41q-35 33 -82 50.5t-89 27.5v60q26 -6 54 -13.5t56.5 -19t56.5 -28.5t53 -42q35 -34 57.5 -85.5t35 -110t17.5 -118.5t5 -112q0 -108 -34 -166q-26 -45 -71 -71t-120 -26
q-72 0 -114 19.5t-70 61.5q-21 32 -31 77.5t-10 100.5q0 46 5 82t20 68zM125 244q0 -90 29 -141q21 -37 53.5 -49.5t80.5 -12.5q96 0 132 60q17 28 24 63t7 85q0 45 -2.5 82t-9.5 70q-13 5 -31.5 11.5t-40 12.5t-44.5 10.5t-44 4.5q-53 0 -83.5 -15.5t-47.5 -50.5
q-14 -28 -18.5 -58t-4.5 -72z" />
    <glyph glyph-name="uni2206" unicode="&#x2206;" horiz-adv-x="740" 
d="M28 0l298 754h85l301 -754h-684zM369 691l-249 -631h498z" />
    <glyph glyph-name="product" unicode="&#x220f;" horiz-adv-x="674" 
d="M572 754v-884h-62v824h-346v-824h-62v884h470z" />
    <glyph glyph-name="summation" unicode="&#x2211;" 
d="M56 -130v66l271 380l-267 374v64h460v-60h-387l270 -378l-275 -386h399v-60h-471z" />
    <glyph glyph-name="minus" unicode="&#x2212;" horiz-adv-x="700" 
d="M84 347v60h532v-60h-532z" />
    <glyph glyph-name="radical" unicode="&#x221a;" horiz-adv-x="700" 
d="M288 0l-137 347h-111v60h155l126 -320l313 762h66l-349 -849h-63z" />
    <glyph glyph-name="infinity" unicode="&#x221e;" horiz-adv-x="964" 
d="M248 543q36 0 67 -9t59 -25.5t55 -39.5t55 -50q29 27 55.5 49.5t54 39t57 26t64.5 9.5q85 0 130 -44t45 -122t-46.5 -122t-122.5 -44q-67 0 -123 31.5t-117 92.5q-59 -57 -110 -90.5t-118 -33.5q-88 0 -133.5 42t-45.5 124t48 124t126 42zM526 376q31 -28 55.5 -48.5
t47 -33.5t44.5 -19t48 -6q54 0 82 32t28 76q0 50 -30 79t-86 29q-25 0 -46.5 -6.5t-43 -20t-45.5 -34t-54 -48.5zM253 269q24 0 45 7t43 20.5t45.5 33.5t52.5 46q-35 31 -59.5 52t-45 33.5t-40.5 18t-46 5.5q-54 0 -84.5 -31t-30.5 -77q0 -52 30.5 -80t89.5 -28z" />
    <glyph glyph-name="integral" unicode="&#x222b;" horiz-adv-x="600" 
d="M66 -193v59q14 -4 45 -10.5t60 -6.5q14 0 28.5 2.5t27 9.5t22 20t14.5 35q5 23 6 56t1 95v510q0 60 11 98t32 59t50 29t65 8q30 0 62 -6.5t44 -9.5v-59q-6 2 -18.5 4.5l-27.5 5.5t-31 5t-29 2q-19 0 -36 -4t-30 -16t-21 -33.5t-9 -56.5q0 -10 -0.5 -26t-0.5 -43v-68.5
v-102.5v-262v-30v-42.5t-0.5 -45.5t-1.5 -39q-2 -45 -15.5 -74.5t-34.5 -47t-49 -24.5t-59 -7q-35 0 -60 5.5t-45 10.5z" />
    <glyph glyph-name="approxequal" unicode="&#x2248;" horiz-adv-x="700" 
d="M213 548q19 0 34 -1.5t31.5 -5.5t38 -12t53.5 -21q23 -9 38 -15t27 -9.5t23 -5t26 -1.5q50 0 80 21t52 42v-73q-23 -21 -52.5 -36t-79.5 -15q-19 0 -34 1.5t-31.5 6t-37.5 12.5t-51 20q-22 9 -37.5 15t-28.5 9.5t-24.5 5t-26.5 1.5q-50 0 -79 -21t-50 -42v73q23 21 50 36
t79 15zM84 214v73q23 21 50 36t79 15q19 0 34 -1.5t31.5 -5.5t38 -12t53.5 -21q23 -9 38 -15t27 -9.5t23 -5t26 -1.5q50 0 80 21t52 42v-73q-23 -21 -52.5 -36t-79.5 -15q-19 0 -34 1.5t-31.5 6t-37.5 12.5t-51 20q-22 9 -37.5 15t-28.5 9.5t-24.5 5t-26.5 1.5
q-50 0 -79 -21t-50 -42z" />
    <glyph glyph-name="notequal" unicode="&#x2260;" horiz-adv-x="700" 
d="M267 302l90 150h-273v60h308l96 160h71l-95 -160h152v-60h-188l-89 -150h277v-60h-313l-95 -160h-71l95 160h-148v60h183z" />
    <glyph glyph-name="lessequal" unicode="&#x2264;" horiz-adv-x="700" 
d="M84 347v60l532 243v-66l-455 -207l455 -207v-66zM616 60v-60h-532v60h532z" />
    <glyph glyph-name="greaterequal" unicode="&#x2265;" horiz-adv-x="700" 
d="M84 650l532 -243v-60l-532 -243v66l455 207l-455 207v66zM84 0v60h532v-60h-532z" />
    <glyph glyph-name="lozenge" unicode="&#x25ca;" horiz-adv-x="700" 
d="M62 378l288 397l288 -397l-288 -395zM557 378l-207 288l-207 -288l207 -286z" />
    <glyph glyph-name="fi" unicode="&#xfb01;" horiz-adv-x="535" 
d="M83 0v519q0 24 1 53t6 58q4 23 14.5 43.5t29.5 36.5q32 27 74 41t83 24v-60q-33 -8 -66.5 -20t-54.5 -35q-14 -15 -17.5 -31t-5.5 -32q-2 -23 -2.5 -41.5t-0.5 -34.5h149v-58h-149v-463h-61zM391 0v528h61v-528h-61zM389 622v132h65v-132h-65z" />
    <glyph glyph-name="fl" unicode="&#xfb02;" horiz-adv-x="535" 
d="M83 0v519q0 24 1 53t6 58q4 23 14.5 43.5t29.5 36.5q32 27 74 41t83 24v-60q-33 -8 -66.5 -20t-54.5 -35q-14 -15 -17.5 -31t-5.5 -32q-2 -23 -2.5 -41.5t-0.5 -34.5h149v-58h-149v-463h-61zM391 0v754h61v-754h-61z" />
    <glyph glyph-name="zero.tf" horiz-adv-x="650" 
d="M95 377q0 100 8.5 175.5t40.5 129.5q26 44 70 66.5t110 22.5q63 0 106 -21t72 -68q32 -51 42.5 -128.5t10.5 -170.5q0 -98 -9.5 -176t-39.5 -130q-27 -47 -69 -70.5t-113 -23.5q-63 0 -105 18t-69 58q-33 48 -44 128.5t-11 189.5zM159 377q0 -95 7.5 -168.5t34.5 -112.5
q20 -29 49.5 -41t74.5 -12t77 15.5t53 56.5q21 42 28.5 108.5t7.5 157.5q0 94 -10 162.5t-33 106.5q-37 61 -125 61q-81 0 -120 -54q-28 -39 -36 -108t-8 -172z" />
    <glyph glyph-name="one.tf" horiz-adv-x="650" 
d="M402 774v-714h139v-60h-370v60h169v630l-225 -72v64z" />
    <glyph glyph-name="two.tf" horiz-adv-x="650" 
d="M75 64q38 43 84 95t89 101.5t77.5 90.5t50.5 60q39 49 62.5 87.5t23.5 88.5q0 26 -6 49t-24 40q-20 18 -48 26.5t-75 8.5q-23 0 -52 -4t-57.5 -10t-53 -12.5t-39.5 -10.5v61q16 5 40.5 11t52.5 11.5t56.5 9.5t52.5 4q66 0 107 -14t70 -46q23 -25 31.5 -57t8.5 -67
q0 -58 -25.5 -107t-71.5 -106q-38 -47 -79 -94.5t-78.5 -89.5t-68.5 -76t-49 -54h401v-60h-480v64z" />
    <glyph glyph-name="three.tf" horiz-adv-x="650" 
d="M93 5v61q19 -3 43 -7t49.5 -7.5t51 -6t48.5 -2.5q41 0 75.5 7.5t57.5 24.5q29 22 42 55t13 71q0 52 -18.5 85.5t-54.5 53.5q-20 11 -43.5 14t-58.5 3h-129v60h207l44 61q23 32 35 59.5t12 56.5q0 23 -6 43.5t-23 36.5q-19 18 -50 27.5t-82 9.5q-27 0 -57 -3.5t-58 -9
t-52.5 -11t-39.5 -9.5v61q17 5 42.5 10.5t53.5 10t57 8t54 3.5q69 0 110 -12.5t71 -42.5q23 -23 33.5 -55.5t10.5 -65.5q0 -32 -12 -64.5t-35 -67.5q-14 -20 -27.5 -39t-22.5 -31q13 -8 28 -19.5t29 -28.5q22 -25 34 -60t12 -82q0 -45 -14 -86.5t-43 -70.5q-34 -35 -81 -49
t-114 -14q-53 0 -106 8t-86 14z" />
    <glyph glyph-name="four.tf" horiz-adv-x="650" 
d="M404 754h77l-351 -524h326v185h62v-415h-62v169h-404v60z" />
    <glyph glyph-name="five.tf" horiz-adv-x="650" 
d="M104 64q42 -8 89.5 -14.5t93.5 -6.5t83.5 10t61.5 37q42 48 42 131q0 40 -11.5 72.5t-37.5 52.5t-72 28t-134 8h-104v372h399v-60h-337v-252h86q68 0 113 -10t74 -27q48 -29 68 -78.5t20 -104.5q0 -51 -13 -94t-41 -75q-35 -40 -85 -55t-112 -15q-51 0 -97.5 6.5
t-85.5 13.5v61z" />
    <glyph glyph-name="six.tf" horiz-adv-x="650" 
d="M212 640q58 54 137 83.5t163 43.5v-61q-81 -15 -143.5 -40.5t-105.5 -63.5q-38 -34 -57.5 -77.5t-25.5 -85.5q18 1 53.5 2t73.5 1q75 0 122 -14.5t79 -48.5q27 -29 39 -69t12 -85q0 -42 -8.5 -83.5t-34.5 -77.5q-28 -38 -70 -59.5t-116 -21.5q-70 0 -113 20.5t-71 64.5
q-25 38 -34 89t-9 111q0 39 2 88t12.5 99.5t32.5 99t62 85.5zM167 268q0 -54 6.5 -94t23.5 -69q36 -62 133 -62q49 0 78.5 12.5t52.5 41.5q20 26 27 59t7 69q0 31 -7.5 61t-27.5 52q-26 28 -63 36.5t-94 8.5q-38 0 -74.5 -1t-56.5 -2q-2 -21 -3.5 -47t-1.5 -65z" />
    <glyph glyph-name="seven.tf" horiz-adv-x="650" 
d="M131 0l368 694h-441v60h514v-61l-367 -693h-74z" />
    <glyph glyph-name="eight.tf" horiz-adv-x="650" 
d="M131 330q15 17 33.5 33.5t32.5 27.5q-18 8 -35.5 21t-28.5 30q-30 46 -30 131q0 45 14.5 82.5t47.5 67.5q54 48 164 48q116 0 176 -69q23 -26 32.5 -58.5t9.5 -69.5q0 -38 -10 -69t-32 -60q-11 -15 -27 -32t-30 -31q21 -10 39.5 -21.5t33.5 -27.5q26 -27 37.5 -62.5
t11.5 -75.5q0 -45 -14.5 -84t-45.5 -68q-35 -33 -79 -46.5t-105 -13.5q-63 0 -106.5 11.5t-75.5 36.5t-48 63.5t-16 97.5q0 37 11.5 71.5t39.5 66.5zM144 192q0 -38 9 -65.5t32 -47.5q26 -22 59.5 -29t81.5 -7q45 0 74 8t52 25q29 22 41.5 50.5t12.5 68.5t-15.5 70.5
t-53.5 51.5q-33 18 -74.5 28.5t-102.5 23.5q-15 -12 -38.5 -32t-38.5 -39q-20 -25 -29.5 -52t-9.5 -54zM167 573q0 -45 9.5 -75.5t36.5 -45.5q26 -14 72.5 -26t102.5 -24q15 16 30.5 33t31.5 38q33 44 33 101q0 29 -7.5 53.5t-25.5 42.5q-22 22 -51 31.5t-71 9.5
q-45 0 -74.5 -9t-50.5 -29q-20 -20 -28 -45t-8 -55z" />
    <glyph glyph-name="nine.tf" horiz-adv-x="650" 
d="M91 523q0 42 7 83.5t30 77.5q24 39 68 63t117 24q127 0 181 -88q30 -48 41.5 -122.5t11.5 -175.5q0 -31 -0.5 -56.5t-2 -48t-4 -43t-7.5 -42.5q-8 -41 -27 -80t-46 -65q-33 -32 -77.5 -49.5t-107.5 -17.5q-44 0 -84.5 6.5t-75.5 13.5v61q34 -7 76 -14t84 -7q75 0 122 35
q27 20 45.5 53t26.5 70q8 33 11 66t3 51q-35 -5 -82 -9t-92 -4q-72 0 -114.5 16.5t-68.5 53.5q-23 33 -29 68t-6 80zM155 523q0 -37 4.5 -64t20.5 -49q20 -28 54 -36.5t76 -8.5q43 0 90.5 4t82.5 9q0 78 -6 148.5t-32 116.5q-20 36 -53 52t-79 16q-89 0 -126 -52
q-20 -29 -26 -60.5t-6 -75.5z" />
    <glyph glyph-name="zero.numr" horiz-adv-x="443" 
d="M65 541q0 64 5.5 103t25.5 68q17 25 50.5 39t74.5 14q84 0 123 -54q23 -32 28.5 -72.5t5.5 -97.5q0 -54 -7.5 -94t-27.5 -68q-19 -26 -48.5 -40.5t-73.5 -14.5q-82 0 -118 43q-20 25 -29 64t-9 110zM123 541q0 -46 3.5 -80t17.5 -54q12 -17 30 -22.5t47 -5.5q26 0 46 8.5
t33 29.5q14 23 17 53.5t3 70.5q0 50 -3.5 82t-17.5 53q-23 34 -79 34q-25 0 -44 -6t-31 -22q-17 -21 -19.5 -53.5t-2.5 -87.5z" />
    <glyph glyph-name="one.numr" horiz-adv-x="282" 
d="M145 335v356l-118 -36v58l175 54v-432h-57z" />
    <glyph glyph-name="two.numr" horiz-adv-x="391" 
d="M40 393q20 18 44.5 42t50 48.5t48.5 48t39 40.5q24 26 33 44t9 35q0 27 -14 41q-8 9 -24 13.5t-35 4.5q-42 0 -81.5 -8t-56.5 -13v56q19 5 58.5 12.5t79.5 7.5q65 0 101 -33q14 -13 22 -33.5t8 -44.5q0 -32 -11 -56.5t-38 -53.5q-43 -48 -87.5 -89.5t-70.5 -64.5h229v-55
h-304v58z" />
    <glyph glyph-name="three.numr" horiz-adv-x="418" 
d="M56 339v56q25 -5 61.5 -10.5t67.5 -5.5q28 0 44.5 3t27.5 10q28 18 28 57q0 40 -34 60q-11 6 -26.5 7.5t-34.5 1.5h-92v55h143l16 21q12 16 18 29t6 30q0 29 -19 43q-11 8 -26 11t-41 3q-40 0 -78.5 -7.5t-57.5 -12.5v56q10 3 25.5 6t34 6t38.5 5t38 2q74 0 110 -30
q15 -12 24 -33t9 -43q0 -20 -5.5 -36t-16.5 -32q-7 -11 -15.5 -22.5t-12.5 -16.5q9 -6 18 -13.5t15 -15.5q22 -28 22 -73q0 -55 -35 -90q-36 -36 -123 -36q-32 0 -70 5.5t-59 9.5z" />
    <glyph glyph-name="four.numr" horiz-adv-x="402" 
d="M233 754h72l-203 -273h165v89h57v-235h-57v91h-237v55z" />
    <glyph glyph-name="five.numr" horiz-adv-x="413" 
d="M73 392q26 -5 56 -9t62 -4t53 5.5t33 20.5q9 11 12 23.5t3 29.5q0 33 -23 50q-16 11 -43.5 14.5t-84.5 3.5h-62v228h253v-55h-197v-118h47q77 0 112 -20q27 -15 41.5 -43t14.5 -60q0 -60 -32 -94q-22 -23 -52 -31.5t-75 -8.5q-35 0 -65 4t-53 8v56z" />
    <glyph glyph-name="six.numr" horiz-adv-x="430" 
d="M138 692q37 29 87 46t116 28v-57q-51 -8 -91 -21.5t-66 -31.5t-37.5 -35.5t-15.5 -37.5q23 1 50 1.5t50 0.5q78 0 112 -38q16 -17 22.5 -41t6.5 -48q0 -50 -31 -87q-38 -47 -124 -47q-45 0 -73 11.5t-48 34.5q-17 20 -24 49t-7 58q0 74 13 126t60 89zM122 478
q0 -21 4 -40.5t17 -34.5q10 -12 29.5 -18t44.5 -6q27 0 44.5 5t30.5 18q22 22 22 56q0 13 -3 26t-11 24q-11 14 -28 19t-41 5q-32 0 -58.5 -0.5t-48.5 -1.5q-2 -12 -2 -25v-27z" />
    <glyph glyph-name="seven.numr" horiz-adv-x="350" 
d="M58 335l203 364h-249v55h315v-55l-202 -364h-67z" />
    <glyph glyph-name="eight.numr" horiz-adv-x="476" 
d="M108 519q10 9 19 15.5t18 12.5q-24 11 -37 30q-18 27 -18 73q0 55 43 88q36 27 107 27q34 0 63 -7.5t49 -24.5q19 -15 27.5 -36.5t8.5 -46.5q0 -20 -7 -35.5t-19 -32.5q-7 -9 -16 -18.5t-18 -18.5q29 -11 46 -28q14 -14 21 -32.5t7 -38.5q0 -53 -37 -86q-42 -36 -125 -36
q-44 0 -74.5 8t-50.5 22q-21 15 -31 36.5t-10 54.5q0 23 8.5 40.5t25.5 33.5zM159 393q28 -15 81 -15q54 0 80 17q25 17 25 50q0 20 -11.5 33.5t-38.5 22.5q-20 7 -47 13t-56 12q-7 -5 -18.5 -14.5t-22.5 -20.5q-12 -12 -16 -22.5t-4 -22.5q0 -38 28 -53zM147 650
q0 -28 8 -41t25 -21q16 -8 41 -13.5t56 -11.5q6 6 16.5 17t18.5 22t13.5 22.5t5.5 25.5q0 29 -20 44q-23 17 -71 17q-49 0 -70 -15q-23 -16 -23 -46z" />
    <glyph glyph-name="nine.numr" horiz-adv-x="430" 
d="M58 623q0 24 6 48t20 42q16 21 46.5 36.5t77.5 15.5q41 0 72 -13.5t49 -36.5q20 -26 28.5 -66.5t8.5 -91.5q0 -25 -1 -52t-6 -53t-16 -49.5t-32 -41.5q-20 -17 -49 -27t-67 -10q-37 0 -62.5 3.5t-54.5 8.5v56q25 -5 54 -9t63 -4q48 0 73 19q22 16 33 51q5 15 6 27.5
t1 23.5q-22 -3 -54.5 -6t-59.5 -3q-42 0 -67 8t-42 28q-27 31 -27 96zM116 623q0 -19 3 -34.5t12 -25.5q10 -11 27.5 -15t38.5 -4q29 0 57 2.5t54 7.5q0 45 -4.5 75.5t-19.5 50.5q-24 30 -76 30q-50 0 -72 -23q-12 -13 -16 -29t-4 -35z" />
    <glyph glyph-name="zero.dnom" horiz-adv-x="443" 
d="M65 206q0 64 5.5 103t25.5 68q17 25 50.5 39t74.5 14q84 0 123 -54q23 -32 28.5 -72.5t5.5 -97.5q0 -54 -7.5 -94t-27.5 -68q-19 -26 -48.5 -40.5t-73.5 -14.5q-82 0 -118 43q-20 25 -29 64t-9 110zM123 206q0 -46 3.5 -80t17.5 -54q12 -17 30 -22.5t47 -5.5q26 0 46 8.5
t33 29.5q14 23 17 53.5t3 70.5q0 50 -3.5 82t-17.5 53q-23 34 -79 34q-25 0 -44 -6t-31 -22q-17 -21 -19.5 -53.5t-2.5 -87.5z" />
    <glyph glyph-name="one.dnom" horiz-adv-x="282" 
d="M145 0v356l-118 -36v58l175 54v-432h-57z" />
    <glyph glyph-name="two.dnom" horiz-adv-x="391" 
d="M40 58q20 18 44.5 42t50 48.5t48.5 48t39 40.5q24 26 33 44t9 35q0 27 -14 41q-8 9 -24 13.5t-35 4.5q-42 0 -81.5 -8t-56.5 -13v56q19 5 58.5 12.5t79.5 7.5q65 0 101 -33q14 -13 22 -33.5t8 -44.5q0 -32 -11 -56.5t-38 -53.5q-43 -48 -87.5 -89.5t-70.5 -64.5h229v-55
h-304v58z" />
    <glyph glyph-name="three.dnom" horiz-adv-x="418" 
d="M56 4v56q25 -5 61.5 -10.5t67.5 -5.5q28 0 44.5 3t27.5 10q28 18 28 57q0 40 -34 60q-11 6 -26.5 7.5t-34.5 1.5h-92v55h143l16 21q12 16 18 29t6 30q0 29 -19 43q-11 8 -26 11t-41 3q-40 0 -78.5 -7.5t-57.5 -12.5v56q10 3 25.5 6t34 6t38.5 5t38 2q74 0 110 -30
q15 -12 24 -33t9 -43q0 -20 -5.5 -36t-16.5 -32q-7 -11 -15.5 -22.5t-12.5 -16.5q9 -6 18 -13.5t15 -15.5q22 -28 22 -73q0 -55 -35 -90q-36 -36 -123 -36q-32 0 -70 5.5t-59 9.5z" />
    <glyph glyph-name="four.dnom" horiz-adv-x="402" 
d="M233 419h72l-203 -273h165v89h57v-235h-57v91h-237v55z" />
    <glyph glyph-name="five.dnom" horiz-adv-x="413" 
d="M73 57q26 -5 56 -9t62 -4t53 5.5t33 20.5q9 11 12 23.5t3 29.5q0 33 -23 50q-16 11 -43.5 14.5t-84.5 3.5h-62v228h253v-55h-197v-118h47q77 0 112 -20q27 -15 41.5 -43t14.5 -60q0 -60 -32 -94q-22 -23 -52 -31.5t-75 -8.5q-35 0 -65 4t-53 8v56z" />
    <glyph glyph-name="six.dnom" horiz-adv-x="430" 
d="M138 357q37 29 87 46t116 28v-57q-51 -8 -91 -21.5t-66 -31.5t-37.5 -35.5t-15.5 -37.5q23 1 50 1.5t50 0.5q78 0 112 -38q16 -17 22.5 -41t6.5 -48q0 -50 -31 -87q-38 -47 -124 -47q-45 0 -73 11.5t-48 34.5q-17 20 -24 49t-7 58q0 74 13 126t60 89zM122 143
q0 -21 4 -40.5t17 -34.5q10 -12 29.5 -18t44.5 -6q27 0 44.5 5t30.5 18q22 22 22 56q0 13 -3 26t-11 24q-11 14 -28 19t-41 5q-32 0 -58.5 -0.5t-48.5 -1.5q-2 -12 -2 -25v-27z" />
    <glyph glyph-name="seven.dnom" horiz-adv-x="350" 
d="M58 0l203 364h-249v55h315v-55l-202 -364h-67z" />
    <glyph glyph-name="eight.dnom" horiz-adv-x="476" 
d="M108 184q10 9 19 15.5t18 12.5q-24 11 -37 30q-18 27 -18 73q0 55 43 88q36 27 107 27q34 0 63 -7.5t49 -24.5q19 -15 27.5 -36.5t8.5 -46.5q0 -20 -7 -35.5t-19 -32.5q-7 -9 -16 -18.5t-18 -18.5q29 -11 46 -28q14 -14 21 -32.5t7 -38.5q0 -53 -37 -86q-42 -36 -125 -36
q-44 0 -74.5 8t-50.5 22q-21 15 -31 36.5t-10 54.5q0 23 8.5 40.5t25.5 33.5zM159 58q28 -15 81 -15q54 0 80 17q25 17 25 50q0 20 -11.5 33.5t-38.5 22.5q-20 7 -47 13t-56 12q-7 -5 -18.5 -14.5t-22.5 -20.5q-12 -12 -16 -22.5t-4 -22.5q0 -38 28 -53zM147 315
q0 -28 8 -41t25 -21q16 -8 41 -13.5t56 -11.5q6 6 16.5 17t18.5 22t13.5 22.5t5.5 25.5q0 29 -20 44q-23 17 -71 17q-49 0 -70 -15q-23 -16 -23 -46z" />
    <glyph glyph-name="nine.dnom" horiz-adv-x="430" 
d="M58 288q0 24 6 48t20 42q16 21 46.5 36.5t77.5 15.5q41 0 72 -13.5t49 -36.5q20 -26 28.5 -66.5t8.5 -91.5q0 -25 -1 -52t-6 -53t-16 -49.5t-32 -41.5q-20 -17 -49 -27t-67 -10q-37 0 -62.5 3.5t-54.5 8.5v56q25 -5 54 -9t63 -4q48 0 73 19q22 16 33 51q5 15 6 27.5
t1 23.5q-22 -3 -54.5 -6t-59.5 -3q-42 0 -67 8t-42 28q-27 31 -27 96zM116 288q0 -19 3 -34.5t12 -25.5q10 -11 27.5 -15t38.5 -4q29 0 57 2.5t54 7.5q0 45 -4.5 75.5t-19.5 50.5q-24 30 -76 30q-50 0 -72 -23q-12 -13 -16 -29t-4 -35z" />
    <glyph glyph-name="IJacute" horiz-adv-x="615" 
d="M102 0v754h62v-754h-62zM233 -29q13 4 33 11t42 15.5t43.5 17.5t36.5 18q21 12 34.5 25t20.5 32q8 22 9 56.5t1 71.5v536h62v-534q0 -52 -1.5 -87.5t-10.5 -64.5q-6 -20 -20 -38.5t-36 -32.5q-21 -14 -49.5 -27.5t-58.5 -25t-58 -21t-48 -15.5v63zM86 813l119 137h80
l-121 -137h-78zM431 813l119 137h80l-121 -137h-78z" />
    <glyph glyph-name="ijacute" horiz-adv-x="456" 
d="M66 617l119 137h80l-121 -137h-78zM292 617l119 137h80l-121 -137h-78zM83 0v528h61v-528h-61zM177 -150q7 3 20 9.5t27.5 14t27.5 15.5t20 15q13 11 20.5 22.5t12.5 25.5t6 40.5t1 48.5v487h61v-487q0 -28 -1 -59.5t-7 -49.5q-8 -25 -22.5 -43.5t-39.5 -36.5
q-12 -9 -29 -18t-34.5 -17.5t-34 -15.5t-28.5 -12v61z" />
    <glyph glyph-name="space.tf" horiz-adv-x="325" 
 />
    <glyph glyph-name="period.tf" horiz-adv-x="325" 
d="M121 0v136h83v-136h-83z" />
    <glyph glyph-name="comma.tf" horiz-adv-x="325" 
d="M101 -173q6 24 10.5 46.5t8 48t5.5 56.5t2 72v86h77v-112q0 -58 -16 -106.5t-33 -90.5h-54z" />
    <glyph glyph-name="colon.tf" horiz-adv-x="325" 
d="M121 0v136h83v-136h-83zM204 528v-136h-83v136h83z" />
    <glyph glyph-name="dollar.tf" horiz-adv-x="650" 
d="M136 705q26 26 66 37.5t97 13.5v101h58v-103q21 -2 46 -6.5t50.5 -9.5t49 -10.5t41.5 -10.5v-62q-25 6 -55 13t-60 13t-59 10t-53 4q-44 0 -76.5 -6.5t-53.5 -23.5q-23 -19 -31.5 -46t-8.5 -56q0 -26 4 -46t20 -35q13 -12 38.5 -23.5t53.5 -21.5l154 -52q45 -15 72 -31.5
t47 -42.5q17 -22 24 -50.5t7 -62.5q0 -44 -14 -80.5t-43 -62.5q-32 -29 -69 -41.5t-84 -15.5v-111h-58v111q-51 2 -108.5 12.5t-100.5 19.5v62q49 -11 112.5 -22.5t118.5 -11.5q45 0 73.5 5.5t55.5 24.5q26 18 39.5 47.5t13.5 61.5q0 25 -4.5 45.5t-19.5 37.5t-38 27t-55 21
l-146 53q-35 13 -70.5 28.5t-53.5 37.5q-19 23 -26 51t-7 65q0 35 12 74t41 68z" />
    <glyph glyph-name="Euro.tf" horiz-adv-x="650" 
d="M87 381q0 94 11 161.5t37 114.5q32 57 89.5 85.5t155.5 28.5q63 0 115 -9.5t92 -18.5v-61q-42 10 -93.5 19.5t-113.5 9.5q-73 0 -120 -20.5t-74 -71.5q-7 -13 -13 -32t-10 -40t-6.5 -41.5t-3.5 -37.5h331v-59h-333q-1 -8 -1 -14.5v-11.5v-13t1 -17h333v-59h-331
q2 -38 9 -79.5t16 -64.5q21 -52 65 -79.5t128 -27.5q60 0 111.5 5t104.5 13v-61q-48 -6 -101 -11.5t-115 -5.5q-55 0 -96 9.5t-70.5 27.5t-49.5 44.5t-35 61.5q-16 38 -24.5 103.5t-8.5 151.5z" />
    <glyph glyph-name="sterling.tf" horiz-adv-x="650" 
d="M115 571q0 37 6.5 76.5t30.5 67.5q28 32 66 44t99 12q24 0 53 -3t59.5 -7.5t61 -10t56.5 -11.5v-61l-55 11t-61 11t-60.5 8t-53.5 3q-48 0 -73.5 -7t-42.5 -27q-17 -19 -20.5 -47.5t-3.5 -58.5v-103h277v-59h-277v-349h408v-60h-470v571z" />
    <glyph glyph-name="yen.tf" horiz-adv-x="650" 
d="M22 754h75l229 -393l230 393h72l-168 -286h137v-59h-171l-69 -120v-289h-64v289l-69 120h-171v59h137z" />
    <glyph glyph-name="uni20BA.tf" horiz-adv-x="650" 
d="M180 754v-231l312 97v-62l-312 -97v-61l312 97v-62l-312 -97v-295q97 0 153.5 13.5t94.5 49.5q19 18 31 42.5t19.5 50.5t10.5 51t4 43h64q-1 -21 -4.5 -48.5t-11 -56.5t-20 -57.5t-32.5 -51.5q-19 -23 -43.5 -41t-59.5 -30t-85 -18.5t-122 -6.5q-20 0 -36.5 1t-24.5 2
v768h62z" />
    <glyph glyph-name="uni20BD.tf" horiz-adv-x="650" 
d="M115 0v754h251q65 0 104.5 -14t68.5 -44q26 -27 40 -70.5t14 -89.5q0 -49 -9.5 -92.5t-37.5 -78.5q-26 -32 -62.5 -46.5t-87.5 -19.5q-33 -3 -87.5 -3.5t-131.5 -0.5v-57h302v-59h-302v-179h-62zM177 355q69 0 121 0.5t92 4.5q39 4 67.5 15.5t45.5 38.5q15 23 20.5 54
t5.5 68q0 38 -11 71t-32 53t-51.5 27t-73.5 7h-184v-339z" />
    <glyph glyph-name="parenleft.case" horiz-adv-x="314" 
d="M90 608q0 45 5.5 88t31.5 79q27 38 66.5 60t86.5 35v-61q-33 -13 -57.5 -29t-43.5 -44t-23 -63.5t-4 -77.5v-436q0 -42 4 -77.5t23 -63.5t43.5 -44t57.5 -29v-61q-47 13 -86.5 35t-66.5 60q-26 36 -31.5 79t-5.5 88v462z" />
    <glyph glyph-name="parenright.case" horiz-adv-x="314" 
d="M34 -116v61q33 13 57.5 29t43.5 44t23 63.5t4 77.5v436q0 42 -4 77.5t-23 63.5t-43.5 44t-57.5 29v61q47 -13 86.5 -35t66.5 -60q26 -36 31.5 -79t5.5 -88v-462q0 -45 -5.5 -88t-31.5 -79q-27 -38 -66.5 -60t-86.5 -35z" />
    <glyph glyph-name="bracketleft.case" horiz-adv-x="314" 
d="M276 850v-57h-120v-832h120v-57h-182v946h182z" />
    <glyph glyph-name="bracketright.case" horiz-adv-x="314" 
d="M220 850v-946h-182v57h120v832h-120v57h182z" />
    <glyph glyph-name="braceleft.case" horiz-adv-x="340" 
d="M93 349v56q14 5 24 8.5t24 8.5q21 8 32 22.5t11 43.5v248q0 68 40 96q12 8 39 13t53 5h46v-56h-46q-20 0 -36 -6t-24 -19q-10 -17 -10 -64v-219q0 -32 -9.5 -52.5t-26.5 -34.5t-45 -22q35 -10 54 -30q14 -14 20.5 -33t6.5 -48v-217q0 -53 15 -71q8 -9 23 -13.5t32 -4.5
h46v-56h-46q-29 0 -57 7t-42 18q-33 25 -33 91v244q0 31 -9.5 44.5t-33.5 23.5q-13 5 -23.5 8.5t-24.5 8.5z" />
    <glyph glyph-name="braceright.case" horiz-adv-x="340" 
d="M37 794v56h46q26 0 53 -5t39 -13q40 -28 40 -96v-248q0 -29 11 -43.5t32 -22.5q14 -5 24 -8.5t24 -8.5v-56q-14 -5 -24.5 -8.5t-23.5 -8.5q-24 -10 -33.5 -23.5t-9.5 -44.5v-244q0 -63 -33 -91q-14 -11 -42 -18t-57 -7h-46v56h46q17 0 32 4.5t23 13.5q15 18 15 71v217
q0 54 27 81q20 20 54 30q-25 7 -45 22q-18 14 -27 34.5t-9 52.5v219q0 47 -10 64q-8 13 -24 19t-36 6h-46z" />
    <glyph glyph-name="hyphen.case" horiz-adv-x="410" 
d="M70 345v62h270v-62h-270z" />
    <glyph glyph-name="endash.case" horiz-adv-x="600" 
d="M50 346v60h500v-60h-500z" />
    <glyph glyph-name="emdash.case" horiz-adv-x="1000" 
d="M0 346v60h1000v-60h-1000z" />
    <glyph glyph-name="guillemotleft.case" horiz-adv-x="523" 
d="M424 582h80l-169 -206l169 -206h-80l-169 206zM62 376l169 206h80l-169 -206l169 -206h-80z" />
    <glyph glyph-name="guillemotright.case" horiz-adv-x="523" 
d="M212 170l169 206l-169 206h80l169 -206l-169 -206h-80zM188 376l-169 206h80l169 -206l-169 -206h-80z" />
    <glyph glyph-name="guilsinglleft.case" horiz-adv-x="330" 
d="M231 170l-169 206l169 206h80l-169 -206l169 -206h-80z" />
    <glyph glyph-name="guilsinglright.case" horiz-adv-x="330" 
d="M19 170l169 206l-169 206h80l169 -206l-169 -206h-80z" />
    <glyph glyph-name="questiondown.case" horiz-adv-x="508" 
d="M116 306q18 25 37.5 48t51.5 58q38 41 51.5 64t19.5 38h70q-6 -16 -12 -30.5t-15 -29t-22 -31t-33 -37.5q-29 -32 -50.5 -56t-39.5 -50q-21 -30 -33 -58t-12 -66q0 -23 6.5 -45t27.5 -41q30 -27 100 -27q38 0 83.5 9.5t88.5 20.5v-60q-38 -10 -85 -20t-87 -10
q-49 0 -84 9.5t-61 32.5q-28 23 -40.5 57.5t-12.5 73.5q0 45 13 81t38 69zM273 754h78v-136h-78v136z" />
    <glyph glyph-name="exclamdown.case" horiz-adv-x="274" 
d="M97 514h60q0 -11 0.5 -50.5t1 -94.5t0.5 -118.5v-121.5v-129h-64v129v119t0.5 118.5t1 96t0.5 51.5zM88 754h78v-136h-78v136z" />
    </font>
</defs>
</svg>
