<?xml version="1.0" standalone="no"?>
<!DOCTYPE svg PUBLIC "-//W3C//DTD SVG 1.1//EN" "http://www.w3.org/Graphics/SVG/1.1/DTD/svg11.dtd" >
<svg xmlns="http://www.w3.org/2000/svg" xmlns:xlink="http://www.w3.org/1999/xlink" version="1.1">
<metadata>
Created by FontForge 20170731 at Wed Dec  4 13:10:49 2019
 By Aleksey,,,
(c) Bayerische Motoren Werke AG (BMW AG) 2019. The font is subject to copyright protection and other intellectual property rights. All rights reserved.
</metadata>
<defs>
<font id="BMWTypeNextLatinTT-Bold" horiz-adv-x="500" >
  <font-face 
    font-family="BMWTypeNext Latin TT Bold"
    font-weight="700"
    font-stretch="normal"
    units-per-em="1000"
    panose-1="0 0 0 0 0 0 0 0 0 0"
    ascent="800"
    descent="-200"
    x-height="528"
    cap-height="754"
    bbox="-189 -280 1549 1065"
    underline-thickness="50"
    underline-position="-276"
    unicode-range="U+000D-FB02"
  />
<missing-glyph horiz-adv-x="600" 
d="M50 754h500v-754h-500v754zM515 63v627l-194 -313zM85 690v-627l194 314zM491 720h-382l191 -309zM109 34h382l-191 309z" />
    <glyph glyph-name=".notdef" horiz-adv-x="600" 
d="M50 754h500v-754h-500v754zM515 63v627l-194 -313zM85 690v-627l194 314zM491 720h-382l191 -309zM109 34h382l-191 309z" />
    <glyph glyph-name=".null" horiz-adv-x="0" 
 />
    <glyph glyph-name=".null" horiz-adv-x="0" 
 />
    <glyph glyph-name="uni000D" unicode="&#xd;" horiz-adv-x="249" 
 />
    <glyph glyph-name="space" unicode=" " horiz-adv-x="240" 
 />
    <glyph glyph-name="exclam" unicode="!" horiz-adv-x="318" 
d="M91 588v166h152v-166v-49t-0.5 -67.5t-0.5 -74t-0.5 -70t-1 -56.5t-0.5 -31h-146q0 8 -0.5 31.5t-1 56t-0.5 70t-0.5 74t-0.5 67.5v49zM86 0v178h162v-178h-162z" />
    <glyph glyph-name="quotedbl" unicode="&#x22;" horiz-adv-x="504" 
d="M292 754h145v-106q0 -30 -2 -70t-4.5 -77.5t-5 -67t-3.5 -37.5h-115q-1 8 -3.5 38.5t-5 69.5t-4.5 78.5t-2 65.5v106zM67 648v106h145v-106q0 -30 -2 -70t-4.5 -77.5t-5 -67t-3.5 -37.5h-115q-1 8 -3.5 38.5t-5 69.5t-4.5 78.5t-2 65.5z" />
    <glyph glyph-name="numbersign" unicode="#" horiz-adv-x="650" 
d="M135 296l26 163h-100v114h119l29 181h118l-29 -181h118l29 181h118l-29 -181h100v-114h-119l-26 -163h100v-114h-119l-29 -182h-118l29 182h-118l-29 -182h-118l29 182h-100v114h119zM371 296l26 163h-117l-27 -163h118z" />
    <glyph glyph-name="dollar" unicode="$" horiz-adv-x="693" 
d="M59 544q0 63 17.5 105.5t59.5 73.5q28 21 65.5 29.5t75.5 10.5v94h133v-96q54 -7 107 -17t93 -18v-141q-31 7 -67 14.5t-72 14t-69.5 10.5t-60.5 4q-40 0 -65 -2.5t-42 -14.5q-23 -16 -23 -57q0 -19 5.5 -33t20.5 -22q22 -12 41 -19t56 -18l108 -34q42 -14 73.5 -26.5
t54.5 -32.5q30 -26 47 -65.5t17 -87.5q0 -110 -76 -170q-29 -23 -64.5 -34.5t-83.5 -17.5v-107h-133v105q-54 5 -110 12t-101 15v142q65 -14 135 -24.5t139 -10.5q29 0 58 2t54 19q16 11 23 27t7 34q0 19 -4.5 30.5t-13.5 19.5q-11 9 -36.5 18t-63.5 21l-128 41
q-39 13 -65.5 25t-48.5 30q-63 53 -63 151z" />
    <glyph glyph-name="percent" unicode="%" horiz-adv-x="1134" 
d="M735 377q25 28 62.5 40.5t86.5 12.5q45 0 78.5 -10.5t59.5 -33.5q32 -29 44.5 -70.5t12.5 -104.5q0 -60 -12.5 -100t-42.5 -71q-49 -51 -140 -51q-46 0 -81.5 10t-61.5 36q-32 32 -42 73.5t-10 102.5q0 57 10 97t36 69zM815 211q0 -37 3.5 -59.5t17.5 -35.5
q16 -15 48 -15q29 0 46 16q15 14 19 36.5t4 57.5q0 27 -2.5 48.5t-12.5 35.5q-16 23 -54 23q-22 0 -35 -6t-21 -20t-10.5 -34.5t-2.5 -46.5zM274 0l428 754h153l-428 -754h-153zM101 712q25 28 62.5 40.5t86.5 12.5q45 0 78.5 -10.5t59.5 -33.5q32 -29 44.5 -70.5
t12.5 -104.5q0 -60 -12.5 -100t-42.5 -71q-49 -51 -140 -51q-46 0 -81.5 10t-61.5 36q-32 32 -42 73.5t-10 102.5q0 57 10 97t36 69zM181 546q0 -37 3.5 -59.5t17.5 -35.5q16 -15 48 -15q29 0 46 16q15 14 19 36.5t4 57.5q0 27 -2.5 48.5t-12.5 35.5q-16 23 -54 23
q-22 0 -35 -6t-21 -20t-10.5 -34.5t-2.5 -46.5z" />
    <glyph glyph-name="ampersand" unicode="&#x26;" horiz-adv-x="818" 
d="M96 351q20 23 47 45t47 36q-12 13 -21.5 27t-15.5 26q-22 44 -22 94q0 35 9.5 68.5t38.5 63.5q31 32 78 46t124 14q54 0 110 -10.5t104 -21.5v-138q-43 11 -96.5 21.5t-109.5 10.5q-32 0 -55.5 -3.5t-35.5 -18.5q-9 -11 -11.5 -21t-2.5 -24q0 -21 13.5 -39.5t47.5 -55.5
q17 -19 39 -41l45 -45t45.5 -45t41.5 -40h-195l-42 42q-17 -13 -32 -25t-28 -27t-20 -32.5t-7 -39.5q0 -24 7.5 -43t27.5 -33q20 -13 42 -18t54 -5q36 0 62 6.5t52 21.5q19 11 39 29.5t35 36.5l74 87h175l-111 -131l169 -169h-206l-63 64q-14 -14 -34 -28.5t-49 -26.5
q-30 -13 -64 -19.5t-79 -6.5q-66 0 -113.5 12t-87.5 39q-36 25 -57.5 69t-21.5 97q0 45 12 80.5t41 70.5z" />
    <glyph glyph-name="quotesingle" unicode="'" horiz-adv-x="279" 
d="M67 754h145v-106q0 -30 -2 -70t-4.5 -77.5t-5 -67t-3.5 -37.5h-115q-1 8 -3.5 38.5t-5 69.5t-4.5 78.5t-2 65.5v106z" />
    <glyph glyph-name="parenleft" unicode="(" horiz-adv-x="346" 
d="M61 504q0 54 10 98.5t42 78.5q42 46 98.5 65.5t106.5 28.5v-130q-23 -7 -47 -17t-40 -31q-15 -20 -18.5 -56t-3.5 -74v-370q0 -40 3.5 -77t18.5 -55q17 -20 40.5 -29.5t46.5 -16.5v-130q-51 9 -106.5 28.5t-98.5 65.5q-32 34 -42 78.5t-10 98.5v444z" />
    <glyph glyph-name="parenright" unicode=")" horiz-adv-x="346" 
d="M28 -211v130q23 7 46.5 16.5t40.5 29.5q15 18 18.5 55t3.5 77v370q0 38 -3.5 74t-18.5 56q-16 21 -40 31t-47 17v130q51 -9 106.5 -28.5t98.5 -65.5q32 -34 42 -78.5t10 -98.5v-444q0 -54 -10 -98.5t-42 -78.5q-42 -46 -98.5 -65.5t-106.5 -28.5z" />
    <glyph glyph-name="asterisk" unicode="*" horiz-adv-x="575" 
d="M80 595v111l161 -99l-2 147h97l-2 -147l161 99v-111l-103 -61l103 -61v-111l-161 99l2 -147h-97l2 147l-161 -99v111l103 61z" />
    <glyph glyph-name="plus" unicode="+" horiz-adv-x="700" 
d="M279 443v224h142v-224h214v-132h-214v-224h-142v224h-214v132h214z" />
    <glyph glyph-name="comma" unicode="," horiz-adv-x="300" 
d="M59 -188q8 38 15 84t7 107v175h152v-151q0 -35 -6.5 -67t-16 -60t-20.5 -50l-19 -38h-112z" />
    <glyph glyph-name="hyphen" unicode="-" horiz-adv-x="458" 
d="M50 194v146h358v-146h-358z" />
    <glyph glyph-name="period" unicode="." horiz-adv-x="300" 
d="M67 0v178h166v-178h-166z" />
    <glyph glyph-name="slash" unicode="/" horiz-adv-x="437" 
d="M0 0l284 754h153l-284 -754h-153z" />
    <glyph glyph-name="zero" unicode="0" horiz-adv-x="665" 
d="M116 680q37 49 91.5 70t123.5 21q55 0 105.5 -16t87.5 -51q27 -26 43 -60.5t23.5 -76t9.5 -89.5t2 -102q0 -55 -2 -100t-9 -82.5t-20.5 -69.5t-37.5 -61q-35 -44 -88 -62t-114 -18t-112 15.5t-88 57.5q-24 28 -38 61t-20.5 72.5t-8 86t-1.5 100.5q0 97 8 175.5t45 128.5z
M213 373q0 -79 3.5 -130t26.5 -83q15 -21 38.5 -29.5t49.5 -8.5t49 9t38 29q24 32 29 83t5 136q0 78 -4 129t-25 83q-14 22 -38 31.5t-54 9.5q-35 0 -60.5 -12.5t-39.5 -46.5q-14 -32 -16 -83t-2 -117z" />
    <glyph glyph-name="one" unicode="1" horiz-adv-x="426" 
d="M192 0v580l-191 -58v148l341 105v-775h-150z" />
    <glyph glyph-name="two" unicode="2" horiz-adv-x="607" 
d="M35 140q29 28 71 68.5t86 84.5t84.5 87t66.5 75q20 24 32 45.5t12 48.5q0 17 -5 32t-19 27q-17 15 -45 19t-64 4q-23 0 -51 -3t-55.5 -7.5t-53.5 -9t-45 -8.5v140q21 4 48.5 9t57.5 9t59.5 7t54.5 3q80 0 126.5 -14t81.5 -45q32 -27 46.5 -68.5t14.5 -80.5
q0 -38 -7.5 -69.5t-21.5 -59t-35.5 -54.5t-48.5 -56q-45 -48 -89.5 -91t-98.5 -93h327v-140h-529v140z" />
    <glyph glyph-name="three" unicode="3" horiz-adv-x="606" 
d="M33 6v140q47 -8 101 -16t115 -8q82 0 117 26q17 14 24 31t7 40q0 52 -50 76q-20 10 -46.5 11.5t-56.5 1.5h-135v135h215l24 33q17 23 28.5 44t11.5 41q0 16 -3.5 27t-14.5 22q-14 12 -38.5 17t-68.5 5q-27 0 -58 -3.5t-61.5 -8t-58 -9.5t-46.5 -9v139q20 4 48.5 9t60 9.5
t62.5 8t56 3.5q77 0 127.5 -13.5t84.5 -45.5q29 -27 43.5 -63t14.5 -76q0 -35 -12 -62t-31 -56q-11 -17 -22 -33.5t-17 -24.5q12 -8 23.5 -18t23.5 -24q46 -53 46 -136q0 -45 -14 -86t-42 -70q-38 -41 -95.5 -60.5t-143.5 -19.5q-71 0 -124.5 7.5t-94.5 15.5z" />
    <glyph glyph-name="four" unicode="4" horiz-adv-x="624" 
d="M368 754h181l-346 -471h204v132h148v-415h-148v142h-385v142z" />
    <glyph glyph-name="five" unicode="5" horiz-adv-x="611" 
d="M68 143q38 -8 92 -14.5t102 -6.5q40 0 66.5 6.5t43.5 22.5q19 17 24.5 35.5t5.5 44.5q0 23 -6 40t-25 32t-52.5 20t-93.5 5h-147v426h456v-139h-308v-148h61q78 0 126.5 -18t77.5 -47q61 -61 61 -171q0 -55 -15 -97.5t-47 -77.5q-34 -37 -87 -55t-131 -18q-60 0 -110 6
t-94 14v140z" />
    <glyph glyph-name="six" unicode="6" horiz-adv-x="654" 
d="M60 275q0 77 7.5 135t23 101.5t39 76t54.5 57.5q63 52 154.5 80t212.5 42v-139q-60 -7 -120 -21t-102 -35t-65 -46.5t-32 -61.5q53 3 107 3q78 0 124 -16t75 -47q61 -64 61 -174q0 -48 -14 -92.5t-46 -79.5q-35 -39 -85 -57t-118 -18t-118 15t-87 53q-71 73 -71 224z
M240 150q17 -19 41.5 -25.5t54.5 -6.5q26 0 47 6t38 23q17 18 22.5 38t5.5 45t-4 43.5t-21 35.5q-15 15 -38 20t-65 5q-30 0 -62 -1t-47 -2q-2 -16 -2 -32v-42q0 -40 6.5 -63.5t23.5 -43.5z" />
    <glyph glyph-name="seven" unicode="7" horiz-adv-x="544" 
d="M39 0l325 612h-364v142h536v-139l-325 -615h-172z" />
    <glyph glyph-name="eight" unicode="8" horiz-adv-x="687" 
d="M63 208q0 37 11.5 70t33.5 58q15 17 28 29t27 23q-15 9 -26 18.5t-24 25.5q-38 48 -38 124q0 45 14.5 85t46.5 68q72 62 206 62q66 0 116.5 -14t86.5 -45q33 -28 50 -69t17 -87q0 -34 -10.5 -62t-30.5 -52q-11 -14 -23 -27.5t-24 -26.5q18 -11 30.5 -22t25.5 -26
q23 -26 33.5 -60.5t10.5 -71.5q0 -48 -16 -90.5t-51 -71.5q-40 -33 -92 -48.5t-124 -15.5q-66 0 -117 12.5t-87 40.5q-38 30 -56 74t-18 99zM212 214q0 -24 5 -42.5t22 -32.5t45.5 -19.5t59.5 -5.5q30 0 56.5 5.5t43.5 19.5q32 25 32 73q0 28 -9.5 47t-33.5 33
q-17 10 -55 19t-104 19q-12 -10 -20.5 -18t-18.5 -22q-11 -16 -17 -34t-6 -42zM253 482q17 -12 58 -22t102 -21q9 10 15 17.5t14 18.5q9 14 15.5 30.5t6.5 42.5q0 20 -5 36t-20 29q-17 14 -42 20t-55 6t-55.5 -5.5t-40.5 -19.5q-16 -14 -19.5 -29.5t-3.5 -36.5
q0 -25 6.5 -40t23.5 -26z" />
    <glyph glyph-name="nine" unicode="9" horiz-adv-x="654" 
d="M55 510q0 62 12.5 105.5t44.5 80.5q34 40 83 57.5t119 17.5t121 -19t87 -62q35 -42 53.5 -110.5t18.5 -176.5q0 -53 -2.5 -102.5t-11.5 -93.5q-9 -45 -27.5 -82.5t-48.5 -67.5q-36 -35 -92 -54.5t-137 -19.5q-23 0 -50 2t-53 5.5t-49.5 7.5t-40.5 8v139q38 -8 91 -15.5
t96 -7.5q32 0 61 4t50 16q22 13 33.5 29t19.5 39q6 19 8.5 35.5t2.5 34.5q-28 -4 -67 -7.5t-93 -3.5q-57 0 -100.5 17t-69.5 46q-29 33 -44 76.5t-15 101.5zM205 510q0 -31 4 -49.5t20 -34.5q14 -14 37 -18.5t52 -4.5q15 0 32.5 1t34.5 2.5t33 3.5t26 3q0 73 -8 116t-28 69
q-30 38 -90 38q-27 0 -49 -7t-38 -27t-21 -41.5t-5 -50.5z" />
    <glyph glyph-name="colon" unicode=":" horiz-adv-x="300" 
d="M67 0v178h166v-178h-166zM233 528v-178h-166v178h166z" />
    <glyph glyph-name="semicolon" unicode=";" horiz-adv-x="300" 
d="M59 -188q8 38 15 84t7 107v175h152v-151q0 -35 -6.5 -67t-16 -60t-20.5 -50l-19 -38h-112zM67 528h166v-178h-166v178z" />
    <glyph glyph-name="less" unicode="&#x3c;" horiz-adv-x="700" 
d="M635 660v-131l-399 -152l399 -152v-131l-570 218v130z" />
    <glyph glyph-name="equal" unicode="=" horiz-adv-x="700" 
d="M65 202v130h570v-130h-570zM635 552v-130h-570v130h570z" />
    <glyph glyph-name="greater" unicode="&#x3e;" horiz-adv-x="700" 
d="M635 442v-130l-570 -218v131l399 152l-399 152v131z" />
    <glyph glyph-name="question" unicode="?" horiz-adv-x="559" 
d="M273 771q57 0 99 -11.5t76 -37.5q32 -24 50.5 -63.5t18.5 -79.5q0 -25 -3.5 -47t-11.5 -42.5t-21 -41.5t-33 -45q-21 -26 -44 -51.5t-49 -52.5q-17 -17 -24.5 -32t-12.5 -27h-162q16 54 55 103q21 26 51 58.5t54 57.5q20 20 35.5 46t15.5 55q0 16 -5 30.5t-19 25.5
q-15 12 -39 15.5t-59 3.5q-48 0 -94.5 -8t-90.5 -17v133q35 8 89.5 18t123.5 10zM156 178h162v-178h-162v178z" />
    <glyph glyph-name="at" unicode="@" horiz-adv-x="986" 
d="M176 565q24 26 52 46.5t65 34.5t85.5 21t113.5 7q51 0 108 -11.5t113 -28t108 -36t93 -35.5v-293q0 -54 -11.5 -102t-41.5 -83q-33 -38 -76 -56.5t-91 -27.5q-37 -7 -67 -9t-53 -2v65q-12 -11 -21.5 -18t-23.5 -17q-26 -18 -45.5 -25.5t-51.5 -7.5q-36 0 -67.5 18.5
t-52.5 52.5q-20 33 -29 75t-9 102q0 42 7.5 85.5t30.5 79.5q13 21 28 35.5t35.5 24.5t49 14.5t67.5 4.5q52 0 104.5 -15.5t112.5 -36.5v-307q14 4 31.5 13.5t31.5 28.5q14 20 17.5 56.5t3.5 78.5v187q-22 8 -58 20.5t-77.5 24.5t-85 20.5t-80.5 8.5q-47 0 -81.5 -4.5
t-60 -12.5t-44.5 -20.5t-35 -29.5q-45 -46 -63.5 -112.5t-18.5 -143.5q0 -84 14.5 -142.5t42.5 -97.5q24 -34 61.5 -56t93.5 -36v-123q-92 20 -153.5 56t-100.5 91q-20 28 -35 59t-25 68t-15 81.5t-5 99.5q0 89 25.5 178t83.5 152zM414 235q0 -29 2 -49t7 -36
q6 -17 14.5 -24t23.5 -7q18 0 31 7t31 21q13 10 25 20.5t23 20.5v151q-17 5 -34 9.5t-36 4.5q-31 0 -49 -7.5t-27 -31.5q-8 -20 -9.5 -38.5t-1.5 -40.5z" />
    <glyph glyph-name="A" unicode="A" horiz-adv-x="747" 
d="M1 0l274 754h196l275 -754h-163l-50 137h-323l-49 -137h-160zM256 278h229l-115 325z" />
    <glyph glyph-name="B" unicode="B" horiz-adv-x="737" 
d="M429 754q62 0 102 -8t71 -30q35 -25 55.5 -64.5t20.5 -83.5q0 -35 -9 -61.5t-25 -53.5q-11 -18 -21.5 -34.5t-19.5 -30.5q17 -13 31.5 -26t28.5 -31q14 -19 23 -47.5t9 -60.5q0 -54 -18 -96.5t-56 -71.5q-35 -28 -86 -41.5t-132 -13.5h-331v754h357zM222 311v-173h184
q48 0 72.5 4.5t40.5 18.5q14 12 19 27t5 35q0 52 -39 73q-17 9 -40.5 12t-61.5 3h-180zM483 449q5 8 12 19t12 20q8 14 14 28.5t6 33.5t-6.5 33t-20.5 22q-13 7 -34 9t-54 2h-190v-167h261z" />
    <glyph glyph-name="C" unicode="C" horiz-adv-x="657" 
d="M57 366q0 88 11.5 155.5t43.5 118.5q15 25 36.5 48.5t53 42t74 29.5t99.5 11q32 0 66 -4.5t66 -10.5q35 -7 61 -12.5t51 -11.5v-144q-26 6 -59.5 13.5t-65.5 13.5q-28 5 -52.5 8t-48.5 3q-65 0 -101 -18.5t-56 -57.5q-16 -32 -21.5 -76.5t-5.5 -104.5q0 -55 5.5 -100.5
t23.5 -77.5q20 -35 58.5 -49t101.5 -14q24 0 53 3.5t59 8.5t58 10.5t51 10.5v-145q-51 -11 -116 -22t-131 -11q-60 0 -103 11.5t-73.5 29.5t-50.5 40.5t-35 44.5q-28 43 -40.5 107.5t-12.5 149.5z" />
    <glyph glyph-name="D" unicode="D" horiz-adv-x="735" 
d="M344 754q86 0 147 -17.5t105 -67.5q21 -23 36 -50t25.5 -61.5t15.5 -78t5 -99.5q0 -116 -26 -188t-79 -120q-45 -41 -101.5 -56.5t-135.5 -15.5h-264v754h272zM340 141q55 0 90 14t60 51q22 32 29 76t7 98q0 59 -7 106.5t-36 81.5q-25 29 -59 37t-79 8h-123v-472h118z
" />
    <glyph glyph-name="E" unicode="E" horiz-adv-x="657" 
d="M606 754v-141h-384v-159h362v-141h-362v-172h401v-141h-551v754h534z" />
    <glyph glyph-name="F" unicode="F" horiz-adv-x="621" 
d="M598 754v-141h-376v-167h338v-141h-338v-305h-150v754h526z" />
    <glyph glyph-name="G" unicode="G" horiz-adv-x="723" 
d="M57 366q0 98 13.5 162.5t44.5 114.5q17 26 38.5 49.5t52.5 41t72.5 27.5t96.5 10q61 0 127 -13.5t125 -27.5v-143q-33 8 -71.5 16t-77.5 15q-48 8 -85 8q-66 0 -101 -17.5t-55 -58.5q-16 -32 -22 -74.5t-6 -106.5q0 -63 5.5 -107.5t23.5 -76.5q20 -36 58.5 -49t101.5 -13
q35 0 63.5 2t43.5 4v276h148v-397q-27 -4 -62 -8.5t-72.5 -8t-75.5 -6t-71 -2.5q-57 0 -99 8.5t-72.5 24t-51.5 37t-37 46.5q-29 46 -42 110t-13 157z" />
    <glyph glyph-name="H" unicode="H" horiz-adv-x="746" 
d="M222 754v-288h302v288h150v-754h-150v323h-302v-323h-150v754h150z" />
    <glyph glyph-name="I" unicode="I" horiz-adv-x="294" 
d="M72 0v754h150v-754h-150z" />
    <glyph glyph-name="J" unicode="J" horiz-adv-x="405" 
d="M-27 25q28 9 72 26t79 39q18 11 30 24t20 34t9 48t1 52v506h150v-517q0 -48 -2.5 -91.5t-16.5 -76.5q-11 -25 -27 -44t-47 -37q-27 -16 -63.5 -32.5t-74 -31.5t-72.5 -27t-58 -19v147z" />
    <glyph glyph-name="K" unicode="K" horiz-adv-x="698" 
d="M72 0v754h150v-354l286 354h184l-299 -365l336 -389h-199l-308 360v-360h-150z" />
    <glyph glyph-name="L" unicode="L" horiz-adv-x="608" 
d="M72 0v754h150v-609h371v-145h-521z" />
    <glyph glyph-name="M" unicode="M" horiz-adv-x="897" 
d="M265 754l185 -423l185 423h190v-754h-146v527l-165 -377h-131l-165 377v-527h-146v754h193z" />
    <glyph glyph-name="N" unicode="N" horiz-adv-x="755" 
d="M234 754l301 -504v504h148v-754h-162l-301 504v-504h-148v754h162z" />
    <glyph glyph-name="O" unicode="O" horiz-adv-x="780" 
d="M112 643q19 30 42 54t55.5 40.5t76.5 25t104 8.5q104 0 163.5 -28.5t100.5 -85.5q39 -54 54 -126.5t15 -155.5q0 -96 -18 -165t-52 -115q-21 -28 -44.5 -49t-54.5 -35t-71 -21t-93 -7q-60 0 -102.5 7.5t-74 22.5t-54 36.5t-41.5 49.5q-61 91 -61 276q0 80 11.5 148.5
t43.5 119.5zM209 375q0 -59 7 -109t27 -82q23 -37 61 -48t86 -11q43 0 76.5 10t58.5 41q28 35 37 87t9 112q0 58 -7 105.5t-29 82.5q-23 38 -60 52t-85 14q-47 0 -85 -11t-62 -50q-20 -33 -27 -83.5t-7 -109.5z" />
    <glyph glyph-name="P" unicode="P" horiz-adv-x="682" 
d="M72 0v754h324q65 0 110.5 -14.5t79.5 -47.5t49.5 -80t15.5 -101q0 -57 -16 -105.5t-54 -82.5q-35 -32 -81 -45t-103 -15q-33 -2 -76 -2h-99v-261h-150zM382 404q32 2 54.5 7t37.5 19t20 34t5 46q0 28 -5.5 47.5t-20.5 33.5q-14 13 -36 17.5t-57 4.5h-158v-211h85t75 2z
" />
    <glyph glyph-name="Q" unicode="Q" horiz-adv-x="780" 
d="M112 643q19 30 42 54t55.5 40.5t76.5 25t104 8.5q104 0 163.5 -28.5t100.5 -85.5q39 -54 54 -126.5t15 -155.5q0 -75 -14 -148t-56 -128q-32 -41 -84 -65l142 -33v-129l-353 84q-40 10 -83.5 26t-81.5 40q-44 28 -70.5 69t-41 88.5t-19.5 98t-5 97.5q0 80 11.5 148.5
t43.5 119.5zM243 181q23 -37 61 -48.5t86 -11.5q43 0 76.5 10.5t58.5 41.5q28 35 37 88.5t9 113.5q0 58 -7 105.5t-29 82.5q-23 38 -60 52t-85 14q-47 0 -85 -11t-62 -50q-20 -33 -27 -83.5t-7 -109.5t7 -110.5t27 -83.5z" />
    <glyph glyph-name="R" unicode="R" horiz-adv-x="727" 
d="M72 0v754h335q71 0 118 -10.5t87 -44.5q33 -29 51.5 -73.5t18.5 -96.5t-17 -89t-49 -75q-17 -20 -38.5 -43t-35.5 -37l177 -285h-173l-160 259h-164v-259h-150zM222 613v-213h240q6 7 17 19.5t19 23.5q15 20 23.5 39t8.5 47q0 22 -6 37.5t-22 27.5q-14 11 -39.5 15
t-73.5 4h-167z" />
    <glyph glyph-name="S" unicode="S" horiz-adv-x="649" 
d="M37 547q0 62 18.5 104.5t59.5 73.5q36 28 85 37t110 9q33 0 71 -4.5t75.5 -11t72 -13.5t59.5 -13v-144q-25 6 -61.5 13.5t-75 14.5t-74.5 12t-61 5q-39 0 -63 -3.5t-40 -15.5q-14 -11 -19 -24t-5 -30q0 -20 4.5 -33t16.5 -22q14 -10 31.5 -16.5t48.5 -16.5l130 -41
q42 -14 74 -26.5t55 -32.5q30 -26 46.5 -66.5t16.5 -89.5q0 -110 -76 -170q-40 -32 -93 -46t-137 -14q-31 0 -66.5 3.5t-70 8.5t-67 10.5t-58.5 10.5v146q30 -6 65 -12.5t71 -12.5t71.5 -9.5t66.5 -3.5q44 0 69.5 5t42.5 16q30 20 30 60q0 37 -21 54q-11 9 -37 18.5
t-58 19.5l-129 41q-39 13 -66 25t-49 30q-63 53 -63 154z" />
    <glyph glyph-name="T" unicode="T" horiz-adv-x="676" 
d="M10 754h656v-142h-253v-612h-150v612h-253v142z" />
    <glyph glyph-name="U" unicode="U" horiz-adv-x="739" 
d="M220 754v-463q0 -51 5.5 -84t28.5 -54q19 -17 50 -22.5t66 -5.5t65 5t49 22q23 20 29 53t6 86v463h150v-460q0 -85 -13.5 -141t-53.5 -97q-42 -42 -98 -57.5t-134 -15.5q-85 0 -140 15.5t-96 59.5q-39 42 -51.5 100t-12.5 136v460h150z" />
    <glyph glyph-name="V" unicode="V" horiz-adv-x="718" 
d="M-5 754h164l201 -577l202 577h161l-269 -754h-190z" />
    <glyph glyph-name="W" unicode="W" horiz-adv-x="949" 
d="M12 754h154l110 -557l124 443h152l122 -443l112 557h151l-153 -754h-190l-119 431l-119 -431h-192z" />
    <glyph glyph-name="X" unicode="X" horiz-adv-x="738" 
d="M0 0l258 382l-247 372h179l179 -270l181 270h175l-245 -363l258 -391h-179l-190 289l-194 -289h-175z" />
    <glyph glyph-name="Y" unicode="Y" horiz-adv-x="665" 
d="M158 754l179 -312l179 312h164l-272 -467v-287h-150v287l-273 467h173z" />
    <glyph glyph-name="Z" unicode="Z" horiz-adv-x="672" 
d="M36 0v142l398 471h-383v141h578v-142l-398 -471h405v-141h-600z" />
    <glyph glyph-name="bracketleft" unicode="[" horiz-adv-x="366" 
d="M338 754v-130h-123v-686h123v-130h-271v946h271z" />
    <glyph glyph-name="backslash" unicode="\" horiz-adv-x="437" 
d="M284 0l-284 754h153l284 -754h-153z" />
    <glyph glyph-name="bracketright" unicode="]" horiz-adv-x="366" 
d="M299 754v-946h-271v130h123v686h-123v130h271z" />
    <glyph glyph-name="asciicircum" unicode="^" horiz-adv-x="850" 
d="M365 754h122l320 -419h-183l-199 264l-199 -264h-183z" />
    <glyph glyph-name="underscore" unicode="_" 
d="M0 -192v142h500v-142h-500z" />
    <glyph glyph-name="grave" unicode="`" 
d="M226 600l-145 154h162l139 -154h-156z" />
    <glyph glyph-name="a" unicode="a" horiz-adv-x="609" 
d="M87 454q26 44 73.5 67.5t128.5 23.5q63 0 124.5 -17t130.5 -41v-487h-144v68q-9 -8 -22 -17.5t-29 -20.5q-29 -20 -57 -33.5t-70 -13.5q-48 0 -81.5 21t-55.5 57t-31 83.5t-9 107.5t9 111t33 91zM206 153q7 -18 18.5 -25t31.5 -7q22 0 47.5 16t44.5 30q29 21 50 40v187
q-17 6 -44 13.5t-54 7.5q-32 0 -54 -9.5t-34 -33.5q-11 -23 -15 -50.5t-4 -69.5q0 -26 3 -53t10 -46z" />
    <glyph glyph-name="b" unicode="b" horiz-adv-x="611" 
d="M211 754v-260q10 5 27 14t28 14q23 11 47.5 17t55.5 6q51 0 85.5 -17.5t60.5 -52.5q51 -69 51 -206q0 -69 -12.5 -119t-36.5 -85q-29 -42 -71 -62t-121 -20q-32 0 -64.5 3.5t-62.5 8.5q-54 9 -87.5 16t-45.5 10v733h146zM211 128q15 -3 39 -7q15 -2 31.5 -4t35.5 -2
q59 0 79 37q12 23 17 50t5 62q0 38 -4 67.5t-17 50.5q-11 18 -27 24t-38 6q-17 0 -39.5 -8t-37.5 -16q-12 -6 -24 -12.5t-20 -11.5v-236z" />
    <glyph glyph-name="c" unicode="c" horiz-adv-x="496" 
d="M47 263q0 121 45 190q28 42 72 67t124 25q45 0 93.5 -10.5t86.5 -20.5v-138q-16 5 -36.5 10t-42 10t-43 8t-39.5 3q-32 0 -57 -8.5t-37 -33.5q-11 -23 -14.5 -47.5t-3.5 -54.5q0 -29 3 -53t13 -46q11 -24 34.5 -34t61.5 -10q42 0 84 8.5t77 16.5v-138q-34 -7 -84.5 -15.5
t-94.5 -8.5q-42 0 -73 6t-54 17.5t-40 28t-31 37.5q-21 32 -32.5 80t-11.5 111z" />
    <glyph glyph-name="d" unicode="d" horiz-adv-x="611" 
d="M85 457q27 45 65.5 66.5t100.5 21.5q37 0 77.5 -10t71.5 -19v238h146v-754h-144v60q-18 -15 -46 -33q-30 -20 -61 -32t-72 -12q-47 0 -81.5 23.5t-55.5 58.5q-20 32 -30.5 77t-10.5 119q0 67 9.5 114t30.5 82zM193 262q0 -41 3 -65t11 -43q8 -18 21 -25t37 -7
q22 0 45.5 13t44.5 27q27 18 45 32v193l-22.5 7.5t-29 8t-31.5 6.5t-29 3q-29 0 -48.5 -9t-30.5 -32q-10 -20 -13 -45.5t-3 -63.5z" />
    <glyph glyph-name="e" unicode="e" horiz-adv-x="580" 
d="M45 259q0 48 7 99.5t33 93.5q57 93 210 93q75 0 124 -19t77 -56q15 -20 23.5 -42t12 -43t4.5 -40t1 -33q0 -22 -3 -55.5t-7 -52.5h-339q0 -14 3 -27t13 -27q17 -23 46 -32t73 -9q52 0 100 6t88 12v-124q-38 -6 -91.5 -13t-111.5 -7q-45 0 -78.5 5.5t-59.5 16.5t-45 27
t-35 38q-26 35 -35.5 79.5t-9.5 109.5zM188 308h208q2 12 2 27q0 13 -2.5 28t-12.5 29q-13 19 -35.5 27t-52.5 8q-64 0 -89 -41q-10 -16 -14 -37t-4 -41z" />
    <glyph glyph-name="f" unicode="f" horiz-adv-x="351" 
d="M65 0v521q0 21 1.5 49.5t9.5 52.5q15 48 59 78q37 26 94.5 43.5t120.5 30.5v-142q-28 -6 -62 -15.5t-54 -23.5q-11 -8 -15 -16.5t-6 -18.5q-2 -11 -2 -20v-18h140v-134h-140v-387h-146z" />
    <glyph glyph-name="g" unicode="g" horiz-adv-x="609" 
d="M46 263q0 61 9.5 110.5t31.5 83.5q29 45 76 66.5t128 21.5q63 0 127 -18.5t126 -39.5v-422q0 -64 -12.5 -111.5t-44.5 -84.5q-32 -35 -91 -56.5t-144 -21.5q-55 0 -100 4.5t-84 9.5v128q28 -4 78.5 -9.5t105.5 -5.5q37 0 66 9.5t46 23.5t25.5 31t8.5 42v20
q-18 -9 -52 -22q-23 -8 -50.5 -15t-59.5 -7q-51 0 -88 21t-58 53t-32.5 79t-11.5 110zM194 263q0 -28 3 -50t11 -43q8 -22 25.5 -30t43.5 -8q20 0 38 5t34 12q14 6 26 12t23 11v220q-28 9 -52.5 14.5t-48.5 5.5q-32 0 -54.5 -10t-33.5 -33q-8 -19 -11.5 -44.5t-3.5 -61.5z
" />
    <glyph glyph-name="h" unicode="h" horiz-adv-x="602" 
d="M65 0v754h146v-250q14 5 33.5 12t41 13.5t44.5 11t42 4.5q75 0 118 -44q25 -26 36.5 -65.5t11.5 -119.5v-316h-146v309q0 26 -2 47.5t-13 34.5q-9 10 -22 11.5t-30 1.5q-11 0 -27 -3.5t-32.5 -9t-31 -11t-23.5 -8.5v-372h-146z" />
    <glyph glyph-name="i" unicode="i" horiz-adv-x="276" 
d="M65 0v528h146v-528h-146zM211 754v-154h-146v154h146z" />
    <glyph glyph-name="j" unicode="j" horiz-adv-x="287" 
d="M-55 -211v142q18 5 47 15.5t45 21.5q14 10 22.5 21t11.5 28q4 20 4.5 40t0.5 46v425h146v-451q0 -12 -0.5 -28t-2 -33t-4 -33t-6.5 -28q-9 -26 -26 -48.5t-46 -41.5q-40 -26 -94.5 -45.5t-97.5 -30.5zM222 754v-154h-146v154h146z" />
    <glyph glyph-name="k" unicode="k" horiz-adv-x="586" 
d="M211 754v-451l195 225h181l-210 -241l230 -287h-186l-210 265v-265h-146v754h146z" />
    <glyph glyph-name="l" unicode="l" horiz-adv-x="276" 
d="M65 0v754h146v-754h-146z" />
    <glyph glyph-name="m" unicode="m" horiz-adv-x="885" 
d="M211 528v-30l27 12t40 15.5t45.5 13.5t42.5 6q32 0 55 -8.5t39 -21.5q9 -8 14.5 -14t10.5 -14l36 18t42.5 19t46.5 15t47 6q37 0 66 -9.5t51 -32.5q25 -25 36 -66t11 -121v-316h-146v309q0 26 -1.5 48t-11.5 34q-8 10 -20 11.5t-25 1.5q-11 0 -25.5 -4t-29 -9.5
t-27 -11.5t-19.5 -10v-369h-146v309q0 26 -1 47.5t-9 32.5t-19 13t-25 2q-10 0 -24.5 -3.5t-29 -9t-28 -11t-23.5 -10.5v-370h-146v528h146z" />
    <glyph glyph-name="n" unicode="n" horiz-adv-x="604" 
d="M65 0v528h146v-29q12 5 33 12.5t44 15t47 13t42 5.5q37 0 65.5 -9.5t50.5 -32.5q24 -25 35.5 -66t11.5 -121v-316h-146v309q0 26 -1.5 46.5t-12.5 34.5q-8 11 -21.5 12.5t-27.5 1.5q-13 0 -29.5 -4t-33.5 -9t-32 -11l-25 -10v-370h-146z" />
    <glyph glyph-name="o" unicode="o" horiz-adv-x="610" 
d="M89 449q32 47 82 71.5t134 24.5q78 0 129.5 -24.5t82.5 -67.5q26 -37 37 -86t11 -104q0 -56 -11.5 -103.5t-34.5 -79.5q-32 -45 -80.5 -71t-133.5 -26q-86 0 -133.5 24t-79.5 68q-22 30 -34.5 79t-12.5 109q0 55 11 104.5t33 81.5zM193 263q0 -65 20 -102
q14 -25 38 -34.5t54 -9.5q59 0 88 40q14 20 19 45.5t5 63.5q0 34 -5.5 61.5t-20.5 48.5q-25 35 -86 35q-31 0 -54 -9t-37 -33q-21 -38 -21 -106z" />
    <glyph glyph-name="p" unicode="p" horiz-adv-x="611" 
d="M65 528h144v-42q10 6 27 15.5t35 18.5q22 11 47 18t54 7q50 0 83.5 -19t58.5 -54q52 -73 52 -204q0 -63 -12 -115.5t-37 -87.5t-61 -58.5t-93 -23.5q-20 0 -42.5 4t-43.5 9.5t-38.5 11.5t-27.5 10v-210h-146v720zM211 152q22 -10 55 -22.5t59 -12.5q22 0 39.5 7t29.5 27
q13 21 18.5 47.5t5.5 65.5q0 38 -5 66.5t-19 50.5q-11 18 -26.5 24.5t-32.5 6.5q-12 0 -27 -4.5t-29 -12.5q-17 -9 -36.5 -20t-31.5 -19v-204z" />
    <glyph glyph-name="q" unicode="q" horiz-adv-x="611" 
d="M45 263q0 126 42 192q28 45 77 67.5t131 22.5q32 0 69.5 -7t72.5 -17t64 -19.5t45 -15.5v-678h-146v227q-8 -5 -21 -11t-30 -14q-23 -11 -51.5 -19t-66.5 -8q-51 0 -86 23.5t-58 58.5q-42 65 -42 198zM208 156q9 -21 25 -28t39 -7q24 0 42.5 6.5t36.5 15.5q17 8 29 14.5
t20 11.5v223q-16 5 -45 12.5t-58 7.5q-65 0 -86 -43q-9 -19 -13.5 -44t-4.5 -62q0 -40 3.5 -65t11.5 -42z" />
    <glyph glyph-name="r" unicode="r" horiz-adv-x="399" 
d="M65 528h146v-60q16 11 31.5 21.5t34.5 19.5q20 10 52 18.5t68 13.5v-147q-33 -5 -61 -12t-54 -18q-24 -10 -42 -19.5t-29 -17.5v-327h-146v528z" />
    <glyph glyph-name="s" unicode="s" horiz-adv-x="528" 
d="M41 378q0 36 11 68t37 55t66 33.5t104 10.5q24 0 54 -3.5t59 -8t54 -10t38 -8.5v-133q-15 4 -39.5 9.5t-52.5 11t-57 9.5t-53 4q-28 0 -41 -2.5t-21 -7.5t-10 -12t-2 -16q0 -20 18 -28q10 -5 21.5 -8t26.5 -7l91 -24q40 -11 64 -23.5t41 -29.5t27 -46t10 -61
q0 -39 -10.5 -66.5t-36.5 -50.5q-28 -25 -73.5 -38t-113.5 -13q-25 0 -55.5 3t-60 7t-54 8.5t-36.5 6.5v133q14 -3 38.5 -8t54.5 -9.5t63.5 -8t65.5 -3.5q20 0 34 1.5t23 7.5q14 9 14 29q0 19 -16 28q-8 5 -23 9t-38 10l-95 26q-35 10 -56 21t-37 29q-15 17 -24.5 44
t-9.5 61z" />
    <glyph glyph-name="t" unicode="t" horiz-adv-x="390" 
d="M65 668h146v-147h164v-134h-164v-154q0 -19 0.5 -34t3.5 -28q2 -11 9.5 -20.5t25.5 -14.5q20 -6 46 -8l52 -4v-131q-57 2 -107.5 7t-86.5 16q-33 11 -50.5 27t-25.5 37q-10 25 -11.5 56t-1.5 90v442z" />
    <glyph glyph-name="u" unicode="u" horiz-adv-x="602" 
d="M64 218v310h146v-303q0 -26 1.5 -48.5t12.5 -35.5q9 -11 25 -15t36 -4q33 0 60 4t46 9v393h146v-503q-21 -5 -51.5 -12.5t-66.5 -14t-75.5 -11t-78.5 -4.5q-57 0 -93.5 16.5t-58.5 39.5q-25 27 -37 68.5t-12 110.5z" />
    <glyph glyph-name="v" unicode="v" horiz-adv-x="555" 
d="M-4 528h160l124 -384l124 384h155l-184 -528h-197z" />
    <glyph glyph-name="w" unicode="w" horiz-adv-x="872" 
d="M4 528h147l103 -381l105 381h157l106 -381l102 381h144l-146 -528h-190l-97 353l-93 -353h-192z" />
    <glyph glyph-name="x" unicode="x" horiz-adv-x="590" 
d="M0 0l196 269l-189 259h173l115 -161l118 161h170l-189 -253l196 -275h-173l-122 176l-125 -176h-170z" />
    <glyph glyph-name="y" unicode="y" horiz-adv-x="588" 
d="M160 528l136 -347l136 347h156l-292 -720h-154l75 185l-217 535h160z" />
    <glyph glyph-name="z" unicode="z" horiz-adv-x="517" 
d="M26 0v125l255 269h-243v134h440v-124l-254 -270h267v-134h-465z" />
    <glyph glyph-name="braceleft" unicode="{" horiz-adv-x="426" 
d="M81 358q23 9 33 23.5t10 34.5v193q0 82 47 120q31 25 82 25h145v-130h-61q-35 0 -50 -15t-15 -49v-175q0 -69 -49 -92q-18 -8 -61 -13q52 -6 72 -19q38 -24 38 -85v-174q0 -34 15 -49t50 -15h61v-130h-145q-56 0 -91 33q-38 36 -38 113v190q0 23 -13.5 38.5t-45.5 24.5
q-11 3 -21.5 4t-24.5 2v134q13 1 30.5 3.5t31.5 7.5z" />
    <glyph glyph-name="bar" unicode="|" horiz-adv-x="271" 
d="M68 -192v946h135v-946h-135z" />
    <glyph glyph-name="braceright" unicode="}" horiz-adv-x="426" 
d="M28 -192v130h61q35 0 50 15t15 49v174q0 61 38 85q20 13 72 19q-43 5 -61 13q-49 25 -49 92v175q0 34 -15 49t-50 15h-61v130h145q51 0 82 -25q47 -38 47 -120v-193q0 -20 10 -35t33 -23q14 -5 31.5 -7.5t30.5 -3.5v-134q-14 -1 -24.5 -2t-21.5 -4q-32 -8 -45.5 -24
t-13.5 -39v-190q0 -77 -38 -113q-34 -33 -91 -33h-145z" />
    <glyph glyph-name="asciitilde" unicode="~" horiz-adv-x="850" 
d="M25 198q9 61 26 114.5t42 84.5q25 30 63.5 46.5t90.5 16.5q49 0 93 -18t88 -45l77 -48q27 -17 50 -27.5t43 -10.5q30 0 46 25q14 21 21 45t14 59h146q-8 -58 -23 -105.5t-36 -79.5q-27 -41 -69 -59t-95 -18q-54 0 -95 14t-89 44l-78 50q-26 17 -46.5 26.5t-39.5 9.5
q-33 0 -51 -27q-12 -18 -19 -40t-13 -57h-146z" />
    <glyph glyph-name="uni00A0" unicode="&#xa0;" horiz-adv-x="240" 
 />
    <glyph glyph-name="exclamdown" unicode="&#xa1;" horiz-adv-x="318" 
d="M78 322h146q0 -7 0.5 -31t1 -56.5t0.5 -70t0.5 -74t0.5 -67.5v-49v-166h-152v166v49t0.5 67.5t0.5 74t0.5 70t1 56t0.5 31.5zM70 562h162v-178h-162v178z" />
    <glyph glyph-name="cent" unicode="&#xa2;" horiz-adv-x="543" 
d="M106 445q23 36 53.5 56t74.5 29v108h126v-106q32 -5 64.5 -12t61.5 -15v-137q-36 9 -82 19t-82 10q-37 0 -60 -8.5t-34 -31.5q-10 -22 -12.5 -43.5t-2.5 -50.5t2.5 -50.5t12.5 -43.5q11 -25 36 -33t58 -8q41 0 86 8.5t78 16.5v-137q-25 -5 -58.5 -10.5t-67.5 -8.5v-110
h-126v111q-50 8 -78 28.5t-51 55.5q-19 29 -29.5 73.5t-10.5 107.5q0 57 10 103.5t31 78.5z" />
    <glyph glyph-name="sterling" unicode="&#xa3;" horiz-adv-x="638" 
d="M90 569q0 39 8.5 77t38.5 71q29 32 68 43t105 11q53 0 116.5 -11t115.5 -22v-139q-25 5 -54 11t-57.5 11t-55.5 8t-47 3q-24 0 -42.5 -5t-32.5 -20q-9 -11 -11 -24.5t-2 -23.5v-76h193v-132h-193v-208h343v-143h-493v569z" />
    <glyph glyph-name="currency" unicode="&#xa4;" horiz-adv-x="827" 
d="M220 671l75 -84q26 10 56 15.5t62 5.5q31 0 61 -6t56 -17l77 86h150l-139 -155q18 -27 26 -60.5t8 -78.5q0 -84 -34 -140l139 -154h-150l-74 82q-25 -10 -55 -16t-65 -6q-34 0 -64.5 5.5t-56.5 15.5l-72 -81h-150l137 153q-29 51 -29 138q0 92 30 142l-138 155h150z
M336 289q26 -21 78 -21q26 0 48 7t35 21q13 15 20.5 34.5t7.5 47.5q0 29 -8.5 47.5t-22.5 32.5q-28 26 -81 26q-21 0 -42.5 -5t-33.5 -16q-17 -14 -24.5 -33t-7.5 -54q0 -59 31 -87z" />
    <glyph glyph-name="yen" unicode="&#xa5;" horiz-adv-x="715" 
d="M10 754h173l179 -312l179 312h164l-158 -271h121v-132h-198l-37 -64v-287h-150v287l-37 64h-199v132h121z" />
    <glyph glyph-name="brokenbar" unicode="&#xa6;" horiz-adv-x="271" 
d="M68 336v418h135v-418h-135zM203 226v-418h-135v418h135z" />
    <glyph glyph-name="section" unicode="&#xa7;" horiz-adv-x="660" 
d="M62 331q0 46 31 92q11 16 26 34t25 29q-12 8 -21.5 16.5t-17.5 21.5q-9 14 -14.5 35.5t-5.5 47.5q0 82 58 124q29 21 71.5 30.5t114.5 9.5q28 0 59.5 -3t63.5 -7.5t62.5 -10t55.5 -10.5v-122q-22 5 -53 10.5t-65 10.5t-66.5 8.5t-57.5 3.5q-38 0 -56 -3.5t-26 -8.5
q-14 -9 -14 -32q0 -11 5 -18t16 -14q11 -6 31 -14.5t38 -16.5l112 -48q84 -36 118 -64q23 -18 34.5 -44t11.5 -52q0 -27 -9.5 -51.5t-25.5 -45.5q-12 -17 -25.5 -34t-24.5 -29q12 -9 22.5 -19.5t18.5 -23.5t12.5 -31t4.5 -43q0 -71 -56 -115q-30 -24 -80 -36.5t-116 -12.5
q-54 0 -115.5 8t-108.5 16v124q23 -4 53.5 -9t62 -9t62.5 -7t55 -3q58 0 81 14q15 10 15 30q0 19 -20 33q-12 8 -32.5 17.5t-41.5 18.5l-134 59q-32 14 -59 29.5t-43 31.5q-14 14 -23 34t-9 49zM224 315q10 -7 26.5 -14.5t33.5 -15.5l123 -53q19 20 31 38q7 10 13 21t6 25
t-6 23.5t-16 16.5q-9 7 -26 14.5t-56 24.5l-98 42q-10 -9 -18.5 -19t-15.5 -19q-18 -24 -18 -44q0 -16 4.5 -24t16.5 -16z" />
    <glyph glyph-name="dieresis" unicode="&#xa8;" 
d="M309 754h139v-154h-139v154zM191 754v-154h-139v154h139z" />
    <glyph glyph-name="copyright" unicode="&#xa9;" horiz-adv-x="918" 
d="M60 377q0 90 26.5 163t77.5 124.5t125 79t170 27.5t170 -27.5t125 -79t77.5 -124.5t26.5 -163t-26.5 -163t-77.5 -124.5t-125 -79t-170 -27.5t-170 27.5t-125 79t-77.5 124.5t-26.5 163zM459 75q149 0 226 79t77 223t-77 223t-226 79t-226 -79t-77 -223t77 -223t226 -79z
M296 531q22 33 59.5 53.5t111.5 20.5q20 0 43.5 -2t43.5 -6q21 -4 41.5 -8.5t32.5 -7.5v-94q-14 3 -39 8t-43 8q-17 3 -35.5 5t-34.5 2q-37 0 -60 -8.5t-36 -30.5q-10 -17 -13.5 -39t-3.5 -57q0 -32 4 -52t14 -37q12 -21 37.5 -29.5t63.5 -8.5q15 0 34.5 2.5t39.5 5.5t39 7
t33 7v-96q-32 -6 -77.5 -13t-85.5 -7q-39 0 -66.5 5.5t-47 15.5t-32.5 22.5t-22 26.5q-17 26 -27.5 60t-10.5 89q0 51 8.5 89.5t28.5 68.5z" />
    <glyph glyph-name="ordfeminine" unicode="&#xaa;" horiz-adv-x="510" 
d="M44 558q0 45 8 82.5t28 64.5q25 33 62 49.5t100 16.5q52 0 103.5 -12.5t108.5 -29.5v-363h-124v57l-35 -28q-22 -17 -45.5 -28.5t-57.5 -11.5q-40 0 -67 16t-45 42q-36 50 -36 145zM172 558q0 -17 1 -32t7 -27t16 -16t26 -4q19 0 35.5 9.5t35.5 23.5q12 9 21.5 16.5
t13.5 11.5v101q-25 8 -41.5 11t-36.5 3q-23 0 -40.5 -6.5t-25.5 -22.5t-10 -31t-2 -37z" />
    <glyph glyph-name="guillemotleft" unicode="&#xab;" horiz-adv-x="671" 
d="M494 470h170l-176 -206l176 -206h-170l-176 206zM33 264l176 206h170l-176 -206l176 -206h-170z" />
    <glyph glyph-name="logicalnot" unicode="&#xac;" horiz-adv-x="700" 
d="M499 160v236h-434v132h570v-368h-136z" />
    <glyph glyph-name="registered" unicode="&#xae;" horiz-adv-x="918" 
d="M60 377q0 90 26.5 163t77.5 124.5t125 79t170 27.5t170 -27.5t125 -79t77.5 -124.5t26.5 -163t-26.5 -163t-77.5 -124.5t-125 -79t-170 -27.5t-170 27.5t-125 79t-77.5 124.5t-26.5 163zM156 377q0 -144 77 -223t226 -79t226 79t77 223t-77 223t-226 79t-226 -79
t-77 -223zM276 595h217q42 0 73.5 -7.5t54.5 -25.5q22 -17 33 -42.5t11 -54.5q0 -31 -9 -52t-28 -45q-12 -15 -23.5 -27.5t-23.5 -25.5l93 -151h-116l-82 134h-98v-134h-102v431zM378 503v-113h146q5 6 10 11.5t9 10.5q18 22 18 46q0 27 -19 37q-10 5 -27 6.5t-42 1.5h-95z
" />
    <glyph glyph-name="macron" unicode="&#xaf;" 
d="M48 625v101h404v-101h-404z" />
    <glyph glyph-name="degree" unicode="&#xb0;" horiz-adv-x="479" 
d="M40 577q0 89 54 141.5t147 52.5q91 0 144.5 -52.5t53.5 -141.5q0 -88 -53.5 -137t-144.5 -49q-93 0 -147 49t-54 137zM160 581q0 -35 21.5 -55.5t58.5 -20.5q35 0 57 20t22 56t-22 56t-57 20q-37 0 -58.5 -20.5t-21.5 -55.5z" />
    <glyph glyph-name="plusminus" unicode="&#xb1;" horiz-adv-x="700" 
d="M279 443v224h142v-224h214v-132h-214v-162h-142v162h-214v132h214zM65 130h570v-130h-570v130z" />
    <glyph glyph-name="twosuperior" unicode="&#xb2;" horiz-adv-x="438" 
d="M43 551q38 27 79.5 57.5t66.5 52.5q29 25 41 40t12 29q0 18 -12 27t-52 9q-16 0 -35 -2.5t-36.5 -6t-32.5 -7t-24 -5.5v114q19 5 61 13t83 8q83 0 126 -32q22 -16 34.5 -42t12.5 -56q0 -35 -11 -58t-34 -49q-22 -24 -45.5 -45.5t-45.5 -39.5h161v-108h-349v101z" />
    <glyph glyph-name="threesuperior" unicode="&#xb3;" horiz-adv-x="450" 
d="M50 454v100q23 -5 58 -10.5t73 -5.5q49 0 64 9q16 9 16 30q0 17 -13 26q-10 7 -23.5 8t-34.5 1h-93v96h138l11 15q10 14 10 27q0 6 -2 12t-9 11q-8 5 -21 6.5t-33 1.5q-40 0 -80.5 -7.5t-57.5 -11.5v98q11 2 29 5.5t39 6.5t43 5.5t40 2.5q55 0 85 -7.5t51 -21.5
q20 -14 30 -35.5t10 -42.5q0 -34 -15 -60q-7 -11 -14.5 -22t-12.5 -17q8 -6 16 -14.5t15 -19.5q18 -28 18 -70q0 -55 -40 -91q-20 -18 -57.5 -29t-94.5 -11q-16 0 -37 1.5t-41 4t-38 5t-29 4.5z" />
    <glyph glyph-name="acute" unicode="&#xb4;" 
d="M111 600l141 154h162l-147 -154h-156z" />
    <glyph glyph-name="uni00B5" unicode="&#xb5;" horiz-adv-x="598" 
d="M65 528h146v-213q0 -29 0.5 -58t2.5 -52q1 -12 5.5 -26.5t14.5 -27t25.5 -21t38.5 -8.5q28 0 49.5 4t39.5 9v393h146v-503q-21 -6 -50 -13t-60.5 -13.5t-64 -11t-60.5 -4.5q-26 0 -50 6.5t-37 21.5v-203h-146v720z" />
    <glyph glyph-name="paragraph" unicode="&#xb6;" horiz-adv-x="759" 
d="M128 709q32 25 76.5 35t98.5 10h370v-946h-106v842h-114v-842h-106v464q-69 0 -125 6.5t-101 44.5q-39 33 -56.5 84.5t-17.5 108.5q0 63 19.5 111.5t61.5 81.5z" />
    <glyph glyph-name="periodcentered" unicode="&#xb7;" horiz-adv-x="300" 
d="M67 178v178h166v-178h-166z" />
    <glyph glyph-name="cedilla" unicode="&#xb8;" 
d="M129 -205l93 145h144l-92 -145h-145z" />
    <glyph glyph-name="onesuperior" unicode="&#xb9;" horiz-adv-x="330" 
d="M134 450v274l-113 -30v118l244 70v-432h-131z" />
    <glyph glyph-name="ordmasculine" unicode="&#xba;" horiz-adv-x="514" 
d="M82 701q28 34 69 52t106 18t105.5 -18t66.5 -48q23 -26 33 -63.5t10 -78.5q0 -94 -48 -147q-25 -28 -64 -44.5t-103 -16.5q-66 0 -103 15t-63 43q-21 22 -35 62t-14 88q0 41 10 77t30 61zM171 563q0 -22 3.5 -35.5t12.5 -27.5q11 -15 29 -20.5t41 -5.5q45 0 67 25
q11 14 15 29t4 37t-4 37t-16 28q-21 22 -66 22q-25 0 -42 -6t-28 -21q-10 -13 -13 -26.5t-3 -35.5z" />
    <glyph glyph-name="guillemotright" unicode="&#xbb;" horiz-adv-x="671" 
d="M292 58l176 206l-176 206h170l176 -206l-176 -206h-170zM7 470h170l176 -206l-176 -206h-170l176 206z" />
    <glyph glyph-name="onequarter" unicode="&#xbc;" horiz-adv-x="981" 
d="M731 419h155l-185 -248h91v64h125v-235h-125v62h-244v111zM141 0l428 754h153l-428 -754h-153zM134 335v274l-113 -30v118l244 70v-432h-131z" />
    <glyph glyph-name="onehalf" unicode="&#xbd;" horiz-adv-x="961" 
d="M566 101q38 27 79.5 57.5t66.5 52.5q29 25 41 40t12 29q0 18 -12 27t-52 9q-16 0 -35 -2.5t-36.5 -6t-32.5 -7t-24 -5.5v114q19 5 61 13t83 8q83 0 126 -32q22 -16 34.5 -42t12.5 -56q0 -35 -11 -58t-34 -49q-22 -24 -45.5 -45.5t-45.5 -39.5h161v-108h-349v101zM141 0
l428 754h153l-428 -754h-153zM134 335v274l-113 -30v118l244 70v-432h-131z" />
    <glyph glyph-name="threequarters" unicode="&#xbe;" horiz-adv-x="1101" 
d="M851 419h155l-185 -248h91v64h125v-235h-125v62h-244v111zM261 0l428 754h153l-428 -754h-153zM50 339v100q23 -5 58 -10.5t73 -5.5q49 0 64 9q16 9 16 30q0 17 -13 26q-10 7 -23.5 8t-34.5 1h-93v96h138l11 15q10 14 10 27q0 6 -2 12t-9 11q-8 5 -21 6.5t-33 1.5
q-40 0 -80.5 -7.5t-57.5 -11.5v98q11 2 29 5.5t39 6.5t43 5.5t40 2.5q55 0 85 -7.5t51 -21.5q20 -14 30 -35.5t10 -42.5q0 -34 -15 -60q-7 -11 -14.5 -22t-12.5 -17q8 -6 16 -14.5t15 -19.5q18 -28 18 -70q0 -55 -40 -91q-20 -18 -57.5 -29t-94.5 -11q-16 0 -37 1.5t-41 4
t-38 5t-29 4.5z" />
    <glyph glyph-name="questiondown" unicode="&#xbf;" horiz-adv-x="559" 
d="M111 159q21 26 44 51.5t49 52.5q17 17 24.5 32t12.5 27h162q-16 -54 -55 -103q-21 -26 -51 -58.5t-54 -57.5q-20 -20 -35.5 -46t-15.5 -55q0 -16 5 -30.5t19 -25.5q15 -12 39 -15.5t59 -3.5q48 0 94.5 8t90.5 17v-133q-35 -8 -89.5 -18t-123.5 -10q-57 0 -99 11.5
t-76 37.5q-32 24 -50.5 63.5t-18.5 79.5q0 26 3.5 47.5t11.5 42t21 41.5t33 45zM241 562h162v-178h-162v178z" />
    <glyph glyph-name="Agrave" unicode="&#xc0;" horiz-adv-x="747" 
d="M1 0l274 754h196l275 -754h-163l-50 137h-323l-49 -137h-160zM256 278h229l-115 325zM318 796l-145 154h162l139 -154h-156z" />
    <glyph glyph-name="Aacute" unicode="&#xc1;" horiz-adv-x="747" 
d="M1 0l274 754h196l275 -754h-163l-50 137h-323l-49 -137h-160zM256 278h229l-115 325zM280 796l141 154h162l-147 -154h-156z" />
    <glyph glyph-name="Acircumflex" unicode="&#xc2;" horiz-adv-x="747" 
d="M1 0l274 754h196l275 -754h-163l-50 137h-323l-49 -137h-160zM256 278h229l-115 325zM288 950h168l147 -154h-151l-81 81l-81 -81h-149z" />
    <glyph glyph-name="Atilde" unicode="&#xc3;" horiz-adv-x="747" 
d="M1 0l274 754h196l275 -754h-163l-50 137h-323l-49 -137h-160zM256 278h229l-115 325zM150 803q14 43 28.5 72.5t32 47.5t39 26t49.5 8q26 0 51.5 -10.5t57.5 -27.5q28 -15 39.5 -20t25.5 -5q12 0 21.5 9t21.5 35h105q-12 -30 -25.5 -56t-30.5 -45.5t-39 -31t-51 -11.5
q-50 0 -106 34q-26 16 -40.5 22t-27.5 6q-17 0 -25 -10.5t-21 -42.5h-105z" />
    <glyph glyph-name="Adieresis" unicode="&#xc4;" horiz-adv-x="747" 
d="M275 754h196l275 -754h-163l-50 137h-323l-49 -137h-160zM256 278h229l-115 325zM589 950v-154h-139v154h139zM158 796v154h139v-154h-139z" />
    <glyph glyph-name="Aring" unicode="&#xc5;" horiz-adv-x="747" 
d="M259 711q-10 10 -18 26q-7 14 -10 30.5t-3 33.5q0 26 7 49t27 43t48.5 29.5t62.5 9.5t62.5 -9.5t48.5 -29.5t27 -43t7 -49q0 -17 -3 -34.5t-11 -31.5q-7 -14 -17 -24l259 -711h-163l-50 137h-323l-49 -137h-160zM256 278h229l-115 325zM315 801q0 -24 14 -37
q15 -14 44 -14t44 14q14 13 14 37q0 11 -3 21t-12 18q-14 13 -43 13t-43 -13q-9 -8 -12 -18t-3 -21z" />
    <glyph glyph-name="AE" unicode="&#xc6;" horiz-adv-x="1175" 
d="M-10 0l509 754h625v-141h-384v-159h362v-141h-362v-172h401v-141h-551v137h-320l-92 -137h-188zM365 278h225v336z" />
    <glyph glyph-name="Ccedilla" unicode="&#xc7;" horiz-adv-x="657" 
d="M57 366q0 88 11.5 155.5t43.5 118.5q15 25 36.5 48.5t53 42t74 29.5t99.5 11q32 0 66 -4.5t66 -10.5q35 -7 61 -12.5t51 -11.5v-144q-26 6 -59.5 13.5t-65.5 13.5q-28 5 -52.5 8t-48.5 3q-65 0 -101 -18.5t-56 -57.5q-16 -32 -21.5 -76.5t-5.5 -104.5q0 -55 5.5 -100.5
t23.5 -77.5q20 -35 58.5 -49t101.5 -14q24 0 53 3.5t59 8.5t58 10.5t51 10.5v-145q-51 -11 -116 -22t-131 -11q-60 0 -103 11.5t-73.5 29.5t-50.5 40.5t-35 44.5q-28 43 -40.5 107.5t-12.5 149.5zM216 -205l93 145h144l-92 -145h-145z" />
    <glyph glyph-name="Egrave" unicode="&#xc8;" horiz-adv-x="657" 
d="M606 754v-141h-384v-159h362v-141h-362v-172h401v-141h-551v754h534zM282 796l-145 154h162l139 -154h-156z" />
    <glyph glyph-name="Eacute" unicode="&#xc9;" horiz-adv-x="657" 
d="M606 754v-141h-384v-159h362v-141h-362v-172h401v-141h-551v754h534zM217 796l141 154h162l-147 -154h-156z" />
    <glyph glyph-name="Ecircumflex" unicode="&#xca;" horiz-adv-x="657" 
d="M606 754v-141h-384v-159h362v-141h-362v-172h401v-141h-551v754h534zM247 950h168l147 -154h-151l-81 81l-81 -81h-149z" />
    <glyph glyph-name="Edieresis" unicode="&#xcb;" horiz-adv-x="657" 
d="M72 754h534v-141h-384v-159h362v-141h-362v-172h401v-141h-551v754zM543 950v-154h-139v154h139zM133 950h139v-154h-139v154z" />
    <glyph glyph-name="Igrave" unicode="&#xcc;" horiz-adv-x="294" 
d="M72 0v754h150v-754h-150zM77 796l-145 154h162l139 -154h-156z" />
    <glyph glyph-name="Iacute" unicode="&#xcd;" horiz-adv-x="294" 
d="M72 0v754h150v-754h-150zM61 796l141 154h162l-147 -154h-156z" />
    <glyph glyph-name="Icircumflex" unicode="&#xce;" horiz-adv-x="294" 
d="M72 0v754h150v-754h-150zM65 950h168l147 -154h-151l-81 81l-81 -81h-149z" />
    <glyph glyph-name="Idieresis" unicode="&#xcf;" horiz-adv-x="294" 
d="M72 754h150v-754h-150v754zM194 796v154h139v-154h-139zM100 950v-154h-139v154h139z" />
    <glyph glyph-name="Eth" unicode="&#xd0;" horiz-adv-x="755" 
d="M20 315v139h72v300h272q86 0 147 -17.5t105 -67.5q21 -23 36 -50t25.5 -61.5t15.5 -78t5 -99.5q0 -116 -26 -188t-79 -120q-45 -41 -101.5 -56.5t-135.5 -15.5h-264v315h-72zM428 454v-139h-186v-174h118q55 0 90 14t60 51q22 32 29 76t7 98q0 59 -7 106.5t-36 81.5
q-25 29 -59 37t-79 8h-123v-159h186z" />
    <glyph glyph-name="Ntilde" unicode="&#xd1;" horiz-adv-x="755" 
d="M234 754l301 -504v504h148v-754h-162l-301 504v-504h-148v754h162zM150 803q14 43 28.5 72.5t32 47.5t39 26t49.5 8q26 0 51.5 -10.5t57.5 -27.5q28 -15 39.5 -20t25.5 -5q12 0 21.5 9t21.5 35h105q-12 -30 -25.5 -56t-30.5 -45.5t-39 -31t-51 -11.5q-50 0 -106 34
q-26 16 -40.5 22t-27.5 6q-17 0 -25 -10.5t-21 -42.5h-105z" />
    <glyph glyph-name="Ograve" unicode="&#xd2;" horiz-adv-x="780" 
d="M112 643q19 30 42 54t55.5 40.5t76.5 25t104 8.5q104 0 163.5 -28.5t100.5 -85.5q39 -54 54 -126.5t15 -155.5q0 -96 -18 -165t-52 -115q-21 -28 -44.5 -49t-54.5 -35t-71 -21t-93 -7q-60 0 -102.5 7.5t-74 22.5t-54 36.5t-41.5 49.5q-61 91 -61 276q0 80 11.5 148.5
t43.5 119.5zM209 375q0 -59 7 -109t27 -82q23 -37 61 -48t86 -11q43 0 76.5 10t58.5 41q28 35 37 87t9 112q0 58 -7 105.5t-29 82.5q-23 38 -60 52t-85 14q-47 0 -85 -11t-62 -50q-20 -33 -27 -83.5t-7 -109.5zM344 796l-145 154h162l139 -154h-156z" />
    <glyph glyph-name="Oacute" unicode="&#xd3;" horiz-adv-x="780" 
d="M112 643q19 30 42 54t55.5 40.5t76.5 25t104 8.5q104 0 163.5 -28.5t100.5 -85.5q39 -54 54 -126.5t15 -155.5q0 -96 -18 -165t-52 -115q-21 -28 -44.5 -49t-54.5 -35t-71 -21t-93 -7q-60 0 -102.5 7.5t-74 22.5t-54 36.5t-41.5 49.5q-61 91 -61 276q0 80 11.5 148.5
t43.5 119.5zM209 375q0 -59 7 -109t27 -82q23 -37 61 -48t86 -11q43 0 76.5 10t58.5 41q28 35 37 87t9 112q0 58 -7 105.5t-29 82.5q-23 38 -60 52t-85 14q-47 0 -85 -11t-62 -50q-20 -33 -27 -83.5t-7 -109.5zM274 796l141 154h162l-147 -154h-156z" />
    <glyph glyph-name="Ocircumflex" unicode="&#xd4;" horiz-adv-x="780" 
d="M112 643q19 30 42 54t55.5 40.5t76.5 25t104 8.5q104 0 163.5 -28.5t100.5 -85.5q39 -54 54 -126.5t15 -155.5q0 -96 -18 -165t-52 -115q-21 -28 -44.5 -49t-54.5 -35t-71 -21t-93 -7q-60 0 -102.5 7.5t-74 22.5t-54 36.5t-41.5 49.5q-61 91 -61 276q0 80 11.5 148.5
t43.5 119.5zM209 375q0 -59 7 -109t27 -82q23 -37 61 -48t86 -11q43 0 76.5 10t58.5 41q28 35 37 87t9 112q0 58 -7 105.5t-29 82.5q-23 38 -60 52t-85 14q-47 0 -85 -11t-62 -50q-20 -33 -27 -83.5t-7 -109.5zM306 950h168l147 -154h-151l-81 81l-81 -81h-149z" />
    <glyph glyph-name="Otilde" unicode="&#xd5;" horiz-adv-x="780" 
d="M112 643q19 30 42 54t55.5 40.5t76.5 25t104 8.5q104 0 163.5 -28.5t100.5 -85.5q39 -54 54 -126.5t15 -155.5q0 -96 -18 -165t-52 -115q-21 -28 -44.5 -49t-54.5 -35t-71 -21t-93 -7q-60 0 -102.5 7.5t-74 22.5t-54 36.5t-41.5 49.5q-61 91 -61 276q0 80 11.5 148.5
t43.5 119.5zM209 375q0 -59 7 -109t27 -82q23 -37 61 -48t86 -11q43 0 76.5 10t58.5 41q28 35 37 87t9 112q0 58 -7 105.5t-29 82.5q-23 38 -60 52t-85 14q-47 0 -85 -11t-62 -50q-20 -33 -27 -83.5t-7 -109.5zM159 803q14 43 28.5 72.5t32 47.5t39 26t49.5 8
q26 0 51.5 -10.5t57.5 -27.5q28 -15 39.5 -20t25.5 -5q12 0 21.5 9t21.5 35h105q-12 -30 -25.5 -56t-30.5 -45.5t-39 -31t-51 -11.5q-50 0 -106 34q-26 16 -40.5 22t-27.5 6q-17 0 -25 -10.5t-21 -42.5h-105z" />
    <glyph glyph-name="Odieresis" unicode="&#xd6;" horiz-adv-x="780" 
d="M57 375q0 80 11.5 148.5t43.5 119.5q19 30 42 54t55.5 40.5t76.5 25t104 8.5q104 0 163.5 -28.5t100.5 -85.5q39 -54 54 -126.5t15 -155.5q0 -96 -18 -165t-52 -115q-21 -28 -44.5 -49t-54.5 -35t-71 -21t-93 -7q-60 0 -102.5 7.5t-74 22.5t-54 36.5t-41.5 49.5
q-61 91 -61 276zM243 184q23 -37 61 -48t86 -11q43 0 76.5 10t58.5 41q28 35 37 87t9 112q0 58 -7 105.5t-29 82.5q-23 38 -60 52t-85 14q-47 0 -85 -11t-62 -50q-20 -33 -27 -83.5t-7 -109.5t7 -109t27 -82zM610 950v-154h-139v154h139zM170 796v154h139v-154h-139z" />
    <glyph glyph-name="multiply" unicode="&#xd7;" horiz-adv-x="700" 
d="M49 123l212 254l-212 253h169l132 -159l132 159h169l-212 -253l212 -254h-169l-132 160l-132 -160h-169z" />
    <glyph glyph-name="Oslash" unicode="&#xd8;" horiz-adv-x="780" 
d="M112 643q19 30 42 54t55.5 40.5t76.5 25t104 8.5q104 0 163.5 -28.5t100.5 -85.5q39 -54 54 -126.5t15 -155.5q0 -96 -18 -165t-52 -115q-21 -28 -44.5 -49t-54.5 -35t-71 -21t-93 -7q-60 0 -102.5 7.5t-74 22.5t-54 36.5t-41.5 49.5q-61 91 -61 276q0 80 11.5 148.5
t43.5 119.5zM390 122q43 0 78.5 10t60.5 41q28 35 37 88.5t9 113.5q0 48 -4.5 88t-17.5 72l-258 -399q20 -8 44.5 -11t50.5 -3zM205 375q0 -44 3.5 -83t13.5 -70l256 395q-19 8 -41.5 11.5t-46.5 3.5q-47 0 -87 -11t-64 -50q-20 -33 -27 -85t-7 -111z" />
    <glyph glyph-name="Ugrave" unicode="&#xd9;" horiz-adv-x="739" 
d="M220 754v-463q0 -51 5.5 -84t28.5 -54q19 -17 50 -22.5t66 -5.5t65 5t49 22q23 20 29 53t6 86v463h150v-460q0 -85 -13.5 -141t-53.5 -97q-42 -42 -98 -57.5t-134 -15.5q-85 0 -140 15.5t-96 59.5q-39 42 -51.5 100t-12.5 136v460h150zM332 796l-145 154h162l139 -154
h-156z" />
    <glyph glyph-name="Uacute" unicode="&#xda;" horiz-adv-x="739" 
d="M220 754v-463q0 -51 5.5 -84t28.5 -54q19 -17 50 -22.5t66 -5.5t65 5t49 22q23 20 29 53t6 86v463h150v-460q0 -85 -13.5 -141t-53.5 -97q-42 -42 -98 -57.5t-134 -15.5q-85 0 -140 15.5t-96 59.5q-39 42 -51.5 100t-12.5 136v460h150zM256 796l141 154h162l-147 -154
h-156z" />
    <glyph glyph-name="Ucircumflex" unicode="&#xdb;" horiz-adv-x="739" 
d="M220 754v-463q0 -51 5.5 -84t28.5 -54q19 -17 50 -22.5t66 -5.5t65 5t49 22q23 20 29 53t6 86v463h150v-460q0 -85 -13.5 -141t-53.5 -97q-42 -42 -98 -57.5t-134 -15.5q-85 0 -140 15.5t-96 59.5q-39 42 -51.5 100t-12.5 136v460h150zM284 950h168l147 -154h-151l-81 81
l-81 -81h-149z" />
    <glyph glyph-name="Udieresis" unicode="&#xdc;" horiz-adv-x="739" 
d="M220 754v-463q0 -51 5.5 -84t28.5 -54q19 -17 50 -22.5t66 -5.5t65 5t49 22q23 20 29 53t6 86v463h150v-460q0 -85 -13.5 -141t-53.5 -97q-42 -42 -98 -57.5t-134 -15.5q-85 0 -140 15.5t-96 59.5q-39 42 -51.5 100t-12.5 136v460h150zM446 950h139v-154h-139v154z
M155 950h139v-154h-139v154z" />
    <glyph glyph-name="Yacute" unicode="&#xdd;" horiz-adv-x="665" 
d="M158 754l179 -312l179 312h164l-272 -467v-287h-150v287l-273 467h173zM216 796l141 154h162l-147 -154h-156z" />
    <glyph glyph-name="Thorn" unicode="&#xde;" horiz-adv-x="672" 
d="M72 0v754h150v-127h174q55 0 99 -13t78 -46q33 -32 49 -79t16 -102q0 -56 -15.5 -102.5t-53.5 -80.5q-35 -32 -81.5 -44.5t-103.5 -14.5q-33 -2 -70.5 -2h-91.5v-143h-150zM222 284h80t70 2q32 2 53.5 7t35.5 18q15 14 20 33.5t5 42.5q0 24 -5 43t-20 33q-14 13 -37.5 18
t-58.5 5h-143v-202z" />
    <glyph glyph-name="germandbls" unicode="&#xdf;" horiz-adv-x="660" 
d="M65 511q0 21 1 47t8 52t22 50.5t37 42.5q33 28 77 44.5t107 16.5q54 0 93.5 -11t65.5 -28q35 -24 54.5 -60.5t19.5 -81.5q0 -39 -9.5 -63t-25.5 -47q-13 -19 -27.5 -36.5t-23.5 -28.5l66 -59q21 -19 38.5 -37.5t31.5 -40.5q13 -21 20 -44.5t7 -53.5q0 -35 -12 -67.5
t-36 -56.5q-58 -58 -170 -58q-37 0 -62.5 2t-54.5 6v131q26 -5 47 -7.5t50 -2.5q49 0 69 15q11 8 15 18.5t4 21.5q0 22 -12 38q-7 9 -20 21.5t-33 29.5l-138 124q34 35 62.5 67t44.5 53q11 15 17 27.5t6 32.5q0 30 -20 47q-11 9 -26.5 13.5t-40.5 4.5q-29 0 -50 -8.5
t-37 -29.5q-9 -12 -12 -24t-5 -23t-2 -21v-22v-505h-146v511z" />
    <glyph glyph-name="agrave" unicode="&#xe0;" horiz-adv-x="609" 
d="M87 454q26 44 73.5 67.5t128.5 23.5q63 0 124.5 -17t130.5 -41v-487h-144v68q-9 -8 -22 -17.5t-29 -20.5q-29 -20 -57 -33.5t-70 -13.5q-48 0 -81.5 21t-55.5 57t-31 83.5t-9 107.5t9 111t33 91zM206 153q7 -18 18.5 -25t31.5 -7q22 0 47.5 16t44.5 30q29 21 50 40v187
q-17 6 -44 13.5t-54 7.5q-32 0 -54 -9.5t-34 -33.5q-11 -23 -15 -50.5t-4 -69.5q0 -26 3 -53t10 -46zM266 600l-145 154h162l139 -154h-156z" />
    <glyph glyph-name="aacute" unicode="&#xe1;" horiz-adv-x="609" 
d="M87 454q26 44 73.5 67.5t128.5 23.5q63 0 124.5 -17t130.5 -41v-487h-144v68q-9 -8 -22 -17.5t-29 -20.5q-29 -20 -57 -33.5t-70 -13.5q-48 0 -81.5 21t-55.5 57t-31 83.5t-9 107.5t9 111t33 91zM206 153q7 -18 18.5 -25t31.5 -7q22 0 47.5 16t44.5 30q29 21 50 40v187
q-17 6 -44 13.5t-54 7.5q-32 0 -54 -9.5t-34 -33.5q-11 -23 -15 -50.5t-4 -69.5q0 -26 3 -53t10 -46zM199 600l141 154h162l-147 -154h-156z" />
    <glyph glyph-name="acircumflex" unicode="&#xe2;" horiz-adv-x="609" 
d="M87 454q26 44 73.5 67.5t128.5 23.5q63 0 124.5 -17t130.5 -41v-487h-144v68q-9 -8 -22 -17.5t-29 -20.5q-29 -20 -57 -33.5t-70 -13.5q-48 0 -81.5 21t-55.5 57t-31 83.5t-9 107.5t9 111t33 91zM206 153q7 -18 18.5 -25t31.5 -7q22 0 47.5 16t44.5 30q29 21 50 40v187
q-17 6 -44 13.5t-54 7.5q-32 0 -54 -9.5t-34 -33.5q-11 -23 -15 -50.5t-4 -69.5q0 -26 3 -53t10 -46zM223 754h168l147 -154h-151l-81 81l-81 -81h-149z" />
    <glyph glyph-name="atilde" unicode="&#xe3;" horiz-adv-x="609" 
d="M87 454q26 44 73.5 67.5t128.5 23.5q63 0 124.5 -17t130.5 -41v-487h-144v68q-9 -8 -22 -17.5t-29 -20.5q-29 -20 -57 -33.5t-70 -13.5q-48 0 -81.5 21t-55.5 57t-31 83.5t-9 107.5t9 111t33 91zM206 153q7 -18 18.5 -25t31.5 -7q22 0 47.5 16t44.5 30q29 21 50 40v187
q-17 6 -44 13.5t-54 7.5q-32 0 -54 -9.5t-34 -33.5q-11 -23 -15 -50.5t-4 -69.5q0 -26 3 -53t10 -46zM84 608q14 43 28.5 72.5t32 47.5t39 26t49.5 8q26 0 51.5 -10.5t57.5 -27.5q28 -15 39.5 -20t25.5 -5q12 0 21.5 9t21.5 35h105q-12 -30 -25.5 -56t-30.5 -45.5t-39 -31
t-51 -11.5q-50 0 -106 34q-26 16 -40.5 22t-27.5 6q-17 0 -25 -10.5t-21 -42.5h-105z" />
    <glyph glyph-name="adieresis" unicode="&#xe4;" horiz-adv-x="609" 
d="M45 252q0 60 9 111t33 91q26 44 73.5 67.5t128.5 23.5q63 0 124.5 -17t130.5 -41v-487h-144v68q-9 -8 -22 -17.5t-29 -20.5q-29 -20 -57 -33.5t-70 -13.5q-48 0 -81.5 21t-55.5 57t-31 83.5t-9 107.5zM193 252q0 -26 3 -53t10 -46q7 -18 18.5 -25t31.5 -7q22 0 47.5 16
t44.5 30q29 21 50 40v187q-17 6 -44 13.5t-54 7.5q-32 0 -54 -9.5t-34 -33.5q-11 -23 -15 -50.5t-4 -69.5zM352 754h139v-154h-139v154zM120 600v154h139v-154h-139z" />
    <glyph glyph-name="aring" unicode="&#xe5;" horiz-adv-x="609" 
d="M87 454q26 44 73.5 67.5t128.5 23.5q63 0 124.5 -17t130.5 -41v-487h-144v68q-9 -8 -22 -17.5t-29 -20.5q-29 -20 -57 -33.5t-70 -13.5q-48 0 -81.5 21t-55.5 57t-31 83.5t-9 107.5t9 111t33 91zM206 153q7 -18 18.5 -25t31.5 -7q22 0 47.5 16t44.5 30q29 21 50 40v187
q-17 6 -44 13.5t-54 7.5q-32 0 -54 -9.5t-34 -33.5q-11 -23 -15 -50.5t-4 -69.5q0 -26 3 -53t10 -46zM194 795q20 20 48.5 29.5t62.5 9.5t62.5 -9.5t48.5 -29.5t27 -43t7 -49q0 -29 -10.5 -56t-31.5 -44q-37 -30 -103 -30q-65 0 -103 30q-21 17 -31.5 44t-10.5 56q0 26 7 49
t27 43zM247 703q0 -24 14 -37q15 -14 44 -14t44 14q14 13 14 37q0 11 -3 21t-12 18q-14 13 -43 13t-43 -13q-9 -8 -12 -18t-3 -21z" />
    <glyph glyph-name="ae" unicode="&#xe6;" horiz-adv-x="918" 
d="M99 282q20 14 55.5 20t78.5 6h153v35q0 17 -3.5 31t-14.5 23q-16 13 -37 16.5t-49 3.5q-24 0 -54 -3t-60 -7.5t-56 -9.5t-42 -9v124q20 5 48 10.5t58.5 10.5t61.5 8.5t58 3.5q60 0 105 -12.5t68 -40.5q22 24 61 38.5t103 14.5q75 0 124 -19t77 -56q15 -20 23.5 -42
t12 -43t4.5 -40t1 -33q0 -22 -3 -55.5t-7 -52.5h-339q0 -14 2.5 -26.5t12.5 -27.5q16 -24 44.5 -32.5t75.5 -8.5q53 0 101 6t87 12v-124q-37 -6 -90.5 -13t-112.5 -7q-90 0 -138 22t-73 57q-10 -7 -23.5 -15.5t-27.5 -16.5t-26.5 -14.5t-20.5 -10.5q-20 -9 -48.5 -15.5
t-66.5 -6.5q-40 0 -75 8.5t-59 28.5q-25 21 -37 53t-12 70q0 48 13 82t47 57zM734 308q2 12 2 27q0 13 -2.5 28t-12.5 29q-13 19 -35.5 27t-52.5 8q-64 0 -89 -41q-10 -16 -14 -37t-4 -41h208zM183 150q0 -11 1.5 -19.5t9.5 -16.5q15 -15 57 -15q26 0 46.5 7t37.5 18
q28 17 51 34v46h-122q-26 0 -43.5 -3.5t-27.5 -14.5q-7 -8 -8.5 -16.5t-1.5 -19.5z" />
    <glyph glyph-name="ccedilla" unicode="&#xe7;" horiz-adv-x="496" 
d="M47 263q0 121 45 190q28 42 72 67t124 25q45 0 93.5 -10.5t86.5 -20.5v-138q-16 5 -36.5 10t-42 10t-43 8t-39.5 3q-32 0 -57 -8.5t-37 -33.5q-11 -23 -14.5 -47.5t-3.5 -54.5q0 -29 3 -53t13 -46q11 -24 34.5 -34t61.5 -10q42 0 84 8.5t77 16.5v-138q-34 -7 -84.5 -15.5
t-94.5 -8.5q-42 0 -73 6t-54 17.5t-40 28t-31 37.5q-21 32 -32.5 80t-11.5 111zM121 -205l93 145h144l-92 -145h-145z" />
    <glyph glyph-name="egrave" unicode="&#xe8;" horiz-adv-x="580" 
d="M45 259q0 48 7 99.5t33 93.5q57 93 210 93q75 0 124 -19t77 -56q15 -20 23.5 -42t12 -43t4.5 -40t1 -33q0 -22 -3 -55.5t-7 -52.5h-339q0 -14 3 -27t13 -27q17 -23 46 -32t73 -9q52 0 100 6t88 12v-124q-38 -6 -91.5 -13t-111.5 -7q-45 0 -78.5 5.5t-59.5 16.5t-45 27
t-35 38q-26 35 -35.5 79.5t-9.5 109.5zM188 308h208q2 12 2 27q0 13 -2.5 28t-12.5 29q-13 19 -35.5 27t-52.5 8q-64 0 -89 -41q-10 -16 -14 -37t-4 -41zM247 600l-145 154h162l139 -154h-156z" />
    <glyph glyph-name="eacute" unicode="&#xe9;" horiz-adv-x="580" 
d="M45 259q0 48 7 99.5t33 93.5q57 93 210 93q75 0 124 -19t77 -56q15 -20 23.5 -42t12 -43t4.5 -40t1 -33q0 -22 -3 -55.5t-7 -52.5h-339q0 -14 3 -27t13 -27q17 -23 46 -32t73 -9q52 0 100 6t88 12v-124q-38 -6 -91.5 -13t-111.5 -7q-45 0 -78.5 5.5t-59.5 16.5t-45 27
t-35 38q-26 35 -35.5 79.5t-9.5 109.5zM188 308h208q2 12 2 27q0 13 -2.5 28t-12.5 29q-13 19 -35.5 27t-52.5 8q-64 0 -89 -41q-10 -16 -14 -37t-4 -41zM184 600l141 154h162l-147 -154h-156z" />
    <glyph glyph-name="ecircumflex" unicode="&#xea;" horiz-adv-x="580" 
d="M45 259q0 48 7 99.5t33 93.5q57 93 210 93q75 0 124 -19t77 -56q15 -20 23.5 -42t12 -43t4.5 -40t1 -33q0 -22 -3 -55.5t-7 -52.5h-339q0 -14 3 -27t13 -27q17 -23 46 -32t73 -9q52 0 100 6t88 12v-124q-38 -6 -91.5 -13t-111.5 -7q-45 0 -78.5 5.5t-59.5 16.5t-45 27
t-35 38q-26 35 -35.5 79.5t-9.5 109.5zM188 308h208q2 12 2 27q0 13 -2.5 28t-12.5 29q-13 19 -35.5 27t-52.5 8q-64 0 -89 -41q-10 -16 -14 -37t-4 -41zM209 754h168l147 -154h-151l-81 81l-81 -81h-149z" />
    <glyph glyph-name="edieresis" unicode="&#xeb;" horiz-adv-x="580" 
d="M45 259q0 48 7 99.5t33 93.5q57 93 210 93q75 0 124 -19t77 -56q15 -20 23.5 -42t12 -43t4.5 -40t1 -33q0 -22 -3 -55.5t-7 -52.5h-339q0 -14 3 -27t13 -27q17 -23 46 -32t73 -9q52 0 100 6t88 12v-124q-38 -6 -91.5 -13t-111.5 -7q-45 0 -78.5 5.5t-59.5 16.5t-45 27
t-35 38q-26 35 -35.5 79.5t-9.5 109.5zM188 308h208q2 12 2 27q0 13 -2.5 28t-12.5 29q-13 19 -35.5 27t-52.5 8q-64 0 -89 -41q-10 -16 -14 -37t-4 -41zM343 754h139v-154h-139v154zM245 754v-154h-139v154h139z" />
    <glyph glyph-name="igrave" unicode="&#xec;" horiz-adv-x="276" 
d="M66 600l-145 154h162l139 -154h-156zM65 0v528h146v-528h-146z" />
    <glyph glyph-name="iacute" unicode="&#xed;" horiz-adv-x="276" 
d="M54 600l141 154h162l-147 -154h-156zM65 0v528h146v-528h-146z" />
    <glyph glyph-name="icircumflex" unicode="&#xee;" horiz-adv-x="276" 
d="M55 754h168l147 -154h-151l-81 81l-81 -81h-149zM65 0v528h146v-528h-146z" />
    <glyph glyph-name="idieresis" unicode="&#xef;" horiz-adv-x="276" 
d="M65 528h146v-528h-146v528zM175 600v154h139v-154h-139zM101 754v-154h-139v154h139z" />
    <glyph glyph-name="eth" unicode="&#xf0;" horiz-adv-x="623" 
d="M45 247q0 97 40 161q25 40 68.5 62.5t116.5 22.5q29 0 62 -5t58 -12q-5 19 -16 46t-34 52l-173 -67v98l91 35q-20 8 -45 13t-46 7v115q71 -6 127.5 -23.5t107.5 -53.5l145 56v-99l-73 -28q30 -39 48.5 -85.5t28.5 -96t13.5 -98t3.5 -92.5q0 -54 -12.5 -99t-32.5 -75
q-32 -46 -81.5 -72t-135.5 -26q-87 0 -137.5 24t-79.5 68q-20 30 -32 71t-12 101zM211 159q14 -25 38.5 -33.5t56.5 -8.5q30 0 52.5 7.5t37.5 29.5q14 20 19 43t5 55q0 31 -2 51t-6 39q-7 3 -20.5 6.5t-30 7.5t-34 6.5t-31.5 2.5q-34 0 -55 -8t-32 -30q-11 -20 -13.5 -39
t-2.5 -41q0 -29 3.5 -48.5t14.5 -39.5z" />
    <glyph glyph-name="ntilde" unicode="&#xf1;" horiz-adv-x="604" 
d="M65 0v528h146v-29q12 5 33 12.5t44 15t47 13t42 5.5q37 0 65.5 -9.5t50.5 -32.5q24 -25 35.5 -66t11.5 -121v-316h-146v309q0 26 -1.5 46.5t-12.5 34.5q-8 11 -21.5 12.5t-27.5 1.5q-13 0 -29.5 -4t-33.5 -9t-32 -11l-25 -10v-370h-146zM74 608q14 43 28.5 72.5t32 47.5
t39 26t49.5 8q26 0 51.5 -10.5t57.5 -27.5q28 -15 39.5 -20t25.5 -5q12 0 21.5 9t21.5 35h105q-12 -30 -25.5 -56t-30.5 -45.5t-39 -31t-51 -11.5q-50 0 -106 34q-26 16 -40.5 22t-27.5 6q-17 0 -25 -10.5t-21 -42.5h-105z" />
    <glyph glyph-name="ograve" unicode="&#xf2;" horiz-adv-x="610" 
d="M89 449q32 47 82 71.5t134 24.5q78 0 129.5 -24.5t82.5 -67.5q26 -37 37 -86t11 -104q0 -56 -11.5 -103.5t-34.5 -79.5q-32 -45 -80.5 -71t-133.5 -26q-86 0 -133.5 24t-79.5 68q-22 30 -34.5 79t-12.5 109q0 55 11 104.5t33 81.5zM193 263q0 -65 20 -102
q14 -25 38 -34.5t54 -9.5q59 0 88 40q14 20 19 45.5t5 63.5q0 34 -5.5 61.5t-20.5 48.5q-25 35 -86 35q-31 0 -54 -9t-37 -33q-21 -38 -21 -106zM254 600l-145 154h162l139 -154h-156z" />
    <glyph glyph-name="oacute" unicode="&#xf3;" horiz-adv-x="610" 
d="M89 449q32 47 82 71.5t134 24.5q78 0 129.5 -24.5t82.5 -67.5q26 -37 37 -86t11 -104q0 -56 -11.5 -103.5t-34.5 -79.5q-32 -45 -80.5 -71t-133.5 -26q-86 0 -133.5 24t-79.5 68q-22 30 -34.5 79t-12.5 109q0 55 11 104.5t33 81.5zM193 263q0 -65 20 -102
q14 -25 38 -34.5t54 -9.5q59 0 88 40q14 20 19 45.5t5 63.5q0 34 -5.5 61.5t-20.5 48.5q-25 35 -86 35q-31 0 -54 -9t-37 -33q-21 -38 -21 -106zM191 600l141 154h162l-147 -154h-156z" />
    <glyph glyph-name="ocircumflex" unicode="&#xf4;" horiz-adv-x="610" 
d="M89 449q32 47 82 71.5t134 24.5q78 0 129.5 -24.5t82.5 -67.5q26 -37 37 -86t11 -104q0 -56 -11.5 -103.5t-34.5 -79.5q-32 -45 -80.5 -71t-133.5 -26q-86 0 -133.5 24t-79.5 68q-22 30 -34.5 79t-12.5 109q0 55 11 104.5t33 81.5zM193 263q0 -65 20 -102
q14 -25 38 -34.5t54 -9.5q59 0 88 40q14 20 19 45.5t5 63.5q0 34 -5.5 61.5t-20.5 48.5q-25 35 -86 35q-31 0 -54 -9t-37 -33q-21 -38 -21 -106zM221 754h168l147 -154h-151l-81 81l-81 -81h-149z" />
    <glyph glyph-name="otilde" unicode="&#xf5;" horiz-adv-x="610" 
d="M89 449q32 47 82 71.5t134 24.5q78 0 129.5 -24.5t82.5 -67.5q26 -37 37 -86t11 -104q0 -56 -11.5 -103.5t-34.5 -79.5q-32 -45 -80.5 -71t-133.5 -26q-86 0 -133.5 24t-79.5 68q-22 30 -34.5 79t-12.5 109q0 55 11 104.5t33 81.5zM193 263q0 -65 20 -102
q14 -25 38 -34.5t54 -9.5q59 0 88 40q14 20 19 45.5t5 63.5q0 34 -5.5 61.5t-20.5 48.5q-25 35 -86 35q-31 0 -54 -9t-37 -33q-21 -38 -21 -106zM75 608q14 43 28.5 72.5t32 47.5t39 26t49.5 8q26 0 51.5 -10.5t57.5 -27.5q28 -15 39.5 -20t25.5 -5q12 0 21.5 9t21.5 35h105
q-12 -30 -25.5 -56t-30.5 -45.5t-39 -31t-51 -11.5q-50 0 -106 34q-26 16 -40.5 22t-27.5 6q-17 0 -25 -10.5t-21 -42.5h-105z" />
    <glyph glyph-name="odieresis" unicode="&#xf6;" horiz-adv-x="610" 
d="M45 263q0 55 11 104.5t33 81.5q32 47 82 71.5t134 24.5q78 0 129.5 -24.5t82.5 -67.5q26 -37 37 -86t11 -104q0 -56 -11.5 -103.5t-34.5 -79.5q-32 -45 -80.5 -71t-133.5 -26q-86 0 -133.5 24t-79.5 68q-22 30 -34.5 79t-12.5 109zM213 161q14 -25 38 -34.5t54 -9.5
q59 0 88 40q14 20 19 45.5t5 63.5q0 34 -5.5 61.5t-20.5 48.5q-25 35 -86 35q-31 0 -54 -9t-37 -33q-21 -38 -21 -106q0 -65 20 -102zM494 754v-154h-139v154h139zM116 600v154h139v-154h-139z" />
    <glyph glyph-name="divide" unicode="&#xf7;" horiz-adv-x="700" 
d="M635 443v-132h-570v132h570zM276 244h148v-157h-148v157zM276 510v157h148v-157h-148z" />
    <glyph glyph-name="oslash" unicode="&#xf8;" horiz-adv-x="610" 
d="M89 449q32 47 82 71.5t134 24.5q78 0 129.5 -24.5t82.5 -67.5q26 -37 37 -86t11 -104q0 -56 -11.5 -103.5t-34.5 -79.5q-32 -45 -80.5 -71t-133.5 -26q-86 0 -133.5 24t-79.5 68q-22 30 -34.5 79t-12.5 109q0 55 11 104.5t33 81.5zM188 263q0 -44 8 -78l166 221
q-25 10 -57 10q-33 0 -57.5 -9t-38.5 -33q-21 -38 -21 -111zM305 112q64 0 93 40q14 20 19 48t5 66q0 20 -1.5 40.5t-5.5 36.5l-166 -221q12 -5 27 -7.5t29 -2.5z" />
    <glyph glyph-name="ugrave" unicode="&#xf9;" horiz-adv-x="602" 
d="M64 218v310h146v-303q0 -26 1.5 -48.5t12.5 -35.5q9 -11 25 -15t36 -4q33 0 60 4t46 9v393h146v-503q-21 -5 -51.5 -12.5t-66.5 -14t-75.5 -11t-78.5 -4.5q-57 0 -93.5 16.5t-58.5 39.5q-25 27 -37 68.5t-12 110.5zM263 600l-145 154h162l139 -154h-156z" />
    <glyph glyph-name="uacute" unicode="&#xfa;" horiz-adv-x="602" 
d="M64 218v310h146v-303q0 -26 1.5 -48.5t12.5 -35.5q9 -11 25 -15t36 -4q33 0 60 4t46 9v393h146v-503q-21 -5 -51.5 -12.5t-66.5 -14t-75.5 -11t-78.5 -4.5q-57 0 -93.5 16.5t-58.5 39.5q-25 27 -37 68.5t-12 110.5zM190 600l141 154h162l-147 -154h-156z" />
    <glyph glyph-name="ucircumflex" unicode="&#xfb;" horiz-adv-x="602" 
d="M64 218v310h146v-303q0 -26 1.5 -48.5t12.5 -35.5q9 -11 25 -15t36 -4q33 0 60 4t46 9v393h146v-503q-21 -5 -51.5 -12.5t-66.5 -14t-75.5 -11t-78.5 -4.5q-57 0 -93.5 16.5t-58.5 39.5q-25 27 -37 68.5t-12 110.5zM215 754h168l147 -154h-151l-81 81l-81 -81h-149z" />
    <glyph glyph-name="udieresis" unicode="&#xfc;" horiz-adv-x="602" 
d="M210 528v-303q0 -26 1.5 -48.5t12.5 -35.5q9 -11 25 -15t36 -4q33 0 60 4t46 9v393h146v-503q-21 -5 -51.5 -12.5t-66.5 -14t-75.5 -11t-78.5 -4.5q-57 0 -93.5 16.5t-58.5 39.5q-25 27 -37 68.5t-12 110.5v310h146zM350 600v154h139v-154h-139zM252 754v-154h-139v154
h139z" />
    <glyph glyph-name="yacute" unicode="&#xfd;" horiz-adv-x="588" 
d="M160 528l136 -347l136 347h156l-292 -720h-154l75 185l-217 535h160zM180 600l141 154h162l-147 -154h-156z" />
    <glyph glyph-name="thorn" unicode="&#xfe;" horiz-adv-x="611" 
d="M65 -192v946h146v-268q10 6 26.5 15.5t34.5 18.5q22 11 47 18t53 7q50 0 83.5 -19t58.5 -54q52 -73 52 -204q0 -63 -12 -115.5t-37 -87.5t-61 -58.5t-93 -23.5q-20 0 -42.5 4t-43.5 9.5t-38.5 11.5t-27.5 10v-210h-146zM211 152q22 -10 55 -22.5t59 -12.5q22 0 39.5 7
t29.5 27q13 21 18.5 47.5t5.5 65.5q0 38 -5 66.5t-19 50.5q-11 18 -26.5 24.5t-32.5 6.5q-12 0 -27 -4.5t-29 -12.5q-17 -9 -36.5 -20t-31.5 -19v-204z" />
    <glyph glyph-name="ydieresis" unicode="&#xff;" horiz-adv-x="588" 
d="M160 528l136 -347l136 347h156l-292 -720h-154l75 185l-217 535h160zM485 754v-154h-139v154h139zM242 754v-154h-139v154h139z" />
    <glyph glyph-name="Amacron" unicode="&#x100;" horiz-adv-x="747" 
d="M1 0l274 754h196l275 -754h-163l-50 137h-323l-49 -137h-160zM256 278h229l-115 325zM171 821v101h404v-101h-404z" />
    <glyph glyph-name="amacron" unicode="&#x101;" horiz-adv-x="609" 
d="M87 454q26 44 73.5 67.5t128.5 23.5q63 0 124.5 -17t130.5 -41v-487h-144v68q-9 -8 -22 -17.5t-29 -20.5q-29 -20 -57 -33.5t-70 -13.5q-48 0 -81.5 21t-55.5 57t-31 83.5t-9 107.5t9 111t33 91zM206 153q7 -18 18.5 -25t31.5 -7q22 0 47.5 16t44.5 30q29 21 50 40v187
q-17 6 -44 13.5t-54 7.5q-32 0 -54 -9.5t-34 -33.5q-11 -23 -15 -50.5t-4 -69.5q0 -26 3 -53t10 -46zM106 625v101h404v-101h-404z" />
    <glyph glyph-name="Abreve" unicode="&#x102;" horiz-adv-x="747" 
d="M1 0l274 754h196l275 -754h-163l-50 137h-323l-49 -137h-160zM256 278h229l-115 325zM298 950q5 -19 16 -36q18 -28 59 -28q44 0 61 28q5 8 8.5 17.5t5.5 18.5h120q-6 -31 -17 -58t-30 -47q-24 -26 -59 -39.5t-89 -13.5q-99 0 -145 51q-19 21 -30.5 48t-19.5 59h120z" />
    <glyph glyph-name="abreve" unicode="&#x103;" horiz-adv-x="609" 
d="M87 454q26 44 73.5 67.5t128.5 23.5q63 0 124.5 -17t130.5 -41v-487h-144v68q-9 -8 -22 -17.5t-29 -20.5q-29 -20 -57 -33.5t-70 -13.5q-48 0 -81.5 21t-55.5 57t-31 83.5t-9 107.5t9 111t33 91zM206 153q7 -18 18.5 -25t31.5 -7q22 0 47.5 16t44.5 30q29 21 50 40v187
q-17 6 -44 13.5t-54 7.5q-32 0 -54 -9.5t-34 -33.5q-11 -23 -15 -50.5t-4 -69.5q0 -26 3 -53t10 -46zM228 754q5 -19 16 -36q18 -28 59 -28q44 0 61 28q5 8 8.5 17.5t5.5 18.5h120q-6 -31 -17 -58t-30 -47q-24 -26 -59 -39.5t-89 -13.5q-99 0 -145 51q-19 21 -30.5 48
t-19.5 59h120z" />
    <glyph glyph-name="Aogonek" unicode="&#x104;" horiz-adv-x="747" 
d="M275 754h196l275 -754q-14 -11 -31.5 -25t-31.5 -27q-24 -23 -24 -41q0 -11 7 -14t18 -3q15 0 35 6t36 11v-97q-20 -6 -49 -12.5t-63 -6.5q-39 0 -63 5.5t-39 16.5t-22.5 28.5t-7.5 39.5q0 17 4.5 34t19.5 38q12 17 23.5 28t21.5 19l-50 137h-320l-49 -137h-160zM483 278
l-113 327l-113 -327h226z" />
    <glyph glyph-name="aogonek" unicode="&#x105;" horiz-adv-x="609" 
d="M87 454q26 44 73.5 67.5t128.5 23.5q63 0 124.5 -17t130.5 -41v-487q-14 -10 -32 -24t-35 -29q-25 -24 -25 -40q0 -11 7 -14t18 -3q15 0 33.5 5.5t33.5 10.5v-97q-20 -6 -47 -12t-61 -6q-39 0 -63 5.5t-39 16.5t-22.5 28.5t-7.5 39.5q0 19 7 35.5t27 36.5
q14 14 31.5 26.5t30.5 20.5v68q-9 -8 -22 -17.5t-29 -20.5q-29 -20 -57 -33.5t-70 -13.5q-48 0 -81.5 21t-55.5 57t-31 83.5t-9 107.5t9 111t33 91zM193 252q0 -26 3 -53t10 -46q7 -18 18.5 -25t31.5 -7q22 0 47.5 16t44.5 30q29 21 50 40v187q-17 6 -44 13.5t-54 7.5
q-32 0 -54 -9.5t-34 -33.5q-11 -23 -15 -50.5t-4 -69.5z" />
    <glyph glyph-name="Cacute" unicode="&#x106;" horiz-adv-x="657" 
d="M57 366q0 88 11.5 155.5t43.5 118.5q15 25 36.5 48.5t53 42t74 29.5t99.5 11q32 0 66 -4.5t66 -10.5q35 -7 61 -12.5t51 -11.5v-144q-26 6 -59.5 13.5t-65.5 13.5q-28 5 -52.5 8t-48.5 3q-65 0 -101 -18.5t-56 -57.5q-16 -32 -21.5 -76.5t-5.5 -104.5q0 -55 5.5 -100.5
t23.5 -77.5q20 -35 58.5 -49t101.5 -14q24 0 53 3.5t59 8.5t58 10.5t51 10.5v-145q-51 -11 -116 -22t-131 -11q-60 0 -103 11.5t-73.5 29.5t-50.5 40.5t-35 44.5q-28 43 -40.5 107.5t-12.5 149.5zM246 796l141 154h162l-147 -154h-156z" />
    <glyph glyph-name="cacute" unicode="&#x107;" horiz-adv-x="496" 
d="M47 263q0 121 45 190q28 42 72 67t124 25q45 0 93.5 -10.5t86.5 -20.5v-138q-16 5 -36.5 10t-42 10t-43 8t-39.5 3q-32 0 -57 -8.5t-37 -33.5q-11 -23 -14.5 -47.5t-3.5 -54.5q0 -29 3 -53t13 -46q11 -24 34.5 -34t61.5 -10q42 0 84 8.5t77 16.5v-138q-34 -7 -84.5 -15.5
t-94.5 -8.5q-42 0 -73 6t-54 17.5t-40 28t-31 37.5q-21 32 -32.5 80t-11.5 111zM154 600l141 154h162l-147 -154h-156z" />
    <glyph glyph-name="Ccircumflex" unicode="&#x108;" horiz-adv-x="657" 
d="M57 366q0 88 11.5 155.5t43.5 118.5q15 25 36.5 48.5t53 42t74 29.5t99.5 11q32 0 66 -4.5t66 -10.5q35 -7 61 -12.5t51 -11.5v-144q-26 6 -59.5 13.5t-65.5 13.5q-28 5 -52.5 8t-48.5 3q-65 0 -101 -18.5t-56 -57.5q-16 -32 -21.5 -76.5t-5.5 -104.5q0 -55 5.5 -100.5
t23.5 -77.5q20 -35 58.5 -49t101.5 -14q24 0 53 3.5t59 8.5t58 10.5t51 10.5v-145q-51 -11 -116 -22t-131 -11q-60 0 -103 11.5t-73.5 29.5t-50.5 40.5t-35 44.5q-28 43 -40.5 107.5t-12.5 149.5zM279 950h168l147 -154h-151l-81 81l-81 -81h-149z" />
    <glyph glyph-name="ccircumflex" unicode="&#x109;" horiz-adv-x="496" 
d="M47 263q0 121 45 190q28 42 72 67t124 25q45 0 93.5 -10.5t86.5 -20.5v-138q-16 5 -36.5 10t-42 10t-43 8t-39.5 3q-32 0 -57 -8.5t-37 -33.5q-11 -23 -14.5 -47.5t-3.5 -54.5q0 -29 3 -53t13 -46q11 -24 34.5 -34t61.5 -10q42 0 84 8.5t77 16.5v-138q-34 -7 -84.5 -15.5
t-94.5 -8.5q-42 0 -73 6t-54 17.5t-40 28t-31 37.5q-21 32 -32.5 80t-11.5 111zM188 754h168l147 -154h-151l-81 81l-81 -81h-149z" />
    <glyph glyph-name="Cdotaccent" unicode="&#x10a;" horiz-adv-x="657" 
d="M57 366q0 88 11.5 155.5t43.5 118.5q15 25 36.5 48.5t53 42t74 29.5t99.5 11q32 0 66 -4.5t66 -10.5q35 -7 61 -12.5t51 -11.5v-144q-26 6 -59.5 13.5t-65.5 13.5q-28 5 -52.5 8t-48.5 3q-65 0 -101 -18.5t-56 -57.5q-16 -32 -21.5 -76.5t-5.5 -104.5q0 -55 5.5 -100.5
t23.5 -77.5q20 -35 58.5 -49t101.5 -14q24 0 53 3.5t59 8.5t58 10.5t51 10.5v-145q-51 -11 -116 -22t-131 -11q-60 0 -103 11.5t-73.5 29.5t-50.5 40.5t-35 44.5q-28 43 -40.5 107.5t-12.5 149.5zM286 796v154h148v-154h-148z" />
    <glyph glyph-name="cdotaccent" unicode="&#x10b;" horiz-adv-x="496" 
d="M47 263q0 121 45 190q28 42 72 67t124 25q45 0 93.5 -10.5t86.5 -20.5v-138q-16 5 -36.5 10t-42 10t-43 8t-39.5 3q-32 0 -57 -8.5t-37 -33.5q-11 -23 -14.5 -47.5t-3.5 -54.5q0 -29 3 -53t13 -46q11 -24 34.5 -34t61.5 -10q42 0 84 8.5t77 16.5v-138q-34 -7 -84.5 -15.5
t-94.5 -8.5q-42 0 -73 6t-54 17.5t-40 28t-31 37.5q-21 32 -32.5 80t-11.5 111zM200 600v154h148v-154h-148z" />
    <glyph glyph-name="Ccaron" unicode="&#x10c;" horiz-adv-x="657" 
d="M57 366q0 88 11.5 155.5t43.5 118.5q15 25 36.5 48.5t53 42t74 29.5t99.5 11q32 0 66 -4.5t66 -10.5q35 -7 61 -12.5t51 -11.5v-144q-26 6 -59.5 13.5t-65.5 13.5q-28 5 -52.5 8t-48.5 3q-65 0 -101 -18.5t-56 -57.5q-16 -32 -21.5 -76.5t-5.5 -104.5q0 -55 5.5 -100.5
t23.5 -77.5q20 -35 58.5 -49t101.5 -14q24 0 53 3.5t59 8.5t58 10.5t51 10.5v-145q-51 -11 -116 -22t-131 -11q-60 0 -103 11.5t-73.5 29.5t-50.5 40.5t-35 44.5q-28 43 -40.5 107.5t-12.5 149.5zM129 950h151l81 -81l81 81h149l-147 -154h-168z" />
    <glyph glyph-name="ccaron" unicode="&#x10d;" horiz-adv-x="496" 
d="M47 263q0 121 45 190q28 42 72 67t124 25q45 0 93.5 -10.5t86.5 -20.5v-138q-16 5 -36.5 10t-42 10t-43 8t-39.5 3q-32 0 -57 -8.5t-37 -33.5q-11 -23 -14.5 -47.5t-3.5 -54.5q0 -29 3 -53t13 -46q11 -24 34.5 -34t61.5 -10q42 0 84 8.5t77 16.5v-138q-34 -7 -84.5 -15.5
t-94.5 -8.5q-42 0 -73 6t-54 17.5t-40 28t-31 37.5q-21 32 -32.5 80t-11.5 111zM37 754h151l81 -81l81 81h149l-147 -154h-168z" />
    <glyph glyph-name="Dcaron" unicode="&#x10e;" horiz-adv-x="735" 
d="M344 754q86 0 147 -17.5t105 -67.5q21 -23 36 -50t25.5 -61.5t15.5 -78t5 -99.5q0 -116 -26 -188t-79 -120q-45 -41 -101.5 -56.5t-135.5 -15.5h-264v754h272zM340 141q55 0 90 14t60 51q22 32 29 76t7 98q0 59 -7 106.5t-36 81.5q-25 29 -59 37t-79 8h-123v-472h118z
M98 950h151l81 -81l81 81h149l-147 -154h-168z" />
    <glyph glyph-name="dcaron" unicode="&#x10f;" horiz-adv-x="707" 
d="M45 261q0 67 9.5 114t30.5 82q27 45 65.5 66.5t100.5 21.5q37 0 77.5 -10t71.5 -19v238h146v-754h-144v60q-18 -15 -46 -33q-30 -20 -61 -32t-72 -12q-47 0 -81.5 23.5t-55.5 58.5q-20 32 -30.5 77t-10.5 119zM193 262q0 -41 3 -65t11 -43q8 -18 21 -25t37 -7
q22 0 45.5 13t44.5 27q27 18 45 32v193l-22.5 7.5t-29 8t-31.5 6.5t-29 3q-29 0 -48.5 -9t-30.5 -32q-10 -20 -13 -45.5t-3 -63.5zM600 547v207h120v-64q0 -48 -7.5 -82t-18.5 -61h-94z" />
    <glyph glyph-name="Dcroat" unicode="&#x110;" horiz-adv-x="755" 
d="M20 315v139h72v300h272q86 0 147 -17.5t105 -67.5q21 -23 36 -50t25.5 -61.5t15.5 -78t5 -99.5q0 -116 -26 -188t-79 -120q-45 -41 -101.5 -56.5t-135.5 -15.5h-264v315h-72zM428 454v-139h-186v-174h118q55 0 90 14t60 51q22 32 29 76t7 98q0 59 -7 106.5t-36 81.5
q-25 29 -59 37t-79 8h-123v-159h186z" />
    <glyph glyph-name="dcroat" unicode="&#x111;" horiz-adv-x="611" 
d="M85 457q27 45 65.5 64.5t100.5 19.5q37 0 78 -9.5t71 -17.5v65h-189v107h189v68h146v-68h73v-107h-73v-579h-144v60q-18 -15 -46 -33q-30 -20 -61 -32t-72 -12q-47 0 -81.5 23.5t-55.5 58.5q-20 32 -30.5 77t-10.5 119q0 67 9.5 114t30.5 82zM193 262q0 -41 3 -65t11 -43
q8 -18 21 -25t37 -7q22 0 45.5 13t44.5 27q27 18 45 32v193l-22.5 7.5t-29 8t-31.5 6.5t-29 3q-29 0 -48.5 -9t-30.5 -32q-10 -20 -13 -45.5t-3 -63.5z" />
    <glyph glyph-name="Emacron" unicode="&#x112;" horiz-adv-x="657" 
d="M606 754v-141h-384v-159h362v-141h-362v-172h401v-141h-551v754h534zM134 821v101h404v-101h-404z" />
    <glyph glyph-name="emacron" unicode="&#x113;" horiz-adv-x="580" 
d="M45 259q0 48 7 99.5t33 93.5q57 93 210 93q75 0 124 -19t77 -56q15 -20 23.5 -42t12 -43t4.5 -40t1 -33q0 -22 -3 -55.5t-7 -52.5h-339q0 -14 3 -27t13 -27q17 -23 46 -32t73 -9q52 0 100 6t88 12v-124q-38 -6 -91.5 -13t-111.5 -7q-45 0 -78.5 5.5t-59.5 16.5t-45 27
t-35 38q-26 35 -35.5 79.5t-9.5 109.5zM188 308h208q2 12 2 27q0 13 -2.5 28t-12.5 29q-13 19 -35.5 27t-52.5 8q-64 0 -89 -41q-10 -16 -14 -37t-4 -41zM94 625v101h404v-101h-404z" />
    <glyph glyph-name="Ebreve" unicode="&#x114;" horiz-adv-x="657" 
d="M606 754v-141h-384v-159h362v-141h-362v-172h401v-141h-551v754h534zM257 950q5 -19 16 -36q18 -28 59 -28q44 0 61 28q5 8 8.5 17.5t5.5 18.5h120q-6 -31 -17 -58t-30 -47q-24 -26 -59 -39.5t-89 -13.5q-99 0 -145 51q-19 21 -30.5 48t-19.5 59h120z" />
    <glyph glyph-name="ebreve" unicode="&#x115;" horiz-adv-x="580" 
d="M45 259q0 48 7 99.5t33 93.5q57 93 210 93q75 0 124 -19t77 -56q15 -20 23.5 -42t12 -43t4.5 -40t1 -33q0 -22 -3 -55.5t-7 -52.5h-339q0 -14 3 -27t13 -27q17 -23 46 -32t73 -9q52 0 100 6t88 12v-124q-38 -6 -91.5 -13t-111.5 -7q-45 0 -78.5 5.5t-59.5 16.5t-45 27
t-35 38q-26 35 -35.5 79.5t-9.5 109.5zM188 308h208q2 12 2 27q0 13 -2.5 28t-12.5 29q-13 19 -35.5 27t-52.5 8q-64 0 -89 -41q-10 -16 -14 -37t-4 -41zM220 754q5 -19 16 -36q18 -28 59 -28q44 0 61 28q5 8 8.5 17.5t5.5 18.5h120q-6 -31 -17 -58t-30 -47
q-24 -26 -59 -39.5t-89 -13.5q-99 0 -145 51q-19 21 -30.5 48t-19.5 59h120z" />
    <glyph glyph-name="Edotaccent" unicode="&#x116;" horiz-adv-x="657" 
d="M606 754v-141h-384v-159h362v-141h-362v-172h401v-141h-551v754h534zM260 796v154h148v-154h-148z" />
    <glyph glyph-name="edotaccent" unicode="&#x117;" horiz-adv-x="580" 
d="M45 259q0 48 7 99.5t33 93.5q57 93 210 93q75 0 124 -19t77 -56q15 -20 23.5 -42t12 -43t4.5 -40t1 -33q0 -22 -3 -55.5t-7 -52.5h-339q0 -14 3 -27t13 -27q17 -23 46 -32t73 -9q52 0 100 6t88 12v-124q-38 -6 -91.5 -13t-111.5 -7q-45 0 -78.5 5.5t-59.5 16.5t-45 27
t-35 38q-26 35 -35.5 79.5t-9.5 109.5zM188 308h208q2 12 2 27q0 13 -2.5 28t-12.5 29q-13 19 -35.5 27t-52.5 8q-64 0 -89 -41q-10 -16 -14 -37t-4 -41zM217 600v154h148v-154h-148z" />
    <glyph glyph-name="Eogonek" unicode="&#x118;" horiz-adv-x="657" 
d="M72 754h534v-141h-384v-159h362v-141h-362v-172h401v-141q-14 -10 -35 -24.5t-36 -28.5q-25 -24 -25 -40q0 -11 7 -14t18 -3q15 0 35 6t36 11v-97q-20 -6 -49 -12.5t-63 -6.5q-39 0 -63 5.5t-39 16.5t-22.5 28.5t-7.5 39.5q0 19 7 35.5t27 36.5q14 14 31 26.5t30 20.5
h-402v754z" />
    <glyph glyph-name="eogonek" unicode="&#x119;" horiz-adv-x="580" 
d="M45 259q0 20 1.5 42.5t4.5 44.5t7.5 42t10.5 33q26 63 79 93.5t147 30.5q75 0 124 -19t77 -56q15 -20 23.5 -42t12 -43t4.5 -40t1 -33q0 -22 -3 -55.5t-7 -52.5h-339q0 -14 3 -27t13 -27q17 -23 46 -32t73 -9q53 0 101 6t87 12v-124q-15 -11 -33 -25.5t-35 -29.5
q-25 -24 -25 -41q0 -11 7 -14t18 -3q15 0 35 6t36 11v-97q-20 -6 -49 -12.5t-63 -6.5q-39 0 -63 5.5t-39 16.5t-22.5 28.5t-7.5 39.5q0 19 7.5 35.5t27.5 36.5q9 9 18.5 16.5t18.5 14.5q-9 -1 -17 -1h-17q-33 0 -63.5 3t-58 12.5t-52 26.5t-44.5 45q-26 35 -35.5 79.5
t-9.5 109.5zM188 308h208q2 12 2 27q0 13 -2.5 28t-12.5 29q-13 19 -35.5 27t-52.5 8q-64 0 -89 -41q-10 -16 -14 -37t-4 -41z" />
    <glyph glyph-name="Ecaron" unicode="&#x11a;" horiz-adv-x="657" 
d="M606 754v-141h-384v-159h362v-141h-362v-172h401v-141h-551v754h534zM99 950h151l81 -81l81 81h149l-147 -154h-168z" />
    <glyph glyph-name="ecaron" unicode="&#x11b;" horiz-adv-x="580" 
d="M45 259q0 48 7 99.5t33 93.5q57 93 210 93q75 0 124 -19t77 -56q15 -20 23.5 -42t12 -43t4.5 -40t1 -33q0 -22 -3 -55.5t-7 -52.5h-339q0 -14 3 -27t13 -27q17 -23 46 -32t73 -9q52 0 100 6t88 12v-124q-38 -6 -91.5 -13t-111.5 -7q-45 0 -78.5 5.5t-59.5 16.5t-45 27
t-35 38q-26 35 -35.5 79.5t-9.5 109.5zM188 308h208q2 12 2 27q0 13 -2.5 28t-12.5 29q-13 19 -35.5 27t-52.5 8q-64 0 -89 -41q-10 -16 -14 -37t-4 -41zM64 754h151l81 -81l81 81h149l-147 -154h-168z" />
    <glyph glyph-name="Gcircumflex" unicode="&#x11c;" horiz-adv-x="723" 
d="M57 366q0 98 13.5 162.5t44.5 114.5q17 26 38.5 49.5t52.5 41t72.5 27.5t96.5 10q61 0 127 -13.5t125 -27.5v-143q-33 8 -71.5 16t-77.5 15q-48 8 -85 8q-66 0 -101 -17.5t-55 -58.5q-16 -32 -22 -74.5t-6 -106.5q0 -63 5.5 -107.5t23.5 -76.5q20 -36 58.5 -49t101.5 -13
q35 0 63.5 2t43.5 4v276h148v-397q-27 -4 -62 -8.5t-72.5 -8t-75.5 -6t-71 -2.5q-57 0 -99 8.5t-72.5 24t-51.5 37t-37 46.5q-29 46 -42 110t-13 157zM283 950h168l147 -154h-151l-81 81l-81 -81h-149z" />
    <glyph glyph-name="gcircumflex" unicode="&#x11d;" horiz-adv-x="609" 
d="M46 263q0 61 9.5 110.5t31.5 83.5q29 45 76 66.5t128 21.5q63 0 127 -18.5t126 -39.5v-422q0 -64 -12.5 -111.5t-44.5 -84.5q-32 -35 -91 -56.5t-144 -21.5q-55 0 -100 4.5t-84 9.5v128q28 -4 78.5 -9.5t105.5 -5.5q37 0 66 9.5t46 23.5t25.5 31t8.5 42v20
q-18 -9 -52 -22q-23 -8 -50.5 -15t-59.5 -7q-51 0 -88 21t-58 53t-32.5 79t-11.5 110zM194 263q0 -28 3 -50t11 -43q8 -22 25.5 -30t43.5 -8q20 0 38 5t34 12q14 6 26 12t23 11v220q-28 9 -52.5 14.5t-48.5 5.5q-32 0 -54.5 -10t-33.5 -33q-8 -19 -11.5 -44.5t-3.5 -61.5z
M217 754h168l147 -154h-151l-81 81l-81 -81h-149z" />
    <glyph glyph-name="Gbreve" unicode="&#x11e;" horiz-adv-x="723" 
d="M57 366q0 98 13.5 162.5t44.5 114.5q17 26 38.5 49.5t52.5 41t72.5 27.5t96.5 10q61 0 127 -13.5t125 -27.5v-143q-33 8 -71.5 16t-77.5 15q-48 8 -85 8q-66 0 -101 -17.5t-55 -58.5q-16 -32 -22 -74.5t-6 -106.5q0 -63 5.5 -107.5t23.5 -76.5q20 -36 58.5 -49t101.5 -13
q35 0 63.5 2t43.5 4v276h148v-397q-27 -4 -62 -8.5t-72.5 -8t-75.5 -6t-71 -2.5q-57 0 -99 8.5t-72.5 24t-51.5 37t-37 46.5q-29 46 -42 110t-13 157zM290 950q5 -19 16 -36q18 -28 59 -28q44 0 61 28q5 8 8.5 17.5t5.5 18.5h120q-6 -31 -17 -58t-30 -47q-24 -26 -59 -39.5
t-89 -13.5q-99 0 -145 51q-19 21 -30.5 48t-19.5 59h120z" />
    <glyph glyph-name="gbreve" unicode="&#x11f;" horiz-adv-x="609" 
d="M46 263q0 61 9.5 110.5t31.5 83.5q29 45 76 66.5t128 21.5q63 0 127 -18.5t126 -39.5v-422q0 -64 -12.5 -111.5t-44.5 -84.5q-32 -35 -91 -56.5t-144 -21.5q-55 0 -100 4.5t-84 9.5v128q28 -4 78.5 -9.5t105.5 -5.5q37 0 66 9.5t46 23.5t25.5 31t8.5 42v20
q-18 -9 -52 -22q-23 -8 -50.5 -15t-59.5 -7q-51 0 -88 21t-58 53t-32.5 79t-11.5 110zM194 263q0 -28 3 -50t11 -43q8 -22 25.5 -30t43.5 -8q20 0 38 5t34 12q14 6 26 12t23 11v220q-28 9 -52.5 14.5t-48.5 5.5q-32 0 -54.5 -10t-33.5 -33q-8 -19 -11.5 -44.5t-3.5 -61.5z
M226 754q5 -19 16 -36q18 -28 59 -28q44 0 61 28q5 8 8.5 17.5t5.5 18.5h120q-6 -31 -17 -58t-30 -47q-24 -26 -59 -39.5t-89 -13.5q-99 0 -145 51q-19 21 -30.5 48t-19.5 59h120z" />
    <glyph glyph-name="Gdotaccent" unicode="&#x120;" horiz-adv-x="723" 
d="M57 366q0 98 13.5 162.5t44.5 114.5q17 26 38.5 49.5t52.5 41t72.5 27.5t96.5 10q61 0 127 -13.5t125 -27.5v-143q-33 8 -71.5 16t-77.5 15q-48 8 -85 8q-66 0 -101 -17.5t-55 -58.5q-16 -32 -22 -74.5t-6 -106.5q0 -63 5.5 -107.5t23.5 -76.5q20 -36 58.5 -49t101.5 -13
q35 0 63.5 2t43.5 4v276h148v-397q-27 -4 -62 -8.5t-72.5 -8t-75.5 -6t-71 -2.5q-57 0 -99 8.5t-72.5 24t-51.5 37t-37 46.5q-29 46 -42 110t-13 157zM291 796v154h148v-154h-148z" />
    <glyph glyph-name="gdotaccent" unicode="&#x121;" horiz-adv-x="609" 
d="M46 263q0 61 9.5 110.5t31.5 83.5q29 45 76 66.5t128 21.5q63 0 127 -18.5t126 -39.5v-422q0 -64 -12.5 -111.5t-44.5 -84.5q-32 -35 -91 -56.5t-144 -21.5q-55 0 -100 4.5t-84 9.5v128q28 -4 78.5 -9.5t105.5 -5.5q37 0 66 9.5t46 23.5t25.5 31t8.5 42v20
q-18 -9 -52 -22q-23 -8 -50.5 -15t-59.5 -7q-51 0 -88 21t-58 53t-32.5 79t-11.5 110zM194 263q0 -28 3 -50t11 -43q8 -22 25.5 -30t43.5 -8q20 0 38 5t34 12q14 6 26 12t23 11v220q-28 9 -52.5 14.5t-48.5 5.5q-32 0 -54.5 -10t-33.5 -33q-8 -19 -11.5 -44.5t-3.5 -61.5z
M227 600v154h148v-154h-148z" />
    <glyph glyph-name="uni0122" unicode="&#x122;" horiz-adv-x="723" 
d="M57 366q0 98 13.5 162.5t44.5 114.5q17 26 38.5 49.5t52.5 41t72.5 27.5t96.5 10q61 0 127 -13.5t125 -27.5v-143q-33 8 -71.5 16t-77.5 15q-48 8 -85 8q-66 0 -101 -17.5t-55 -58.5q-16 -32 -22 -74.5t-6 -106.5q0 -63 5.5 -107.5t23.5 -76.5q20 -36 58.5 -49t101.5 -13
q35 0 63.5 2t43.5 4v276h148v-397q-27 -4 -62 -8.5t-72.5 -8t-75.5 -6t-71 -2.5q-57 0 -99 8.5t-72.5 24t-51.5 37t-37 46.5q-29 46 -42 110t-13 157zM303 -280q7 32 11.5 66.5t4.5 84.5v79h122v-53q0 -60 -14.5 -105t-28.5 -72h-95z" />
    <glyph glyph-name="uni0123" unicode="&#x123;" horiz-adv-x="609" 
d="M87 457q29 45 76 66.5t128 21.5q63 0 127 -18.5t126 -39.5v-422q0 -64 -12.5 -111.5t-44.5 -84.5q-32 -35 -91 -56.5t-144 -21.5q-55 0 -100 4.5t-84 9.5v128q28 -4 78.5 -9.5t105.5 -5.5q37 0 66 9.5t46 23.5t25.5 31t8.5 42v20q-18 -9 -52 -22q-23 -8 -50.5 -15
t-59.5 -7q-51 0 -88 21t-58 53t-32.5 79t-11.5 110q0 61 9.5 110.5t31.5 83.5zM208 170q8 -22 25.5 -30t43.5 -8q20 0 38 5t34 12q14 6 26 12t23 11v220q-28 9 -52.5 14.5t-48.5 5.5q-32 0 -54.5 -10t-33.5 -33q-8 -19 -11.5 -44.5t-3.5 -61.5q0 -28 3 -50t11 -43zM237 586
v73q0 60 14.5 109t28.5 76h95q-7 -32 -11.5 -70.5t-4.5 -88.5v-99h-122z" />
    <glyph glyph-name="Hcircumflex" unicode="&#x124;" horiz-adv-x="746" 
d="M222 754v-288h302v288h150v-754h-150v323h-302v-323h-150v754h150zM289 950h168l147 -154h-151l-81 81l-81 -81h-149z" />
    <glyph glyph-name="hcircumflex" unicode="&#x125;" horiz-adv-x="602" 
d="M65 0v754h146v-250q14 5 33.5 12t41 13.5t44.5 11t42 4.5q75 0 118 -44q25 -26 36.5 -65.5t11.5 -119.5v-316h-146v309q0 26 -2 47.5t-13 34.5q-9 10 -22 11.5t-30 1.5q-11 0 -27 -3.5t-32.5 -9t-31 -11t-23.5 -8.5v-372h-146zM57 950h168l147 -154h-151l-81 81l-81 -81
h-149z" />
    <glyph glyph-name="Hbar" unicode="&#x126;" horiz-adv-x="746" 
d="M72 754h150v-87h302v87h150v-754h-150v302h-302v-302h-150v754zM222 528v-87h302v87h-302z" />
    <glyph glyph-name="hbar" unicode="&#x127;" horiz-adv-x="602" 
d="M0 579v107h65v68h146v-68h197v-107h-197v-75q14 5 34 11.5t41.5 12t44 9.5t41.5 4q77 0 118 -42q12 -13 21 -28t15 -36t9 -50t3 -69v-316h-146v309q0 26 -2 47.5t-13 34.5q-9 10 -22 11.5t-30 1.5q-11 0 -27 -3.5t-32.5 -9t-31 -11t-23.5 -8.5v-372h-146v579h-65z" />
    <glyph glyph-name="Itilde" unicode="&#x128;" horiz-adv-x="294" 
d="M72 0v754h150v-754h-150zM-80 804q14 43 28.5 72.5t32 47.5t39 26t49.5 8q26 0 51.5 -10.5t57.5 -27.5q28 -15 39.5 -20t25.5 -5q12 0 21.5 9t21.5 35h105q-12 -30 -25.5 -56t-30.5 -45.5t-39 -31t-51 -11.5q-50 0 -106 34q-26 16 -40.5 22t-27.5 6q-17 0 -25 -10.5
t-21 -42.5h-105z" />
    <glyph glyph-name="itilde" unicode="&#x129;" horiz-adv-x="276" 
d="M65 0v528h146v-528h-146zM-95 608q14 43 28.5 72.5t32 47.5t39 26t49.5 8q26 0 51.5 -10.5t57.5 -27.5q28 -15 39.5 -20t25.5 -5q12 0 21.5 9t21.5 35h105q-12 -30 -25.5 -56t-30.5 -45.5t-39 -31t-51 -11.5q-50 0 -106 34q-26 16 -40.5 22t-27.5 6q-17 0 -25 -10.5
t-21 -42.5h-105z" />
    <glyph glyph-name="Imacron" unicode="&#x12a;" horiz-adv-x="294" 
d="M72 0v754h150v-754h-150zM-57 821v101h404v-101h-404z" />
    <glyph glyph-name="imacron" unicode="&#x12b;" horiz-adv-x="276" 
d="M65 0v528h146v-528h-146zM-63 625v101h404v-101h-404z" />
    <glyph glyph-name="Ibreve" unicode="&#x12c;" horiz-adv-x="294" 
d="M72 0v754h150v-754h-150zM73 950q5 -19 16 -36q18 -28 59 -28q44 0 61 28q5 8 8.5 17.5t5.5 18.5h120q-6 -31 -17 -58t-30 -47q-24 -26 -59 -39.5t-89 -13.5q-99 0 -145 51q-19 21 -30.5 48t-19.5 59h120z" />
    <glyph glyph-name="ibreve" unicode="&#x12d;" horiz-adv-x="276" 
d="M65 0v528h146v-528h-146zM64 754q5 -19 16 -36q18 -28 59 -28q44 0 61 28q5 8 8.5 17.5t5.5 18.5h120q-6 -31 -17 -58t-30 -47q-24 -26 -59 -39.5t-89 -13.5q-99 0 -145 51q-19 21 -30.5 48t-19.5 59h120z" />
    <glyph glyph-name="Iogonek" unicode="&#x12e;" horiz-adv-x="294" 
d="M22 -127q0 17 2.5 33.5t13.5 37.5q9 18 18.5 33t15.5 23v754h150v-754q-9 -11 -18 -23.5t-18 -26.5q-9 -15 -12.5 -25t-3.5 -18q0 -17 25 -17q15 0 35 6t36 11v-97q-20 -6 -49 -12.5t-63 -6.5q-39 0 -63 5.5t-39 16.5q-30 22 -30 60z" />
    <glyph glyph-name="iogonek" unicode="&#x12f;" horiz-adv-x="276" 
d="M28 -56q9 17 19.5 32.5t17.5 23.5v528h146v-528q-9 -11 -18 -23.5t-18 -26.5q-9 -15 -12 -25t-3 -18q0 -17 25 -17q15 0 35 6t36 11v-97q-20 -6 -49 -12.5t-63 -6.5q-39 0 -63 5.5t-39 16.5q-30 22 -30 60q0 17 2.5 33.5t13.5 37.5zM65 754h146v-154h-146v154z" />
    <glyph glyph-name="Idotaccent" unicode="&#x130;" horiz-adv-x="294" 
d="M72 0v754h150v-754h-150zM73 796v154h148v-154h-148z" />
    <glyph glyph-name="dotlessi" unicode="&#x131;" horiz-adv-x="276" 
d="M65 0v528h146v-528h-146z" />
    <glyph glyph-name="IJ" unicode="&#x132;" horiz-adv-x="694" 
d="M72 0v754h150v-754h-150zM263 25q28 9 72 26t79 39q18 11 30 24t20 34t9 48t1 52v506h150v-517q0 -48 -2.5 -91.5t-16.5 -76.5q-11 -25 -27 -44t-47 -37q-27 -16 -63.5 -32.5t-74 -31.5t-72.5 -27t-58 -19v147z" />
    <glyph glyph-name="ij" unicode="&#x133;" horiz-adv-x="558" 
d="M65 0v528h146v-528h-146zM211 754v-154h-146v154h146zM216 -211v142q18 5 47 15.5t45 21.5q14 10 22.5 21t11.5 28q4 20 4.5 40t0.5 46v425h146v-451q0 -12 -0.5 -28t-2 -33t-4 -33t-6.5 -28q-9 -26 -26 -48.5t-46 -41.5q-40 -26 -94.5 -45.5t-97.5 -30.5zM493 754v-154
h-146v154h146z" />
    <glyph glyph-name="Jcircumflex" unicode="&#x134;" horiz-adv-x="405" 
d="M-27 25q28 9 72 26t79 39q18 11 30 24t20 34t9 48t1 52v506h150v-517q0 -48 -2.5 -91.5t-16.5 -76.5q-11 -25 -27 -44t-47 -37q-27 -16 -63.5 -32.5t-74 -31.5t-72.5 -27t-58 -19v147zM170 950h168l147 -154h-151l-81 81l-81 -81h-149z" />
    <glyph glyph-name="jcircumflex" unicode="&#x135;" horiz-adv-x="287" 
d="M60 754h168l147 -154h-151l-81 81l-81 -81h-149zM-55 -80l21 7t25 9t24.5 10.5t19.5 11.5q14 10 21.5 21t11.5 28q5 20 5.5 43.5t0.5 49.5v428h148v-457v-28t-1 -32.5t-3 -32t-5 -26.5q-17 -57 -76 -93q-40 -25 -94.5 -43.5t-97.5 -29.5v134z" />
    <glyph glyph-name="uni0136" unicode="&#x136;" horiz-adv-x="698" 
d="M72 0v754h150v-354l286 354h184l-299 -365l336 -389h-199l-308 360v-360h-150zM249 -280q7 32 11.5 66.5t4.5 84.5v79h122v-53q0 -60 -14.5 -105t-28.5 -72h-95z" />
    <glyph glyph-name="uni0137" unicode="&#x137;" horiz-adv-x="586" 
d="M211 754v-451l195 225h181l-210 -241l230 -287h-186l-210 265v-265h-146v754h146zM206 -280q7 32 11.5 66.5t4.5 84.5v79h122v-53q0 -60 -14.5 -105t-28.5 -72h-95z" />
    <glyph glyph-name="kgreenlandic" unicode="&#x138;" horiz-adv-x="594" 
d="M213 528v-225q38 14 75.5 31.5t72.5 49.5q24 23 38 59t23 85h149q-13 -71 -28 -116.5t-39 -80.5q-18 -26 -45.5 -47.5t-51.5 -36.5l199 -247h-184l-209 264v-264h-148v528h148z" />
    <glyph glyph-name="Lacute" unicode="&#x139;" horiz-adv-x="608" 
d="M72 0v754h150v-609h371v-145h-521zM56 796l141 154h162l-147 -154h-156z" />
    <glyph glyph-name="lacute" unicode="&#x13a;" horiz-adv-x="276" 
d="M65 0v754h146v-754h-146zM38 796l141 154h162l-147 -154h-156z" />
    <glyph glyph-name="uni013B" unicode="&#x13b;" horiz-adv-x="608" 
d="M72 0v754h150v-609h371v-145h-521zM239 -280q7 32 11.5 66.5t4.5 84.5v79h122v-53q0 -60 -14.5 -105t-28.5 -72h-95z" />
    <glyph glyph-name="uni013C" unicode="&#x13c;" horiz-adv-x="276" 
d="M65 0v754h146v-754h-146zM65 -280q7 32 11.5 66.5t4.5 84.5v79h122v-53q0 -60 -14.5 -105t-28.5 -72h-95z" />
    <glyph glyph-name="Lcaron" unicode="&#x13d;" horiz-adv-x="608" 
d="M72 754h150v-609h371v-145h-521v754zM347 547v207h120v-64q0 -48 -7.5 -82t-18.5 -61h-94z" />
    <glyph glyph-name="lcaron" unicode="&#x13e;" horiz-adv-x="372" 
d="M211 754v-754h-146v754h146zM265 754h120v-64q0 -48 -7.5 -82t-18.5 -61h-94v207z" />
    <glyph glyph-name="Ldot" unicode="&#x13f;" horiz-adv-x="608" 
d="M72 0v754h150v-609h371v-145h-521zM377 313v154h148v-154h-148z" />
    <glyph glyph-name="ldot" unicode="&#x140;" horiz-adv-x="424" 
d="M65 0v754h146v-754h-146zM276 313v154h148v-154h-148z" />
    <glyph glyph-name="Lslash" unicode="&#x141;" horiz-adv-x="608" 
d="M72 394v360h150v-268l146 93v-129l-146 -94v-211h371v-145h-521v264l-75 -48v129z" />
    <glyph glyph-name="lslash" unicode="&#x142;" horiz-adv-x="316" 
d="M85 394v360h146v-265l75 48v-127l-75 -48v-362h-146v267l-75 -48v127z" />
    <glyph glyph-name="Nacute" unicode="&#x143;" horiz-adv-x="755" 
d="M234 754l301 -504v504h148v-754h-162l-301 504v-504h-148v754h162zM260 796l141 154h162l-147 -154h-156z" />
    <glyph glyph-name="nacute" unicode="&#x144;" horiz-adv-x="604" 
d="M65 0v528h146v-29q12 5 33 12.5t44 15t47 13t42 5.5q37 0 65.5 -9.5t50.5 -32.5q24 -25 35.5 -66t11.5 -121v-316h-146v309q0 26 -1.5 46.5t-12.5 34.5q-8 11 -21.5 12.5t-27.5 1.5q-13 0 -29.5 -4t-33.5 -9t-32 -11l-25 -10v-370h-146zM176 600l141 154h162l-147 -154
h-156z" />
    <glyph glyph-name="uni0145" unicode="&#x145;" horiz-adv-x="755" 
d="M234 754l301 -504v504h148v-754h-162l-301 504v-504h-148v754h162zM314 -280q7 32 11.5 66.5t4.5 84.5v79h122v-53q0 -60 -14.5 -105t-28.5 -72h-95z" />
    <glyph glyph-name="uni0146" unicode="&#x146;" horiz-adv-x="604" 
d="M65 0v528h146v-29q12 5 33 12.5t44 15t47 13t42 5.5q37 0 65.5 -9.5t50.5 -32.5q24 -25 35.5 -66t11.5 -121v-316h-146v309q0 26 -1.5 46.5t-12.5 34.5q-8 11 -21.5 12.5t-27.5 1.5q-13 0 -29.5 -4t-33.5 -9t-32 -11l-25 -10v-370h-146zM217 -280q7 32 11.5 66.5
t4.5 84.5v79h122v-53q0 -60 -14.5 -105t-28.5 -72h-95z" />
    <glyph glyph-name="Ncaron" unicode="&#x147;" horiz-adv-x="755" 
d="M234 754l301 -504v504h148v-754h-162l-301 504v-504h-148v754h162zM145 950h151l81 -81l81 81h149l-147 -154h-168z" />
    <glyph glyph-name="ncaron" unicode="&#x148;" horiz-adv-x="604" 
d="M65 0v528h146v-29q12 5 33 12.5t44 15t47 13t42 5.5q37 0 65.5 -9.5t50.5 -32.5q24 -25 35.5 -66t11.5 -121v-316h-146v309q0 26 -1.5 46.5t-12.5 34.5q-8 11 -21.5 12.5t-27.5 1.5q-13 0 -29.5 -4t-33.5 -9t-32 -11l-25 -10v-370h-146zM70 754h151l81 -81l81 81h149
l-147 -154h-168z" />
    <glyph glyph-name="napostrophe" unicode="&#x149;" horiz-adv-x="652" 
d="M113 0v528h146v-29q12 5 33 12.5t44 15t47 13t42 5.5q37 0 65.5 -9.5t50.5 -32.5q24 -25 35.5 -66t11.5 -121v-316h-146v309q0 26 -1.5 46.5t-12.5 34.5q-8 11 -21.5 12.5t-27.5 1.5q-13 0 -29.5 -4t-33.5 -9t-32 -11l-25 -10v-370h-146zM-33 524q7 32 11.5 66.5
t4.5 84.5v79h122v-53q0 -60 -14.5 -105t-28.5 -72h-95z" />
    <glyph glyph-name="Eng" unicode="&#x14a;" horiz-adv-x="755" 
d="M234 754l301 -504v504h148v-610q0 -48 -2 -92t-15 -76q-10 -25 -26.5 -43.5t-47.5 -37.5q-27 -16 -63.5 -32.5t-74 -31.5t-72.5 -27t-58 -19v147q13 4 31 10.5t38 14t39 15.5t34 16q37 20 41 35l-287 481v-504h-148v754h162z" />
    <glyph glyph-name="eng" unicode="&#x14b;" horiz-adv-x="604" 
d="M65 528h146v-29q12 5 33 12.5t44 15t47 13t42 5.5q37 0 65.5 -9.5t50.5 -32.5q24 -25 35.5 -66t11.5 -121v-213q0 -41 -2.5 -83t-10.5 -65q-9 -26 -26 -48.5t-46 -41.5q-40 -26 -94.5 -45.5t-97.5 -30.5v135q18 5 47 15.5t45 21.5q14 10 22.5 21t11.5 28q4 20 4.5 43.5
t0.5 49.5v206q0 26 -1.5 46.5t-12.5 34.5q-8 11 -21.5 12.5t-27.5 1.5q-13 0 -29.5 -4t-33.5 -9t-32 -11l-25 -10v-370h-146v528z" />
    <glyph glyph-name="Omacron" unicode="&#x14c;" horiz-adv-x="780" 
d="M112 643q19 30 42 54t55.5 40.5t76.5 25t104 8.5q104 0 163.5 -28.5t100.5 -85.5q39 -54 54 -126.5t15 -155.5q0 -96 -18 -165t-52 -115q-21 -28 -44.5 -49t-54.5 -35t-71 -21t-93 -7q-60 0 -102.5 7.5t-74 22.5t-54 36.5t-41.5 49.5q-61 91 -61 276q0 80 11.5 148.5
t43.5 119.5zM209 375q0 -59 7 -109t27 -82q23 -37 61 -48t86 -11q43 0 76.5 10t58.5 41q28 35 37 87t9 112q0 58 -7 105.5t-29 82.5q-23 38 -60 52t-85 14q-47 0 -85 -11t-62 -50q-20 -33 -27 -83.5t-7 -109.5zM186 821v101h404v-101h-404z" />
    <glyph glyph-name="omacron" unicode="&#x14d;" horiz-adv-x="610" 
d="M89 449q32 47 82 71.5t134 24.5q78 0 129.5 -24.5t82.5 -67.5q26 -37 37 -86t11 -104q0 -56 -11.5 -103.5t-34.5 -79.5q-32 -45 -80.5 -71t-133.5 -26q-86 0 -133.5 24t-79.5 68q-22 30 -34.5 79t-12.5 109q0 55 11 104.5t33 81.5zM193 263q0 -65 20 -102
q14 -25 38 -34.5t54 -9.5q59 0 88 40q14 20 19 45.5t5 63.5q0 34 -5.5 61.5t-20.5 48.5q-25 35 -86 35q-31 0 -54 -9t-37 -33q-21 -38 -21 -106zM104 625v101h404v-101h-404z" />
    <glyph glyph-name="Obreve" unicode="&#x14e;" horiz-adv-x="780" 
d="M112 643q19 30 42 54t55.5 40.5t76.5 25t104 8.5q104 0 163.5 -28.5t100.5 -85.5q39 -54 54 -126.5t15 -155.5q0 -96 -18 -165t-52 -115q-21 -28 -44.5 -49t-54.5 -35t-71 -21t-93 -7q-60 0 -102.5 7.5t-74 22.5t-54 36.5t-41.5 49.5q-61 91 -61 276q0 80 11.5 148.5
t43.5 119.5zM209 375q0 -59 7 -109t27 -82q23 -37 61 -48t86 -11q43 0 76.5 10t58.5 41q28 35 37 87t9 112q0 58 -7 105.5t-29 82.5q-23 38 -60 52t-85 14q-47 0 -85 -11t-62 -50q-20 -33 -27 -83.5t-7 -109.5zM316 950q5 -19 16 -36q18 -28 59 -28q44 0 61 28q5 8 8.5 17.5
t5.5 18.5h120q-6 -31 -17 -58t-30 -47q-24 -26 -59 -39.5t-89 -13.5q-99 0 -145 51q-19 21 -30.5 48t-19.5 59h120z" />
    <glyph glyph-name="obreve" unicode="&#x14f;" horiz-adv-x="610" 
d="M89 449q32 47 82 71.5t134 24.5q78 0 129.5 -24.5t82.5 -67.5q26 -37 37 -86t11 -104q0 -56 -11.5 -103.5t-34.5 -79.5q-32 -45 -80.5 -71t-133.5 -26q-86 0 -133.5 24t-79.5 68q-22 30 -34.5 79t-12.5 109q0 55 11 104.5t33 81.5zM193 263q0 -65 20 -102
q14 -25 38 -34.5t54 -9.5q59 0 88 40q14 20 19 45.5t5 63.5q0 34 -5.5 61.5t-20.5 48.5q-25 35 -86 35q-31 0 -54 -9t-37 -33q-21 -38 -21 -106zM231 754q5 -19 16 -36q18 -28 59 -28q44 0 61 28q5 8 8.5 17.5t5.5 18.5h120q-6 -31 -17 -58t-30 -47q-24 -26 -59 -39.5
t-89 -13.5q-99 0 -145 51q-19 21 -30.5 48t-19.5 59h120z" />
    <glyph glyph-name="Ohungarumlaut" unicode="&#x150;" horiz-adv-x="780" 
d="M112 643q19 30 42 54t55.5 40.5t76.5 25t104 8.5q104 0 163.5 -28.5t100.5 -85.5q39 -54 54 -126.5t15 -155.5q0 -96 -18 -165t-52 -115q-21 -28 -44.5 -49t-54.5 -35t-71 -21t-93 -7q-60 0 -102.5 7.5t-74 22.5t-54 36.5t-41.5 49.5q-61 91 -61 276q0 80 11.5 148.5
t43.5 119.5zM209 375q0 -59 7 -109t27 -82q23 -37 61 -48t86 -11q43 0 76.5 10t58.5 41q28 35 37 87t9 112q0 58 -7 105.5t-29 82.5q-23 38 -60 52t-85 14q-47 0 -85 -11t-62 -50q-20 -33 -27 -83.5t-7 -109.5zM518 950h143l-111 -154h-137zM198 796l105 154h143l-111 -154
h-137z" />
    <glyph glyph-name="ohungarumlaut" unicode="&#x151;" horiz-adv-x="610" 
d="M89 449q32 47 82 71.5t134 24.5q78 0 129.5 -24.5t82.5 -67.5q26 -37 37 -86t11 -104q0 -56 -11.5 -103.5t-34.5 -79.5q-32 -45 -80.5 -71t-133.5 -26q-86 0 -133.5 24t-79.5 68q-22 30 -34.5 79t-12.5 109q0 55 11 104.5t33 81.5zM193 263q0 -65 20 -102
q14 -25 38 -34.5t54 -9.5q59 0 88 40q14 20 19 45.5t5 63.5q0 34 -5.5 61.5t-20.5 48.5q-25 35 -86 35q-31 0 -54 -9t-37 -33q-21 -38 -21 -106zM428 754h143l-111 -154h-137zM108 600l105 154h143l-111 -154h-137z" />
    <glyph glyph-name="OE" unicode="&#x152;" horiz-adv-x="1131" 
d="M57 375q0 80 11.5 148.5t43.5 119.5q19 30 42 54t55.5 40.5t76.5 25t104 8.5q76 0 133 -17h557v-141h-401q3 -6 6.5 -13.5t5.5 -14.5q10 -29 17.5 -67t7.5 -64h342v-141h-342q0 -31 -7 -70.5t-16 -68.5q-2 -8 -6 -16.5t-8 -16.5h418v-141h-571q-28 -8 -61 -12.5t-75 -4.5
q-60 0 -102.5 7.5t-74 22.5t-54 36.5t-41.5 49.5q-61 91 -61 276zM209 375q0 -59 7 -109t27 -82q23 -37 61 -48t86 -11q43 0 78 10t58 41q27 36 34.5 87.5t7.5 111.5q0 58 -6 105.5t-26 82.5q-22 38 -60 52t-86 14q-47 0 -85 -11t-62 -50q-20 -33 -27 -83.5t-7 -109.5z" />
    <glyph glyph-name="oe" unicode="&#x153;" horiz-adv-x="945" 
d="M45 263q0 55 11 104.5t33 81.5q32 47 82 71.5t134 24.5q58 0 103.5 -16t74.5 -50q28 33 69 49.5t108 16.5q75 0 124 -19t77 -56q15 -20 23.5 -42t12 -43t4.5 -40t1 -33q0 -22 -3 -55.5t-7 -52.5h-339q0 -14 3 -27t13 -27q17 -23 46 -32t73 -9q53 0 101 6t87 12v-124
q-38 -6 -91 -13t-112 -7q-45 0 -75.5 5t-52.5 14t-36.5 21.5t-26.5 27.5q-28 -32 -71 -50t-106 -18q-86 0 -133.5 24t-79.5 68q-22 30 -34.5 79t-12.5 109zM213 161q14 -25 38 -34.5t54 -9.5q59 0 88 40q14 20 19 45.5t5 63.5q0 34 -5.5 61.5t-20.5 48.5q-25 35 -86 35
q-31 0 -54 -9t-37 -33q-21 -38 -21 -106q0 -65 20 -102zM553 308h208q2 12 2 27q0 13 -2.5 28t-12.5 29q-13 19 -35.5 27t-52.5 8q-64 0 -89 -41q-10 -16 -14 -37t-4 -41z" />
    <glyph glyph-name="Racute" unicode="&#x154;" horiz-adv-x="727" 
d="M72 0v754h335q71 0 118 -10.5t87 -44.5q33 -29 51.5 -73.5t18.5 -96.5t-17 -89t-49 -75q-17 -20 -38.5 -43t-35.5 -37l177 -285h-173l-160 259h-164v-259h-150zM222 613v-213h240q6 7 17 19.5t19 23.5q15 20 23.5 39t8.5 47q0 22 -6 37.5t-22 27.5q-14 11 -39.5 15
t-73.5 4h-167zM228 796l141 154h162l-147 -154h-156z" />
    <glyph glyph-name="racute" unicode="&#x155;" horiz-adv-x="399" 
d="M65 528h146v-60q16 11 31.5 21.5t34.5 19.5q20 10 52 18.5t68 13.5v-147q-33 -5 -61 -12t-54 -18q-24 -10 -42 -19.5t-29 -17.5v-327h-146v528zM51 600l141 154h162l-147 -154h-156z" />
    <glyph glyph-name="uni0156" unicode="&#x156;" horiz-adv-x="727" 
d="M72 0v754h335q71 0 118 -10.5t87 -44.5q33 -29 51.5 -73.5t18.5 -96.5t-17 -89t-49 -75q-17 -20 -38.5 -43t-35.5 -37l177 -285h-173l-160 259h-164v-259h-150zM222 613v-213h240q6 7 17 19.5t19 23.5q15 20 23.5 39t8.5 47q0 22 -6 37.5t-22 27.5q-14 11 -39.5 15
t-73.5 4h-167zM274 -280q7 32 11.5 66.5t4.5 84.5v79h122v-53q0 -60 -14.5 -105t-28.5 -72h-95z" />
    <glyph glyph-name="uni0157" unicode="&#x157;" horiz-adv-x="399" 
d="M65 528h146v-60q16 11 31.5 21.5t34.5 19.5q20 10 52 18.5t68 13.5v-147q-33 -5 -61 -12t-54 -18q-24 -10 -42 -19.5t-29 -17.5v-327h-146v528zM65 -280q7 32 11.5 66.5t4.5 84.5v79h122v-53q0 -60 -14.5 -105t-28.5 -72h-95z" />
    <glyph glyph-name="Rcaron" unicode="&#x158;" horiz-adv-x="727" 
d="M72 0v754h335q71 0 118 -10.5t87 -44.5q33 -29 51.5 -73.5t18.5 -96.5t-17 -89t-49 -75q-17 -20 -38.5 -43t-35.5 -37l177 -285h-173l-160 259h-164v-259h-150zM222 613v-213h240q6 7 17 19.5t19 23.5q15 20 23.5 39t8.5 47q0 22 -6 37.5t-22 27.5q-14 11 -39.5 15
t-73.5 4h-167zM117 950h151l81 -81l81 81h149l-147 -154h-168z" />
    <glyph glyph-name="rcaron" unicode="&#x159;" horiz-adv-x="399" 
d="M65 528h146v-60q16 11 31.5 21.5t34.5 19.5q20 10 52 18.5t68 13.5v-147q-33 -5 -61 -12t-54 -18q-24 -10 -42 -19.5t-29 -17.5v-327h-146v528zM-25 754h151l81 -81l81 81h149l-147 -154h-168z" />
    <glyph glyph-name="Sacute" unicode="&#x15a;" horiz-adv-x="649" 
d="M37 547q0 62 18.5 104.5t59.5 73.5q36 28 85 37t110 9q33 0 71 -4.5t75.5 -11t72 -13.5t59.5 -13v-144q-25 6 -61.5 13.5t-75 14.5t-74.5 12t-61 5q-39 0 -63 -3.5t-40 -15.5q-14 -11 -19 -24t-5 -30q0 -20 4.5 -33t16.5 -22q14 -10 31.5 -16.5t48.5 -16.5l130 -41
q42 -14 74 -26.5t55 -32.5q30 -26 46.5 -66.5t16.5 -89.5q0 -110 -76 -170q-40 -32 -93 -46t-137 -14q-31 0 -66.5 3.5t-70 8.5t-67 10.5t-58.5 10.5v146q30 -6 65 -12.5t71 -12.5t71.5 -9.5t66.5 -3.5q44 0 69.5 5t42.5 16q30 20 30 60q0 37 -21 54q-11 9 -37 18.5
t-58 19.5l-129 41q-39 13 -66 25t-49 30q-63 53 -63 154zM197 796l141 154h162l-147 -154h-156z" />
    <glyph glyph-name="sacute" unicode="&#x15b;" horiz-adv-x="528" 
d="M41 378q0 36 11 68t37 55t66 33.5t104 10.5q24 0 54 -3.5t59 -8t54 -10t38 -8.5v-133q-15 4 -39.5 9.5t-52.5 11t-57 9.5t-53 4q-28 0 -41 -2.5t-21 -7.5t-10 -12t-2 -16q0 -20 18 -28q10 -5 21.5 -8t26.5 -7l91 -24q40 -11 64 -23.5t41 -29.5t27 -46t10 -61
q0 -39 -10.5 -66.5t-36.5 -50.5q-28 -25 -73.5 -38t-113.5 -13q-25 0 -55.5 3t-60 7t-54 8.5t-36.5 6.5v133q14 -3 38.5 -8t54.5 -9.5t63.5 -8t65.5 -3.5q20 0 34 1.5t23 7.5q14 9 14 29q0 19 -16 28q-8 5 -23 9t-38 10l-95 26q-35 10 -56 21t-37 29q-15 17 -24.5 44
t-9.5 61zM140 600l141 154h162l-147 -154h-156z" />
    <glyph glyph-name="Scircumflex" unicode="&#x15c;" horiz-adv-x="649" 
d="M37 547q0 62 18.5 104.5t59.5 73.5q36 28 85 37t110 9q33 0 71 -4.5t75.5 -11t72 -13.5t59.5 -13v-144q-25 6 -61.5 13.5t-75 14.5t-74.5 12t-61 5q-39 0 -63 -3.5t-40 -15.5q-14 -11 -19 -24t-5 -30q0 -20 4.5 -33t16.5 -22q14 -10 31.5 -16.5t48.5 -16.5l130 -41
q42 -14 74 -26.5t55 -32.5q30 -26 46.5 -66.5t16.5 -89.5q0 -110 -76 -170q-40 -32 -93 -46t-137 -14q-31 0 -66.5 3.5t-70 8.5t-67 10.5t-58.5 10.5v146q30 -6 65 -12.5t71 -12.5t71.5 -9.5t66.5 -3.5q44 0 69.5 5t42.5 16q30 20 30 60q0 37 -21 54q-11 9 -37 18.5
t-58 19.5l-129 41q-39 13 -66 25t-49 30q-63 53 -63 154zM240 950h168l147 -154h-151l-81 81l-81 -81h-149z" />
    <glyph glyph-name="scircumflex" unicode="&#x15d;" horiz-adv-x="528" 
d="M41 378q0 36 11 68t37 55t66 33.5t104 10.5q24 0 54 -3.5t59 -8t54 -10t38 -8.5v-133q-15 4 -39.5 9.5t-52.5 11t-57 9.5t-53 4q-28 0 -41 -2.5t-21 -7.5t-10 -12t-2 -16q0 -20 18 -28q10 -5 21.5 -8t26.5 -7l91 -24q40 -11 64 -23.5t41 -29.5t27 -46t10 -61
q0 -39 -10.5 -66.5t-36.5 -50.5q-28 -25 -73.5 -38t-113.5 -13q-25 0 -55.5 3t-60 7t-54 8.5t-36.5 6.5v133q14 -3 38.5 -8t54.5 -9.5t63.5 -8t65.5 -3.5q20 0 34 1.5t23 7.5q14 9 14 29q0 19 -16 28q-8 5 -23 9t-38 10l-95 26q-35 10 -56 21t-37 29q-15 17 -24.5 44
t-9.5 61zM179 754h168l147 -154h-151l-81 81l-81 -81h-149z" />
    <glyph glyph-name="Scedilla" unicode="&#x15e;" horiz-adv-x="649" 
d="M37 547q0 62 18.5 104.5t59.5 73.5q36 28 85 37t110 9q33 0 71 -4.5t75.5 -11t72 -13.5t59.5 -13v-144q-25 6 -61.5 13.5t-75 14.5t-74.5 12t-61 5q-39 0 -63 -3.5t-40 -15.5q-14 -11 -19 -24t-5 -30q0 -20 4.5 -33t16.5 -22q14 -10 31.5 -16.5t48.5 -16.5l130 -41
q42 -14 74 -26.5t55 -32.5q30 -26 46.5 -66.5t16.5 -89.5q0 -110 -76 -170q-40 -32 -93 -46t-137 -14q-31 0 -66.5 3.5t-70 8.5t-67 10.5t-58.5 10.5v146q30 -6 65 -12.5t71 -12.5t71.5 -9.5t66.5 -3.5q44 0 69.5 5t42.5 16q30 20 30 60q0 37 -21 54q-11 9 -37 18.5
t-58 19.5l-129 41q-39 13 -66 25t-49 30q-63 53 -63 154zM181 -205l93 145h144l-92 -145h-145z" />
    <glyph glyph-name="scedilla" unicode="&#x15f;" horiz-adv-x="528" 
d="M41 378q0 36 11 68t37 55t66 33.5t104 10.5q24 0 54 -3.5t59 -8t54 -10t38 -8.5v-133q-15 4 -39.5 9.5t-52.5 11t-57 9.5t-53 4q-28 0 -41 -2.5t-21 -7.5t-10 -12t-2 -16q0 -20 18 -28q10 -5 21.5 -8t26.5 -7l91 -24q40 -11 64 -23.5t41 -29.5t27 -46t10 -61
q0 -39 -10.5 -66.5t-36.5 -50.5q-28 -25 -73.5 -38t-113.5 -13q-25 0 -55.5 3t-60 7t-54 8.5t-36.5 6.5v133q14 -3 38.5 -8t54.5 -9.5t63.5 -8t65.5 -3.5q20 0 34 1.5t23 7.5q14 9 14 29q0 19 -16 28q-8 5 -23 9t-38 10l-95 26q-35 10 -56 21t-37 29q-15 17 -24.5 44
t-9.5 61zM118 -205l93 145h144l-92 -145h-145z" />
    <glyph glyph-name="Scaron" unicode="&#x160;" horiz-adv-x="649" 
d="M37 547q0 62 18.5 104.5t59.5 73.5q36 28 85 37t110 9q33 0 71 -4.5t75.5 -11t72 -13.5t59.5 -13v-144q-25 6 -61.5 13.5t-75 14.5t-74.5 12t-61 5q-39 0 -63 -3.5t-40 -15.5q-14 -11 -19 -24t-5 -30q0 -20 4.5 -33t16.5 -22q14 -10 31.5 -16.5t48.5 -16.5l130 -41
q42 -14 74 -26.5t55 -32.5q30 -26 46.5 -66.5t16.5 -89.5q0 -110 -76 -170q-40 -32 -93 -46t-137 -14q-31 0 -66.5 3.5t-70 8.5t-67 10.5t-58.5 10.5v146q30 -6 65 -12.5t71 -12.5t71.5 -9.5t66.5 -3.5q44 0 69.5 5t42.5 16q30 20 30 60q0 37 -21 54q-11 9 -37 18.5
t-58 19.5l-129 41q-39 13 -66 25t-49 30q-63 53 -63 154zM90 950h151l81 -81l81 81h149l-147 -154h-168z" />
    <glyph glyph-name="scaron" unicode="&#x161;" horiz-adv-x="528" 
d="M41 378q0 36 11 68t37 55t66 33.5t104 10.5q24 0 54 -3.5t59 -8t54 -10t38 -8.5v-133q-15 4 -39.5 9.5t-52.5 11t-57 9.5t-53 4q-28 0 -41 -2.5t-21 -7.5t-10 -12t-2 -16q0 -20 18 -28q10 -5 21.5 -8t26.5 -7l91 -24q40 -11 64 -23.5t41 -29.5t27 -46t10 -61
q0 -39 -10.5 -66.5t-36.5 -50.5q-28 -25 -73.5 -38t-113.5 -13q-25 0 -55.5 3t-60 7t-54 8.5t-36.5 6.5v133q14 -3 38.5 -8t54.5 -9.5t63.5 -8t65.5 -3.5q20 0 34 1.5t23 7.5q14 9 14 29q0 19 -16 28q-8 5 -23 9t-38 10l-95 26q-35 10 -56 21t-37 29q-15 17 -24.5 44
t-9.5 61zM32 754h151l81 -81l81 81h149l-147 -154h-168z" />
    <glyph glyph-name="uni0162" unicode="&#x162;" horiz-adv-x="676" 
d="M10 754h656v-142h-253v-612h-150v612h-253v142zM193 -205l93 145h144l-92 -145h-145z" />
    <glyph glyph-name="uni0163" unicode="&#x163;" horiz-adv-x="390" 
d="M65 668h146v-147h164v-134h-164v-154q0 -19 0.5 -34t3.5 -28q2 -11 9.5 -20.5t25.5 -14.5q20 -6 46 -8l52 -4v-131q-57 2 -107.5 7t-86.5 16q-33 11 -50.5 27t-25.5 37q-10 25 -11.5 56t-1.5 90v442zM42 -205l93 145h144l-92 -145h-145z" />
    <glyph glyph-name="Tcaron" unicode="&#x164;" horiz-adv-x="676" 
d="M10 754h656v-142h-253v-612h-150v612h-253v142zM108 950h151l81 -81l81 81h149l-147 -154h-168z" />
    <glyph glyph-name="tcaron" unicode="&#x165;" horiz-adv-x="390" 
d="M211 668v-147h164v-134h-164v-154q0 -19 0.5 -34t3.5 -28q2 -11 9.5 -20.5t25.5 -14.5q20 -6 46 -8l52 -4v-131q-57 2 -107.5 7t-86.5 16q-33 11 -50.5 27t-25.5 37q-10 25 -11.5 56t-1.5 90v442h146zM385 754v-59q0 -39 -7.5 -69t-18.5 -57h-94v185h120z" />
    <glyph glyph-name="Tbar" unicode="&#x166;" horiz-adv-x="676" 
d="M666 754v-142h-253v-171h130v-139h-130v-302h-150v302h-130v139h130v171h-253v142h656z" />
    <glyph glyph-name="tbar" unicode="&#x167;" horiz-adv-x="420" 
d="M211 668v-147h164v-117h-164v-55h164v-117h-164v-10q0 -31 4 -51q2 -11 9.5 -20.5t25.5 -14.5q20 -6 47.5 -8t50.5 -4v-131q-57 2 -107.5 7t-86.5 16q-33 11 -50.5 27t-25.5 37q-10 25 -11.5 56t-1.5 90v442h146z" />
    <glyph glyph-name="Utilde" unicode="&#x168;" horiz-adv-x="739" 
d="M220 754v-463q0 -51 5.5 -84t28.5 -54q19 -17 50 -22.5t66 -5.5t65 5t49 22q23 20 29 53t6 86v463h150v-460q0 -85 -13.5 -141t-53.5 -97q-42 -42 -98 -57.5t-134 -15.5q-85 0 -140 15.5t-96 59.5q-39 42 -51.5 100t-12.5 136v460h150zM143 804q14 43 28.5 72.5t32 47.5
t39 26t49.5 8q26 0 51.5 -10.5t57.5 -27.5q28 -15 39.5 -20t25.5 -5q12 0 21.5 9t21.5 35h105q-12 -30 -25.5 -56t-30.5 -45.5t-39 -31t-51 -11.5q-50 0 -106 34q-26 16 -40.5 22t-27.5 6q-17 0 -25 -10.5t-21 -42.5h-105z" />
    <glyph glyph-name="utilde" unicode="&#x169;" horiz-adv-x="602" 
d="M64 218v310h146v-303q0 -26 1.5 -48.5t12.5 -35.5q9 -11 25 -15t36 -4q33 0 60 4t46 9v393h146v-503q-21 -5 -51.5 -12.5t-66.5 -14t-75.5 -11t-78.5 -4.5q-57 0 -93.5 16.5t-58.5 39.5q-25 27 -37 68.5t-12 110.5zM74 608q14 43 28.5 72.5t32 47.5t39 26t49.5 8
q26 0 51.5 -10.5t57.5 -27.5q28 -15 39.5 -20t25.5 -5q12 0 21.5 9t21.5 35h105q-12 -30 -25.5 -56t-30.5 -45.5t-39 -31t-51 -11.5q-50 0 -106 34q-26 16 -40.5 22t-27.5 6q-17 0 -25 -10.5t-21 -42.5h-105z" />
    <glyph glyph-name="Umacron" unicode="&#x16a;" horiz-adv-x="739" 
d="M220 754v-463q0 -51 5.5 -84t28.5 -54q19 -17 50 -22.5t66 -5.5t65 5t49 22q23 20 29 53t6 86v463h150v-460q0 -85 -13.5 -141t-53.5 -97q-42 -42 -98 -57.5t-134 -15.5q-85 0 -140 15.5t-96 59.5q-39 42 -51.5 100t-12.5 136v460h150zM166 821v101h404v-101h-404z" />
    <glyph glyph-name="umacron" unicode="&#x16b;" horiz-adv-x="602" 
d="M64 218v310h146v-303q0 -26 1.5 -48.5t12.5 -35.5q9 -11 25 -15t36 -4q33 0 60 4t46 9v393h146v-503q-21 -5 -51.5 -12.5t-66.5 -14t-75.5 -11t-78.5 -4.5q-57 0 -93.5 16.5t-58.5 39.5q-25 27 -37 68.5t-12 110.5zM97 625v101h404v-101h-404z" />
    <glyph glyph-name="Ubreve" unicode="&#x16c;" horiz-adv-x="739" 
d="M220 754v-463q0 -51 5.5 -84t28.5 -54q19 -17 50 -22.5t66 -5.5t65 5t49 22q23 20 29 53t6 86v463h150v-460q0 -85 -13.5 -141t-53.5 -97q-42 -42 -98 -57.5t-134 -15.5q-85 0 -140 15.5t-96 59.5q-39 42 -51.5 100t-12.5 136v460h150zM295 950q5 -19 16 -36
q18 -28 59 -28q44 0 61 28q5 8 8.5 17.5t5.5 18.5h120q-6 -31 -17 -58t-30 -47q-24 -26 -59 -39.5t-89 -13.5q-99 0 -145 51q-19 21 -30.5 48t-19.5 59h120z" />
    <glyph glyph-name="ubreve" unicode="&#x16d;" horiz-adv-x="602" 
d="M64 218v310h146v-303q0 -26 1.5 -48.5t12.5 -35.5q9 -11 25 -15t36 -4q33 0 60 4t46 9v393h146v-503q-21 -5 -51.5 -12.5t-66.5 -14t-75.5 -11t-78.5 -4.5q-57 0 -93.5 16.5t-58.5 39.5q-25 27 -37 68.5t-12 110.5zM227 754q5 -19 16 -36q18 -28 59 -28q44 0 61 28
q5 8 8.5 17.5t5.5 18.5h120q-6 -31 -17 -58t-30 -47q-24 -26 -59 -39.5t-89 -13.5q-99 0 -145 51q-19 21 -30.5 48t-19.5 59h120z" />
    <glyph glyph-name="Uring" unicode="&#x16e;" horiz-adv-x="739" 
d="M220 754v-463q0 -51 5.5 -84t28.5 -54q19 -17 50 -22.5t66 -5.5t65 5t49 22q23 20 29 53t6 86v463h150v-460q0 -85 -13.5 -141t-53.5 -97q-42 -42 -98 -57.5t-134 -15.5q-85 0 -140 15.5t-96 59.5q-39 42 -51.5 100t-12.5 136v460h150zM257 966q20 20 48.5 29.5t62.5 9.5
t62.5 -9.5t48.5 -29.5t27 -43t7 -49q0 -29 -10.5 -56t-31.5 -44q-37 -30 -103 -30q-65 0 -103 30q-21 17 -31.5 44t-10.5 56q0 26 7 49t27 43zM310 874q0 -24 14 -37q15 -14 44 -14t44 14q14 13 14 37q0 11 -3 21t-12 18q-14 13 -43 13t-43 -13q-9 -8 -12 -18t-3 -21z" />
    <glyph glyph-name="uring" unicode="&#x16f;" horiz-adv-x="602" 
d="M64 218v310h146v-303q0 -26 1.5 -48.5t12.5 -35.5q9 -11 25 -15t36 -4q33 0 60 4t46 9v393h146v-503q-21 -5 -51.5 -12.5t-66.5 -14t-75.5 -11t-78.5 -4.5q-57 0 -93.5 16.5t-58.5 39.5q-25 27 -37 68.5t-12 110.5zM193 795q20 20 48.5 29.5t62.5 9.5t62.5 -9.5
t48.5 -29.5t27 -43t7 -49q0 -29 -10.5 -56t-31.5 -44q-37 -30 -103 -30q-65 0 -103 30q-21 17 -31.5 44t-10.5 56q0 26 7 49t27 43zM246 703q0 -24 14 -37q15 -14 44 -14t44 14q14 13 14 37q0 11 -3 21t-12 18q-14 13 -43 13t-43 -13q-9 -8 -12 -18t-3 -21z" />
    <glyph glyph-name="Uhungarumlaut" unicode="&#x170;" horiz-adv-x="739" 
d="M220 754v-463q0 -51 5.5 -84t28.5 -54q19 -17 50 -22.5t66 -5.5t65 5t49 22q23 20 29 53t6 86v463h150v-460q0 -85 -13.5 -141t-53.5 -97q-42 -42 -98 -57.5t-134 -15.5q-85 0 -140 15.5t-96 59.5q-39 42 -51.5 100t-12.5 136v460h150zM490 950h143l-111 -154h-137z
M170 796l105 154h143l-111 -154h-137z" />
    <glyph glyph-name="uhungarumlaut" unicode="&#x171;" horiz-adv-x="602" 
d="M64 218v310h146v-303q0 -26 1.5 -48.5t12.5 -35.5q9 -11 25 -15t36 -4q33 0 60 4t46 9v393h146v-503q-21 -5 -51.5 -12.5t-66.5 -14t-75.5 -11t-78.5 -4.5q-57 0 -93.5 16.5t-58.5 39.5q-25 27 -37 68.5t-12 110.5zM428 754h143l-111 -154h-137zM108 600l105 154h143
l-111 -154h-137z" />
    <glyph glyph-name="Uogonek" unicode="&#x172;" horiz-adv-x="739" 
d="M220 754v-464q0 -51 5.5 -83.5t28.5 -53.5q19 -17 50 -22.5t66 -5.5t65 5t49 22q23 20 29 52.5t6 85.5v464h150v-460q0 -85 -13 -141t-54 -97q-14 -14 -29 -24t-33 -21q-21 -12 -47.5 -31t-41.5 -33q-25 -24 -25 -40q0 -11 7 -14t18 -3q15 0 35 6t36 11v-97
q-20 -6 -49 -12.5t-63 -6.5q-39 0 -63 5.5t-39 16.5t-22.5 28.5t-7.5 39.5q0 19 7.5 35.5t26.5 36.5q8 9 18 17t19 14h-14q-11 0 -34.5 1.5t-52.5 9t-59.5 22.5t-54.5 41q-39 42 -51.5 100t-12.5 136v460h150z" />
    <glyph glyph-name="uogonek" unicode="&#x173;" horiz-adv-x="602" 
d="M64 528h146v-303q0 -26 1.5 -48.5t12.5 -35.5q9 -11 25 -15t36 -4q33 0 60 4t46 9v393h146v-503q-13 -12 -32 -33t-36 -40q-25 -28 -25 -45q0 -11 7 -14t18 -3q15 0 34.5 6t33.5 11v-97q-20 -6 -47.5 -12.5t-61.5 -6.5q-39 0 -63 5.5t-39 16.5t-22.5 28.5t-7.5 39.5
q0 19 8 34.5t27 35.5q9 10 21.5 21.5t23.5 19.5q-27 -4 -55 -6.5t-56 -2.5q-57 0 -93.5 16.5t-58.5 39.5q-25 27 -37 68.5t-12 110.5v310z" />
    <glyph glyph-name="Wcircumflex" unicode="&#x174;" horiz-adv-x="949" 
d="M12 754h154l110 -557l124 443h152l122 -443l112 557h151l-153 -754h-190l-119 431l-119 -431h-192zM394 950h168l147 -154h-151l-81 81l-81 -81h-149z" />
    <glyph glyph-name="wcircumflex" unicode="&#x175;" horiz-adv-x="872" 
d="M4 528h147l103 -381l105 381h157l106 -381l102 381h144l-146 -528h-190l-97 353l-93 -353h-192zM353 754h168l147 -154h-151l-81 81l-81 -81h-149z" />
    <glyph glyph-name="Ycircumflex" unicode="&#x176;" horiz-adv-x="665" 
d="M158 754l179 -312l179 312h164l-272 -467v-287h-150v287l-273 467h173zM252 950h168l147 -154h-151l-81 81l-81 -81h-149z" />
    <glyph glyph-name="ycircumflex" unicode="&#x177;" horiz-adv-x="588" 
d="M160 528l136 -347l136 347h156l-292 -720h-154l75 185l-217 535h160zM210 754h168l147 -154h-151l-81 81l-81 -81h-149z" />
    <glyph glyph-name="Ydieresis" unicode="&#x178;" horiz-adv-x="665" 
d="M158 754l179 -312l179 312h164l-272 -467v-287h-150v287l-273 467h173zM538 950v-154h-139v154h139zM127 796v154h139v-154h-139z" />
    <glyph glyph-name="Zacute" unicode="&#x179;" horiz-adv-x="672" 
d="M36 0v142l398 471h-383v141h578v-142l-398 -471h405v-141h-600zM227 796l141 154h162l-147 -154h-156z" />
    <glyph glyph-name="zacute" unicode="&#x17a;" horiz-adv-x="517" 
d="M26 0v125l255 269h-243v134h440v-124l-254 -270h267v-134h-465zM149 600l141 154h162l-147 -154h-156z" />
    <glyph glyph-name="Zdotaccent" unicode="&#x17b;" horiz-adv-x="672" 
d="M36 0v142l398 471h-383v141h578v-142l-398 -471h405v-141h-600zM262 796v154h148v-154h-148z" />
    <glyph glyph-name="zdotaccent" unicode="&#x17c;" horiz-adv-x="517" 
d="M26 0v125l255 269h-243v134h440v-124l-254 -270h267v-134h-465zM185 600v154h148v-154h-148z" />
    <glyph glyph-name="Zcaron" unicode="&#x17d;" horiz-adv-x="672" 
d="M36 0v142l398 471h-383v141h578v-142l-398 -471h405v-141h-600zM105 950h151l81 -81l81 81h149l-147 -154h-168z" />
    <glyph glyph-name="zcaron" unicode="&#x17e;" horiz-adv-x="517" 
d="M26 0v125l255 269h-243v134h440v-124l-254 -270h267v-134h-465zM28 754h151l81 -81l81 81h149l-147 -154h-168z" />
    <glyph glyph-name="uni018F" unicode="&#x18f;" horiz-adv-x="722" 
d="M55 287q0 51 3 90.5t5 60.5h448q-2 36 -7.5 65.5t-17.5 53.5q-20 41 -59.5 56t-103.5 15q-66 0 -127 -12.5t-115 -26.5v142q61 15 125 27.5t139 12.5q110 0 173.5 -36t97.5 -98q29 -52 39 -115t10 -156q0 -89 -12.5 -149.5t-41.5 -108.5q-14 -24 -36 -46.5t-53.5 -40
t-74 -28t-99.5 -10.5q-75 0 -128.5 18t-86.5 51q-35 35 -56.5 90t-21.5 145zM246 151q30 -27 103 -27q43 0 79.5 14.5t56.5 50.5q13 23 18.5 48.5t7.5 59.5h-303q-1 -7 -1 -15.5v-21.5q0 -37 9 -63t30 -46z" />
    <glyph glyph-name="florin" unicode="&#x192;" horiz-adv-x="415" 
d="M-15 -211v143q18 5 47 15.5t45 21.5q26 17 33 50q5 20 5.5 43.5t0.5 49.5v409q0 21 1.5 48.5t9.5 51.5q15 48 59 78q37 26 94.5 43.5t120.5 30.5v-142q-28 -6 -62 -15.5t-54 -23.5q-11 -8 -15 -16.5t-6 -18.5q-2 -11 -2 -19v-17h140v-134h-140v-275q0 -55 -1.5 -95.5
t-7.5 -62.5q-8 -26 -27.5 -50t-50.5 -43q-40 -24 -93.5 -42.5t-96.5 -29.5z" />
    <glyph glyph-name="uni019D" unicode="&#x19d;" horiz-adv-x="759" 
d="M-86 -215v147q8 3 21 8.5t27.5 12t29 14t24.5 14.5q17 11 29.5 24t20.5 34t9 48t1 52v615h162l301 -504v504h148v-754h-162l-301 504v-376q0 -48 -2.5 -92.5t-16.5 -77.5q-11 -25 -26 -42.5t-46 -36.5q-54 -32 -114 -56t-105 -38z" />
    <glyph glyph-name="Gcaron" unicode="&#x1e6;" horiz-adv-x="723" 
d="M57 366q0 98 13.5 162.5t44.5 114.5q17 26 38.5 49.5t52.5 41t72.5 27.5t96.5 10q61 0 127 -13.5t125 -27.5v-143q-33 8 -71.5 16t-77.5 15q-48 8 -85 8q-66 0 -101 -17.5t-55 -58.5q-16 -32 -22 -74.5t-6 -106.5q0 -63 5.5 -107.5t23.5 -76.5q20 -36 58.5 -49t101.5 -13
q35 0 63.5 2t43.5 4v276h148v-397q-27 -4 -62 -8.5t-72.5 -8t-75.5 -6t-71 -2.5q-57 0 -99 8.5t-72.5 24t-51.5 37t-37 46.5q-29 46 -42 110t-13 157zM130 950h151l81 -81l81 81h149l-147 -154h-168z" />
    <glyph glyph-name="gcaron" unicode="&#x1e7;" horiz-adv-x="609" 
d="M46 263q0 61 9.5 110.5t31.5 83.5q29 45 76 66.5t128 21.5q63 0 127 -18.5t126 -39.5v-422q0 -64 -12.5 -111.5t-44.5 -84.5q-32 -35 -91 -56.5t-144 -21.5q-55 0 -100 4.5t-84 9.5v128q28 -4 78.5 -9.5t105.5 -5.5q37 0 66 9.5t46 23.5t25.5 31t8.5 42v20
q-18 -9 -52 -22q-23 -8 -50.5 -15t-59.5 -7q-51 0 -88 21t-58 53t-32.5 79t-11.5 110zM194 263q0 -28 3 -50t11 -43q8 -22 25.5 -30t43.5 -8q20 0 38 5t34 12q14 6 26 12t23 11v220q-28 9 -52.5 14.5t-48.5 5.5q-32 0 -54.5 -10t-33.5 -33q-8 -19 -11.5 -44.5t-3.5 -61.5z
M71 754h151l81 -81l81 81h149l-147 -154h-168z" />
    <glyph glyph-name="uni01EA" unicode="&#x1ea;" horiz-adv-x="780" 
d="M57 375q0 80 11 148.5t43 119.5q19 30 42 54t55.5 40.5t77 25t104.5 8.5q108 0 172.5 -32t103.5 -97q28 -47 43 -116.5t15 -150.5q0 -96 -17.5 -165t-51.5 -115q-21 -29 -39 -44t-48 -35q-23 -15 -47.5 -34.5t-41.5 -34.5q-25 -24 -25 -40q0 -11 7 -14t18 -3q15 0 35 6
t36 11v-97q-20 -6 -49 -12.5t-63 -6.5q-39 0 -63 5.5t-39 16.5t-22.5 28.5t-7.5 39.5q0 19 8 35.5t26 36.5q17 19 37 32h-26q-31 0 -63.5 5.5t-63 19t-58 35t-49.5 54.5q-60 89 -60 276zM243 184q23 -37 61 -48t86 -11q43 0 77 10t59 41q28 35 37 87t9 112q0 58 -7 105.5
t-29 82.5q-23 38 -60.5 52t-85.5 14q-47 0 -85 -11t-62 -50q-20 -33 -27 -83.5t-7 -109.5t7 -109t27 -82z" />
    <glyph glyph-name="uni01EB" unicode="&#x1eb;" horiz-adv-x="610" 
d="M45 263q0 55 11 104.5t33 81.5q32 47 82 71.5t134 24.5q78 0 130 -24.5t83 -67.5q26 -37 37 -86t11 -104q0 -56 -11 -103.5t-35 -79.5q-12 -16 -25 -29.5t-30 -25.5q-29 -21 -48.5 -37.5t-42.5 -39.5q-25 -25 -25 -41q0 -11 7 -14t18 -3q15 0 35 6t36 11v-97
q-20 -6 -49 -12.5t-63 -6.5q-39 0 -63 5.5t-39 16.5t-22.5 28.5t-7.5 39.5q0 19 7 35.5t27 36.5q9 9 18.5 16.5t18.5 14.5q-69 5 -110 28.5t-70 62.5q-22 30 -34.5 79t-12.5 109zM213 161q14 -25 38 -34.5t54 -9.5q28 0 51 9.5t38 30.5q14 20 19 45.5t5 63.5t-6 63.5
t-21 46.5q-26 35 -86 35q-31 0 -54 -9t-37 -33q-21 -38 -21 -106q0 -65 20 -102z" />
    <glyph glyph-name="Aringacute" unicode="&#x1fa;" horiz-adv-x="747" 
d="M259 711q-10 10 -18 26q-7 14 -10 30.5t-3 33.5q0 26 7 49t27 43t48.5 29.5t62.5 9.5t62.5 -9.5t48.5 -29.5t27 -43t7 -49q0 -17 -3 -34.5t-11 -31.5q-7 -14 -17 -24l259 -711h-163l-50 137h-323l-49 -137h-160zM256 278h229l-115 325zM285 965l92 100h159l-95 -100h-156
zM315 801q0 -24 14 -37q15 -14 44 -14t44 14q14 13 14 37q0 11 -3 21t-12 18q-14 13 -43 13t-43 -13q-9 -8 -12 -18t-3 -21z" />
    <glyph glyph-name="aringacute" unicode="&#x1fb;" horiz-adv-x="609" 
d="M87 454q26 44 73.5 67.5t128.5 23.5q63 0 124.5 -17t130.5 -41v-487h-144v68q-9 -8 -22 -17.5t-29 -20.5q-29 -20 -57 -33.5t-70 -13.5q-48 0 -81.5 21t-55.5 57t-31 83.5t-9 107.5t9 111t33 91zM194 795q20 20 48.5 29.5t62.5 9.5t62.5 -9.5t48.5 -29.5t27 -43t7 -49
q0 -29 -10.5 -56t-31.5 -44q-37 -30 -103 -30q-65 0 -103 30q-21 17 -31.5 44t-10.5 56q0 26 7 49t27 43zM206 153q7 -18 18.5 -25t31.5 -7q22 0 47.5 16t44.5 30q29 21 50 40v187q-17 6 -44 13.5t-54 7.5q-32 0 -54 -9.5t-34 -33.5q-11 -23 -15 -50.5t-4 -69.5q0 -26 3 -53
t10 -46zM229 850l91 100h160l-95 -100h-156zM261 666q15 -14 44 -14t44 14q14 13 14 37q0 11 -3 21t-12 18q-14 13 -43 13t-43 -13q-9 -8 -12 -18t-3 -21q0 -24 14 -37z" />
    <glyph glyph-name="AEacute" unicode="&#x1fc;" horiz-adv-x="1175" 
d="M-10 0l509 754h625v-141h-384v-159h362v-141h-362v-172h401v-141h-551v137h-320l-92 -137h-188zM365 278h225v336zM593 796l141 154h162l-147 -154h-156z" />
    <glyph glyph-name="aeacute" unicode="&#x1fd;" horiz-adv-x="918" 
d="M99 282q20 14 55.5 20t78.5 6h153v35q0 17 -3.5 31t-14.5 23q-16 13 -37 16.5t-49 3.5q-24 0 -54 -3t-60 -7.5t-56 -9.5t-42 -9v124q20 5 48 10.5t58.5 10.5t61.5 8.5t58 3.5q60 0 105 -12.5t68 -40.5q22 24 61 38.5t103 14.5q75 0 124 -19t77 -56q15 -20 23.5 -42
t12 -43t4.5 -40t1 -33q0 -22 -3 -55.5t-7 -52.5h-339q0 -14 2.5 -26.5t12.5 -27.5q16 -24 44.5 -32.5t75.5 -8.5q53 0 101 6t87 12v-124q-37 -6 -90.5 -13t-112.5 -7q-90 0 -138 22t-73 57q-10 -7 -23.5 -15.5t-27.5 -16.5t-26.5 -14.5t-20.5 -10.5q-20 -9 -48.5 -15.5
t-66.5 -6.5q-40 0 -75 8.5t-59 28.5q-25 21 -37 53t-12 70q0 48 13 82t47 57zM734 308q2 12 2 27q0 13 -2.5 28t-12.5 29q-13 19 -35.5 27t-52.5 8q-64 0 -89 -41q-10 -16 -14 -37t-4 -41h208zM183 150q0 -11 1.5 -19.5t9.5 -16.5q15 -15 57 -15q26 0 46.5 7t37.5 18
q28 17 51 34v46h-122q-26 0 -43.5 -3.5t-27.5 -14.5q-7 -8 -8.5 -16.5t-1.5 -19.5zM358 600l141 154h162l-147 -154h-156z" />
    <glyph glyph-name="Oslashacute" unicode="&#x1fe;" horiz-adv-x="780" 
d="M112 643q19 30 42 54t55.5 40.5t76.5 25t104 8.5q104 0 163.5 -28.5t100.5 -85.5q39 -54 54 -126.5t15 -155.5q0 -96 -18 -165t-52 -115q-21 -28 -44.5 -49t-54.5 -35t-71 -21t-93 -7q-60 0 -102.5 7.5t-74 22.5t-54 36.5t-41.5 49.5q-61 91 -61 276q0 80 11.5 148.5
t43.5 119.5zM390 122q43 0 78.5 10t60.5 41q28 35 37 88.5t9 113.5q0 48 -4.5 88t-17.5 72l-258 -399q20 -8 44.5 -11t50.5 -3zM205 375q0 -44 3.5 -83t13.5 -70l256 395q-19 8 -41.5 11.5t-46.5 3.5q-47 0 -87 -11t-64 -50q-20 -33 -27 -85t-7 -111zM274 796l141 154h162
l-147 -154h-156z" />
    <glyph glyph-name="oslashacute" unicode="&#x1ff;" horiz-adv-x="610" 
d="M89 449q32 47 82 71.5t134 24.5q78 0 129.5 -24.5t82.5 -67.5q26 -37 37 -86t11 -104q0 -56 -11.5 -103.5t-34.5 -79.5q-32 -45 -80.5 -71t-133.5 -26q-86 0 -133.5 24t-79.5 68q-22 30 -34.5 79t-12.5 109q0 55 11 104.5t33 81.5zM188 263q0 -44 8 -78l166 221
q-25 10 -57 10q-33 0 -57.5 -9t-38.5 -33q-21 -38 -21 -111zM305 112q64 0 93 40q14 20 19 48t5 66q0 20 -1.5 40.5t-5.5 36.5l-166 -221q12 -5 27 -7.5t29 -2.5zM191 600l141 154h162l-147 -154h-156z" />
    <glyph glyph-name="uni0218" unicode="&#x218;" horiz-adv-x="649" 
d="M37 547q0 62 18.5 104.5t59.5 73.5q36 28 85 37t110 9q33 0 71 -4.5t75.5 -11t72 -13.5t59.5 -13v-144q-25 6 -61.5 13.5t-75 14.5t-74.5 12t-61 5q-39 0 -63 -3.5t-40 -15.5q-14 -11 -19 -24t-5 -30q0 -20 4.5 -33t16.5 -22q14 -10 31.5 -16.5t48.5 -16.5l130 -41
q42 -14 74 -26.5t55 -32.5q30 -26 46.5 -66.5t16.5 -89.5q0 -110 -76 -170q-40 -32 -93 -46t-137 -14q-31 0 -66.5 3.5t-70 8.5t-67 10.5t-58.5 10.5v146q30 -6 65 -12.5t71 -12.5t71.5 -9.5t66.5 -3.5q44 0 69.5 5t42.5 16q30 20 30 60q0 37 -21 54q-11 9 -37 18.5
t-58 19.5l-129 41q-39 13 -66 25t-49 30q-63 53 -63 154zM248 -280q7 32 11.5 66.5t4.5 84.5v79h122v-53q0 -60 -14.5 -105t-28.5 -72h-95z" />
    <glyph glyph-name="uni0219" unicode="&#x219;" horiz-adv-x="528" 
d="M41 378q0 36 11 68t37 55t66 33.5t104 10.5q24 0 54 -3.5t59 -8t54 -10t38 -8.5v-133q-15 4 -39.5 9.5t-52.5 11t-57 9.5t-53 4q-28 0 -41 -2.5t-21 -7.5t-10 -12t-2 -16q0 -20 18 -28q10 -5 21.5 -8t26.5 -7l91 -24q40 -11 64 -23.5t41 -29.5t27 -46t10 -61
q0 -39 -10.5 -66.5t-36.5 -50.5q-28 -25 -73.5 -38t-113.5 -13q-25 0 -55.5 3t-60 7t-54 8.5t-36.5 6.5v133q14 -3 38.5 -8t54.5 -9.5t63.5 -8t65.5 -3.5q20 0 34 1.5t23 7.5q14 9 14 29q0 19 -16 28q-8 5 -23 9t-38 10l-95 26q-35 10 -56 21t-37 29q-15 17 -24.5 44
t-9.5 61zM188 -280q7 32 11.5 66.5t4.5 84.5v79h122v-53q0 -60 -14.5 -105t-28.5 -72h-95z" />
    <glyph glyph-name="uni021A" unicode="&#x21a;" horiz-adv-x="676" 
d="M10 754h656v-142h-253v-612h-150v612h-253v142zM264 -280q7 32 11.5 66.5t4.5 84.5v79h122v-53q0 -60 -14.5 -105t-28.5 -72h-95z" />
    <glyph glyph-name="uni021B" unicode="&#x21b;" horiz-adv-x="390" 
d="M65 668h146v-147h164v-134h-164v-154q0 -19 0.5 -34t3.5 -28q2 -11 9.5 -20.5t25.5 -14.5q20 -6 46 -8l52 -4v-131q-57 2 -107.5 7t-86.5 16q-33 11 -50.5 27t-25.5 37q-10 25 -11.5 56t-1.5 90v442zM106 -280q7 32 11.5 66.5t4.5 84.5v79h122v-53q0 -60 -14.5 -105
t-28.5 -72h-95z" />
    <glyph glyph-name="uni0232" unicode="&#x232;" horiz-adv-x="665" 
d="M158 754l179 -312l179 312h164l-272 -467v-287h-150v287l-273 467h173zM137 821v101h404v-101h-404z" />
    <glyph glyph-name="uni0233" unicode="&#x233;" horiz-adv-x="588" 
d="M160 528l136 -347l136 347h156l-292 -720h-154l75 185l-217 535h160zM93 625v101h404v-101h-404z" />
    <glyph glyph-name="uni0237" unicode="&#x237;" horiz-adv-x="287" 
d="M-55 -80l21 7t25 9t24.5 10.5t19.5 11.5q14 10 21.5 21t11.5 28q5 20 5.5 43.5t0.5 49.5v428h148v-457v-28t-1 -32.5t-3 -32t-5 -26.5q-17 -57 -76 -93q-40 -25 -94.5 -43.5t-97.5 -29.5v134z" />
    <glyph glyph-name="uni0259" unicode="&#x259;" horiz-adv-x="580" 
d="M53 324h339q0 11 -3 25.5t-11 28.5q-14 25 -45 33t-76 8q-53 0 -101 -6t-87 -12v124q38 6 91 13t112 7q89 0 138.5 -21.5t80.5 -65.5q25 -35 34.5 -82t9.5 -107q0 -48 -7.5 -100t-33.5 -94q-58 -92 -209 -92q-75 0 -124 19t-77 56q-15 20 -23.5 42t-12 43t-4.5 40t-1 33
q0 22 3 55.5t7 52.5zM182 193q0 -13 2.5 -28t12.5 -29q13 -19 35.5 -27t52.5 -8q65 0 90 41q10 16 13.5 37t3.5 41h-208q-2 -12 -2 -27z" />
    <glyph glyph-name="uni0272" unicode="&#x272;" horiz-adv-x="604" 
d="M-64 -211v135q18 5 47 15.5t45 21.5q14 10 21.5 21t10.5 28q4 20 4.5 36t0.5 33v449h146v-29q12 5 33 12.5t44 15t47 13t42 5.5q37 0 65.5 -9.5t50.5 -32.5q24 -25 35.5 -66t11.5 -121v-316h-146v309q0 26 -1.5 46.5t-12.5 34.5q-8 11 -21.5 12.5t-27.5 1.5
q-13 0 -29.5 -4t-33.5 -9t-32 -11l-25 -10v-274q0 -45 -2.5 -81.5t-10.5 -59.5q-9 -26 -25 -48.5t-45 -41.5q-40 -26 -94.5 -45.5t-97.5 -30.5z" />
    <glyph glyph-name="circumflex" unicode="&#x2c6;" 
d="M166 754h168l147 -154h-151l-81 81l-81 -81h-149z" />
    <glyph glyph-name="caron" unicode="&#x2c7;" 
d="M19 754h151l81 -81l81 81h149l-147 -154h-168z" />
    <glyph glyph-name="breve" unicode="&#x2d8;" 
d="M175 754q5 -19 16 -36q18 -28 59 -28q44 0 61 28q5 8 8.5 17.5t5.5 18.5h120q-6 -31 -17 -58t-30 -47q-24 -26 -59 -39.5t-89 -13.5q-99 0 -145 51q-19 21 -30.5 48t-19.5 59h120z" />
    <glyph glyph-name="dotaccent" unicode="&#x2d9;" 
d="M176 600v154h148v-154h-148z" />
    <glyph glyph-name="ring" unicode="&#x2da;" 
d="M139 795q20 20 48.5 29.5t62.5 9.5t62.5 -9.5t48.5 -29.5t27 -43t7 -49q0 -29 -10.5 -56t-31.5 -44q-37 -30 -103 -30q-65 0 -103 30q-21 17 -31.5 44t-10.5 56q0 26 7 49t27 43zM192 703q0 -24 14 -37q15 -14 44 -14t44 14q14 13 14 37q0 11 -3 21t-12 18q-14 13 -43 13
t-43 -13q-9 -8 -12 -18t-3 -21z" />
    <glyph glyph-name="ogonek" unicode="&#x2db;" 
d="M256 -119q0 19 7 35.5t27 36.5q15 15 31.5 26.5t29.5 20.5h149q-14 -10 -34 -24t-37 -29q-25 -24 -25 -40q0 -11 7 -14t18 -3q15 0 35 6t36 11v-97q-20 -6 -49 -12.5t-63 -6.5q-39 0 -63 5.5t-39 16.5t-22.5 28.5t-7.5 39.5z" />
    <glyph glyph-name="tilde" unicode="&#x2dc;" 
d="M15 608q14 43 28.5 72.5t32 47.5t39 26t49.5 8q26 0 51.5 -10.5t57.5 -27.5q28 -15 39.5 -20t25.5 -5q12 0 21.5 9t21.5 35h105q-12 -30 -25.5 -56t-30.5 -45.5t-39 -31t-51 -11.5q-50 0 -106 34q-26 16 -40.5 22t-27.5 6q-17 0 -25 -10.5t-21 -42.5h-105z" />
    <glyph glyph-name="hungarumlaut" unicode="&#x2dd;" 
d="M349 754h143l-111 -154h-137zM29 600l105 154h143l-111 -154h-137z" />
    <glyph glyph-name="uni0326" unicode="&#x326;" 
d="M172 -280q7 32 11.5 66.5t4.5 84.5v79h122v-53q0 -60 -14.5 -105t-28.5 -72h-95z" />
    <glyph glyph-name="pi" unicode="&#x3c0;" horiz-adv-x="670" 
d="M654 528v-137h-98v-170q0 -23 0.5 -39t2.5 -28q4 -22 30 -29q14 -4 27.5 -5.5t23.5 -2.5v-124q-22 1 -63.5 4t-77.5 13q-33 9 -51 27t-26 39q-9 25 -10.5 55.5t-1.5 89.5v170h-157v-391h-146v391h-98v137h645z" />
    <glyph glyph-name="Wgrave" unicode="&#x1e80;" horiz-adv-x="949" 
d="M12 754h154l110 -557l124 443h152l122 -443l112 557h151l-153 -754h-190l-119 431l-119 -431h-192zM439 796l-145 154h162l139 -154h-156z" />
    <glyph glyph-name="wgrave" unicode="&#x1e81;" horiz-adv-x="872" 
d="M4 528h147l103 -381l105 381h157l106 -381l102 381h144l-146 -528h-190l-97 353l-93 -353h-192zM401 600l-145 154h162l139 -154h-156z" />
    <glyph glyph-name="Wacute" unicode="&#x1e82;" horiz-adv-x="949" 
d="M12 754h154l110 -557l124 443h152l122 -443l112 557h151l-153 -754h-190l-119 431l-119 -431h-192zM365 796l141 154h162l-147 -154h-156z" />
    <glyph glyph-name="wacute" unicode="&#x1e83;" horiz-adv-x="872" 
d="M4 528h147l103 -381l105 381h157l106 -381l102 381h144l-146 -528h-190l-97 353l-93 -353h-192zM328 600l141 154h162l-147 -154h-156z" />
    <glyph glyph-name="Wdieresis" unicode="&#x1e84;" horiz-adv-x="949" 
d="M12 754h154l110 -557l124 443h152l122 -443l112 557h151l-153 -754h-190l-119 431l-119 -431h-192zM536 950h139v-154h-139v154zM418 950v-154h-139v154h139z" />
    <glyph glyph-name="wdieresis" unicode="&#x1e85;" horiz-adv-x="872" 
d="M4 528h147l103 -381l105 381h157l106 -381l102 381h144l-146 -528h-190l-97 353l-93 -353h-192zM494 754h139v-154h-139v154zM376 754v-154h-139v154h139z" />
    <glyph glyph-name="Germandbls" unicode="&#x1e9e;" horiz-adv-x="794" 
d="M70 366q0 88 4.5 155t31.5 117q16 30 38.5 54.5t55.5 42t79 27t110 9.5q84 0 167 -13t144 -28v-138l-104 -163l35 -21q18 -11 35.5 -22t34.5 -28q26 -24 42 -62t16 -80q0 -53 -16 -97t-54 -76q-40 -33 -89 -46.5t-130 -13.5q-50 0 -88.5 6t-68.5 12v145q38 -8 79 -15
t86 -7q40 0 64.5 4.5t40.5 16.5q14 11 19.5 27t5.5 35q0 17 -4.5 30.5t-15.5 24.5q-12 12 -35 25.5t-49 27.5l-111 61l151 238q-20 5 -59.5 10t-80.5 5q-72 0 -107.5 -13t-55.5 -49q-16 -28 -18.5 -75.5t-2.5 -102.5v-389h-150v366z" />
    <glyph glyph-name="uni1EA0" unicode="&#x1ea0;" horiz-adv-x="747" 
d="M1 0l274 754h196l275 -754h-163l-50 137h-323l-49 -137h-160zM256 278h229l-115 325zM299 -192v154h148v-154h-148z" />
    <glyph glyph-name="uni1EA1" unicode="&#x1ea1;" horiz-adv-x="609" 
d="M87 454q26 44 73.5 67.5t128.5 23.5q63 0 124.5 -17t130.5 -41v-487h-144v68q-9 -8 -22 -17.5t-29 -20.5q-29 -20 -57 -33.5t-70 -13.5q-48 0 -81.5 21t-55.5 57t-31 83.5t-9 107.5t9 111t33 91zM206 153q7 -18 18.5 -25t31.5 -7q22 0 47.5 16t44.5 30q29 21 50 40v187
q-17 6 -44 13.5t-54 7.5q-32 0 -54 -9.5t-34 -33.5q-11 -23 -15 -50.5t-4 -69.5q0 -26 3 -53t10 -46zM225 -192v154h148v-154h-148z" />
    <glyph glyph-name="uni1EB8" unicode="&#x1eb8;" horiz-adv-x="657" 
d="M606 754v-141h-384v-159h362v-141h-362v-172h401v-141h-551v754h534zM269 -192v154h148v-154h-148z" />
    <glyph glyph-name="uni1EB9" unicode="&#x1eb9;" horiz-adv-x="580" 
d="M45 259q0 48 7 99.5t33 93.5q57 93 210 93q75 0 124 -19t77 -56q15 -20 23.5 -42t12 -43t4.5 -40t1 -33q0 -22 -3 -55.5t-7 -52.5h-339q0 -14 3 -27t13 -27q17 -23 46 -32t73 -9q52 0 100 6t88 12v-124q-38 -6 -91.5 -13t-111.5 -7q-45 0 -78.5 5.5t-59.5 16.5t-45 27
t-35 38q-26 35 -35.5 79.5t-9.5 109.5zM188 308h208q2 12 2 27q0 13 -2.5 28t-12.5 29q-13 19 -35.5 27t-52.5 8q-64 0 -89 -41q-10 -16 -14 -37t-4 -41zM219 -206v154h148v-154h-148z" />
    <glyph glyph-name="uni1EBC" unicode="&#x1ebc;" horiz-adv-x="657" 
d="M606 754v-141h-384v-159h362v-141h-362v-172h401v-141h-551v754h534zM109 804q14 43 28.5 72.5t32 47.5t39 26t49.5 8q26 0 51.5 -10.5t57.5 -27.5q28 -15 39.5 -20t25.5 -5q12 0 21.5 9t21.5 35h105q-12 -30 -25.5 -56t-30.5 -45.5t-39 -31t-51 -11.5q-50 0 -106 34
q-26 16 -40.5 22t-27.5 6q-17 0 -25 -10.5t-21 -42.5h-105z" />
    <glyph glyph-name="uni1EBD" unicode="&#x1ebd;" horiz-adv-x="580" 
d="M45 259q0 48 7 99.5t33 93.5q57 93 210 93q75 0 124 -19t77 -56q15 -20 23.5 -42t12 -43t4.5 -40t1 -33q0 -22 -3 -55.5t-7 -52.5h-339q0 -14 3 -27t13 -27q17 -23 46 -32t73 -9q52 0 100 6t88 12v-124q-38 -6 -91.5 -13t-111.5 -7q-45 0 -78.5 5.5t-59.5 16.5t-45 27
t-35 38q-26 35 -35.5 79.5t-9.5 109.5zM188 308h208q2 12 2 27q0 13 -2.5 28t-12.5 29q-13 19 -35.5 27t-52.5 8q-64 0 -89 -41q-10 -16 -14 -37t-4 -41zM67 608q14 43 28.5 72.5t32 47.5t39 26t49.5 8q26 0 51.5 -10.5t57.5 -27.5q28 -15 39.5 -20t25.5 -5q12 0 21.5 9
t21.5 35h105q-12 -30 -25.5 -56t-30.5 -45.5t-39 -31t-51 -11.5q-50 0 -106 34q-26 16 -40.5 22t-27.5 6q-17 0 -25 -10.5t-21 -42.5h-105z" />
    <glyph glyph-name="uni1ECA" unicode="&#x1eca;" horiz-adv-x="294" 
d="M72 0v754h150v-754h-150zM73 -192v154h148v-154h-148z" />
    <glyph glyph-name="uni1ECB" unicode="&#x1ecb;" horiz-adv-x="276" 
d="M65 0v528h146v-528h-146zM211 754v-154h-146v154h146zM65 -192v154h148v-154h-148z" />
    <glyph glyph-name="uni1ECC" unicode="&#x1ecc;" horiz-adv-x="780" 
d="M112 643q19 30 42 54t55.5 40.5t76.5 25t104 8.5q104 0 163.5 -28.5t100.5 -85.5q39 -54 54 -126.5t15 -155.5q0 -96 -18 -165t-52 -115q-21 -28 -44.5 -49t-54.5 -35t-71 -21t-93 -7q-60 0 -102.5 7.5t-74 22.5t-54 36.5t-41.5 49.5q-61 91 -61 276q0 80 11.5 148.5
t43.5 119.5zM209 375q0 -59 7 -109t27 -82q23 -37 61 -48t86 -11q43 0 76.5 10t58.5 41q28 35 37 87t9 112q0 58 -7 105.5t-29 82.5q-23 38 -60 52t-85 14q-47 0 -85 -11t-62 -50q-20 -33 -27 -83.5t-7 -109.5zM311 -192v154h148v-154h-148z" />
    <glyph glyph-name="uni1ECD" unicode="&#x1ecd;" horiz-adv-x="610" 
d="M89 449q32 47 82 71.5t134 24.5q78 0 129.5 -24.5t82.5 -67.5q26 -37 37 -86t11 -104q0 -56 -11.5 -103.5t-34.5 -79.5q-32 -45 -80.5 -71t-133.5 -26q-86 0 -133.5 24t-79.5 68q-22 30 -34.5 79t-12.5 109q0 55 11 104.5t33 81.5zM193 263q0 -65 20 -102
q14 -25 38 -34.5t54 -9.5q59 0 88 40q14 20 19 45.5t5 63.5q0 34 -5.5 61.5t-20.5 48.5q-25 35 -86 35q-31 0 -54 -9t-37 -33q-21 -38 -21 -106zM231 -192v154h148v-154h-148z" />
    <glyph glyph-name="uni1EE4" unicode="&#x1ee4;" horiz-adv-x="739" 
d="M220 754v-463q0 -51 5.5 -84t28.5 -54q19 -17 50 -22.5t66 -5.5t65 5t49 22q23 20 29 53t6 86v463h150v-460q0 -85 -13.5 -141t-53.5 -97q-42 -42 -98 -57.5t-134 -15.5q-85 0 -140 15.5t-96 59.5q-39 42 -51.5 100t-12.5 136v460h150zM295 -192v154h148v-154h-148z" />
    <glyph glyph-name="uni1EE5" unicode="&#x1ee5;" horiz-adv-x="602" 
d="M64 218v310h146v-303q0 -26 1.5 -48.5t12.5 -35.5q9 -11 25 -15t36 -4q33 0 60 4t46 9v393h146v-503q-21 -5 -51.5 -12.5t-66.5 -14t-75.5 -11t-78.5 -4.5q-57 0 -93.5 16.5t-58.5 39.5q-25 27 -37 68.5t-12 110.5zM229 -192v154h148v-154h-148z" />
    <glyph glyph-name="Ygrave" unicode="&#x1ef2;" horiz-adv-x="665" 
d="M158 754l179 -312l179 312h164l-272 -467v-287h-150v287l-273 467h173zM296 796l-145 154h162l139 -154h-156z" />
    <glyph glyph-name="ygrave" unicode="&#x1ef3;" horiz-adv-x="588" 
d="M160 528l136 -347l136 347h156l-292 -720h-154l75 185l-217 535h160zM253 600l-145 154h162l139 -154h-156z" />
    <glyph glyph-name="uni1EF8" unicode="&#x1ef8;" horiz-adv-x="665" 
d="M158 754l179 -312l179 312h164l-272 -467v-287h-150v287l-273 467h173zM105 804q14 43 28.5 72.5t32 47.5t39 26t49.5 8q26 0 51.5 -10.5t57.5 -27.5q28 -15 39.5 -20t25.5 -5q12 0 21.5 9t21.5 35h105q-12 -30 -25.5 -56t-30.5 -45.5t-39 -31t-51 -11.5q-50 0 -106 34
q-26 16 -40.5 22t-27.5 6q-17 0 -25 -10.5t-21 -42.5h-105z" />
    <glyph glyph-name="uni1EF9" unicode="&#x1ef9;" horiz-adv-x="588" 
d="M160 528l136 -347l136 347h156l-292 -720h-154l75 185l-217 535h160zM70 608q14 43 28.5 72.5t32 47.5t39 26t49.5 8q26 0 51.5 -10.5t57.5 -27.5q28 -15 39.5 -20t25.5 -5q12 0 21.5 9t21.5 35h105q-12 -30 -25.5 -56t-30.5 -45.5t-39 -31t-51 -11.5q-50 0 -106 34
q-26 16 -40.5 22t-27.5 6q-17 0 -25 -10.5t-21 -42.5h-105z" />
    <glyph glyph-name="endash" unicode="&#x2013;" horiz-adv-x="600" 
d="M50 196v142h500v-142h-500z" />
    <glyph glyph-name="emdash" unicode="&#x2014;" horiz-adv-x="1000" 
d="M0 196v142h1000v-142h-1000z" />
    <glyph glyph-name="quoteleft" unicode="&#x2018;" horiz-adv-x="290" 
d="M67 539q0 71 19 127t36 88h109q-8 -38 -15 -84t-7 -107v-167h-142v143z" />
    <glyph glyph-name="quoteright" unicode="&#x2019;" horiz-adv-x="290" 
d="M59 396q8 38 15 84t7 107v167h142v-143q0 -71 -19 -127t-36 -88h-109z" />
    <glyph glyph-name="quotesinglbase" unicode="&#x201a;" horiz-adv-x="290" 
d="M59 -188q8 38 15 84t7 107v167h142v-143q0 -71 -19 -127t-36 -88h-109z" />
    <glyph glyph-name="quotedblleft" unicode="&#x201c;" horiz-adv-x="512" 
d="M289 396v143q0 71 19 127t36 88h109q-8 -38 -15 -84t-7 -107v-167h-142zM67 539q0 71 19 127t36 88h109q-8 -38 -15 -84t-7 -107v-167h-142v143z" />
    <glyph glyph-name="quotedblright" unicode="&#x201d;" horiz-adv-x="512" 
d="M281 396q8 38 15 84t7 107v167h142v-143q0 -71 -19 -127t-36 -88h-109zM81 587v167h142v-143q0 -71 -19 -127t-36 -88h-109q8 38 15 84t7 107z" />
    <glyph glyph-name="quotedblbase" unicode="&#x201e;" horiz-adv-x="512" 
d="M281 -188q8 38 15 84t7 107v167h142v-143q0 -71 -19 -127t-36 -88h-109zM81 3v167h142v-143q0 -71 -19 -127t-36 -88h-109q8 38 15 84t7 107z" />
    <glyph glyph-name="dagger" unicode="&#x2020;" horiz-adv-x="628" 
d="M246 545v209h136v-209h201v-130h-201v-511h-136v511h-201v130h201z" />
    <glyph glyph-name="daggerdbl" unicode="&#x2021;" horiz-adv-x="628" 
d="M45 545h201v209h136v-209h201v-130h-201v-172h201v-130h-201v-209h-136v209h-201v130h201v172h-201v130z" />
    <glyph glyph-name="bullet" unicode="&#x2022;" horiz-adv-x="534" 
d="M72 377q0 195 195 195q97 0 146 -50t49 -147q0 -193 -195 -193t-195 195z" />
    <glyph glyph-name="ellipsis" unicode="&#x2026;" horiz-adv-x="960" 
d="M727 178h166v-178h-166v178zM397 178h166v-178h-166v178zM67 178h166v-178h-166v178z" />
    <glyph glyph-name="perthousand" unicode="&#x2030;" horiz-adv-x="1604" 
d="M1205 377q25 28 62.5 40.5t86.5 12.5q45 0 78.5 -10.5t59.5 -33.5q32 -29 44.5 -70.5t12.5 -104.5q0 -60 -12.5 -100t-42.5 -71q-49 -51 -140 -51q-46 0 -81.5 10t-61.5 36q-32 32 -42 73.5t-10 102.5q0 57 10 97t36 69zM1285 211q0 -37 3.5 -59.5t17.5 -35.5
q16 -15 48 -15q29 0 46 16q15 14 19 36.5t4 57.5q0 27 -2.5 48.5t-12.5 35.5q-16 23 -54 23q-22 0 -35 -6t-21 -20t-10.5 -34.5t-2.5 -46.5zM735 377q25 28 62.5 40.5t86.5 12.5q45 0 78.5 -10.5t59.5 -33.5q32 -29 44.5 -70.5t12.5 -104.5q0 -60 -12.5 -100t-42.5 -71
q-49 -51 -140 -51q-46 0 -81.5 10t-61.5 36q-32 32 -42 73.5t-10 102.5q0 57 10 97t36 69zM815 211q0 -37 3.5 -59.5t17.5 -35.5q16 -15 48 -15q29 0 46 16q15 14 19 36.5t4 57.5q0 27 -2.5 48.5t-12.5 35.5q-16 23 -54 23q-22 0 -35 -6t-21 -20t-10.5 -34.5t-2.5 -46.5z
M274 0l428 754h153l-428 -754h-153zM101 712q25 28 62.5 40.5t86.5 12.5q45 0 78.5 -10.5t59.5 -33.5q32 -29 44.5 -70.5t12.5 -104.5q0 -60 -12.5 -100t-42.5 -71q-49 -51 -140 -51q-46 0 -81.5 10t-61.5 36q-32 32 -42 73.5t-10 102.5q0 57 10 97t36 69zM181 546
q0 -37 3.5 -59.5t17.5 -35.5q16 -15 48 -15q29 0 46 16q15 14 19 36.5t4 57.5q0 27 -2.5 48.5t-12.5 35.5q-16 23 -54 23q-22 0 -35 -6t-21 -20t-10.5 -34.5t-2.5 -46.5z" />
    <glyph glyph-name="guilsinglleft" unicode="&#x2039;" horiz-adv-x="386" 
d="M209 58l-176 206l176 206h170l-176 -206l176 -206h-170z" />
    <glyph glyph-name="guilsinglright" unicode="&#x203a;" horiz-adv-x="386" 
d="M7 58l176 206l-176 206h170l176 -206l-176 -206h-170z" />
    <glyph glyph-name="fraction" unicode="&#x2044;" horiz-adv-x="193" 
d="M-189 0l428 754h153l-428 -754h-153z" />
    <glyph glyph-name="uni2070" unicode="&#x2070;" 
d="M101 827q25 28 62.5 40.5t86.5 12.5q45 0 78.5 -10.5t59.5 -33.5q32 -29 44.5 -70.5t12.5 -104.5q0 -60 -12.5 -100t-42.5 -71q-49 -51 -140 -51q-46 0 -81.5 10t-61.5 36q-32 32 -42 73.5t-10 102.5q0 57 10 97t36 69zM181 661q0 -37 3.5 -59.5t17.5 -35.5
q16 -15 48 -15q29 0 46 16q15 14 19 36.5t4 57.5q0 27 -2.5 48.5t-12.5 35.5q-16 23 -54 23q-22 0 -35 -6t-21 -20t-10.5 -34.5t-2.5 -46.5z" />
    <glyph glyph-name="uni2071" unicode="&#x2071;" horiz-adv-x="258" 
d="M67 450v313h124v-313h-124zM65 809v130h128v-130h-128z" />
    <glyph glyph-name="uni2074" unicode="&#x2074;" horiz-adv-x="458" 
d="M208 869h155l-185 -248h91v64h125v-235h-125v62h-244v111z" />
    <glyph glyph-name="uni2075" unicode="&#x2075;" horiz-adv-x="442" 
d="M61 549q26 -4 57.5 -7.5t67.5 -3.5q27 0 40 2t21 7q13 9 13 29q0 21 -15 29q-8 5 -29.5 6.5t-79.5 1.5h-71v256h308v-105h-186v-56h39q43 0 67 -5.5t42 -16.5q26 -15 38.5 -43t12.5 -59q0 -33 -9 -59t-32 -46q-21 -18 -56.5 -29t-101.5 -11q-36 0 -70 3.5t-56 6.5v100z
" />
    <glyph glyph-name="uni2076" unicode="&#x2076;" horiz-adv-x="464" 
d="M125 808q39 31 105 48t157 25v-100q-54 -5 -88 -10.5t-60 -15.5q-44 -16 -50 -46q16 1 35 1.5t49 0.5q35 0 63 -8.5t47 -27.5q32 -32 32 -94q0 -26 -9.5 -53.5t-29.5 -46.5q-23 -21 -55.5 -31.5t-84.5 -10.5q-47 0 -83.5 10.5t-59.5 33.5q-20 20 -29 52t-9 69
q0 35 2 64.5t9 54t21 45.5t38 40zM179 595q0 -14 1.5 -27.5t7.5 -21.5q8 -10 21 -13.5t27 -3.5q30 0 43 12q14 12 14 39q0 26 -12 37q-11 10 -48 10q-14 0 -28 -0.5t-25 -1.5q-1 -9 -1 -15.5v-14.5z" />
    <glyph glyph-name="uni2077" unicode="&#x2077;" horiz-adv-x="406" 
d="M49 450l193 313h-222v106h368v-105l-191 -314h-148z" />
    <glyph glyph-name="uni2078" unicode="&#x2078;" horiz-adv-x="490" 
d="M92 637q9 9 16 15t14 11q-21 11 -34 30q-16 23 -16 70q0 26 11 49.5t37 40.5q18 12 49.5 19.5t76.5 7.5q48 0 78.5 -8t50.5 -22t32 -36.5t12 -48.5q0 -37 -23 -71q-5 -8 -14 -18t-13 -14q11 -6 19.5 -12.5t16.5 -16.5q23 -29 23 -73q0 -31 -12.5 -53t-32.5 -36
q-23 -16 -53 -24t-83 -8q-58 0 -91.5 9t-52.5 23q-41 30 -41 89q0 23 6.5 41.5t23.5 35.5zM195 539q7 -5 19.5 -8.5t32.5 -3.5q18 0 29.5 4t18.5 10q12 11 12 32q0 24 -19 33q-11 5 -31 8.5t-43 6.5l-12 -10t-11 -12q-6 -8 -7 -15t-1 -14q0 -8 2 -16.5t10 -14.5zM206 712
q10 -5 29 -8.5t42 -6.5q10 11 17 22q9 14 9 29q0 21 -11 31q-14 12 -46 12q-17 0 -28 -3.5t-17 -8.5q-8 -6 -10 -14t-2 -17q0 -17 5 -24.5t12 -11.5z" />
    <glyph glyph-name="uni2079" unicode="&#x2079;" horiz-adv-x="464" 
d="M50 735q0 31 10 57.5t27 43.5q19 19 51.5 31.5t91.5 12.5q50 0 81.5 -12t54.5 -38t33 -67t10 -78q0 -42 -2.5 -80.5t-18.5 -70.5q-12 -24 -28.5 -41t-34.5 -27q-24 -13 -55 -20t-70 -7q-61 0 -128 14v100q30 -6 57.5 -10.5t52.5 -4.5q40 0 59 6q23 7 33 20q12 16 12 40
q-22 -2 -48.5 -4t-54.5 -2q-35 0 -64 7t-44 27q-25 32 -25 103zM172 737q0 -29 9 -40.5t40 -11.5q15 0 33 1t32 3q0 26 -1.5 44.5t-9.5 32.5q-12 21 -45 21q-32 0 -44 -12q-14 -13 -14 -38z" />
    <glyph glyph-name="uni207D" unicode="&#x207d;" horiz-adv-x="290" 
d="M52 714q0 60 7.5 111t39.5 83q35 37 83 54t93 23v-122q-22 -6 -42.5 -15t-33.5 -25q-16 -20 -19 -50t-3 -89v-49q0 -59 3.5 -90.5t18.5 -48.5t34.5 -25.5t41.5 -14.5v-122q-45 6 -93 23t-83 54q-32 32 -39.5 83t-7.5 111v109z" />
    <glyph glyph-name="uni207E" unicode="&#x207e;" horiz-adv-x="290" 
d="M15 334v122q22 6 41.5 14.5t34.5 25.5q16 17 19 48.5t3 90.5v49q0 59 -3 89t-19 50q-13 16 -33.5 25t-42.5 15v122q45 -6 93 -23t83 -54q32 -32 39.5 -83t7.5 -111v-109q0 -60 -7.5 -111t-39.5 -83q-35 -37 -83 -54t-93 -23z" />
    <glyph glyph-name="uni207F" unicode="&#x207f;" horiz-adv-x="492" 
d="M65 450v313h124v-27l22.5 10t29.5 11.5t33.5 9.5t34.5 4q27 0 49.5 -8t39.5 -27q18 -20 24 -51.5t6 -81.5v-153h-124v126q0 21 -1 39t-9 29q-6 8 -15 9.5t-19 1.5q-14 0 -35.5 -9.5t-35.5 -16.5v-179h-124z" />
    <glyph glyph-name="uni2080" unicode="&#x2080;" 
d="M101 247q25 28 62.5 40.5t86.5 12.5q45 0 78.5 -10.5t59.5 -33.5q32 -29 44.5 -70.5t12.5 -104.5q0 -60 -12.5 -100t-42.5 -71q-49 -51 -140 -51q-46 0 -81.5 10t-61.5 36q-32 32 -42 73.5t-10 102.5q0 57 10 97t36 69zM181 81q0 -37 3.5 -59.5t17.5 -35.5q16 -15 48 -15
q29 0 46 16q15 14 19 36.5t4 57.5q0 27 -2.5 48.5t-12.5 35.5q-16 23 -54 23q-22 0 -35 -6t-21 -20t-10.5 -34.5t-2.5 -46.5z" />
    <glyph glyph-name="uni2081" unicode="&#x2081;" horiz-adv-x="330" 
d="M134 -130v274l-113 -30v118l244 70v-432h-131z" />
    <glyph glyph-name="uni2082" unicode="&#x2082;" horiz-adv-x="438" 
d="M43 -29q38 27 79.5 57.5t66.5 52.5q29 25 41 40t12 29q0 18 -12 27t-52 9q-16 0 -35 -2.5t-36.5 -6t-32.5 -7t-24 -5.5v114q19 5 61 13t83 8q83 0 126 -32q22 -16 34.5 -42t12.5 -56q0 -35 -11 -58t-34 -49q-22 -24 -45.5 -45.5t-45.5 -39.5h161v-108h-349v101z" />
    <glyph glyph-name="uni2083" unicode="&#x2083;" horiz-adv-x="450" 
d="M50 -126v100q23 -5 58 -10.5t73 -5.5q49 0 64 9q16 9 16 30q0 17 -13 26q-10 7 -23.5 8t-34.5 1h-93v96h138l11 15q10 14 10 27q0 6 -2 12t-9 11q-8 5 -21 6.5t-33 1.5q-40 0 -80.5 -7.5t-57.5 -11.5v98q11 2 29 5.5t39 6.5t43 5.5t40 2.5q55 0 85 -7.5t51 -21.5
q20 -14 30 -35.5t10 -42.5q0 -34 -15 -60q-7 -11 -14.5 -22t-12.5 -17q8 -6 16 -14.5t15 -19.5q18 -28 18 -70q0 -55 -40 -91q-20 -18 -57.5 -29t-94.5 -11q-16 0 -37 1.5t-41 4t-38 5t-29 4.5z" />
    <glyph glyph-name="uni2084" unicode="&#x2084;" horiz-adv-x="458" 
d="M208 289h155l-185 -248h91v64h125v-235h-125v62h-244v111z" />
    <glyph glyph-name="uni2085" unicode="&#x2085;" horiz-adv-x="442" 
d="M61 -31q26 -4 57.5 -7.5t67.5 -3.5q27 0 40 2t21 7q13 9 13 29q0 21 -15 29q-8 5 -29.5 6.5t-79.5 1.5h-71v256h308v-105h-186v-56h39q43 0 67 -5.5t42 -16.5q26 -15 38.5 -43t12.5 -59q0 -33 -9 -59t-32 -46q-21 -18 -56.5 -29t-101.5 -11q-36 0 -70 3.5t-56 6.5v100z
" />
    <glyph glyph-name="uni2086" unicode="&#x2086;" horiz-adv-x="464" 
d="M125 228q39 31 105 48t157 25v-100q-54 -5 -88 -10.5t-60 -15.5q-44 -16 -50 -46q16 1 35 1.5t49 0.5q35 0 63 -8.5t47 -27.5q32 -32 32 -94q0 -26 -9.5 -53.5t-29.5 -46.5q-23 -21 -55.5 -31.5t-84.5 -10.5q-47 0 -83.5 10.5t-59.5 33.5q-20 20 -29 52t-9 69
q0 35 2 64.5t9 54t21 45.5t38 40zM179 15q0 -14 1.5 -27.5t7.5 -21.5q8 -10 21 -13.5t27 -3.5q30 0 43 12q14 12 14 39q0 26 -12 37q-11 10 -48 10q-14 0 -28 -0.5t-25 -1.5q-1 -9 -1 -15.5v-14.5z" />
    <glyph glyph-name="uni2087" unicode="&#x2087;" horiz-adv-x="406" 
d="M49 -130l193 313h-222v106h368v-105l-191 -314h-148z" />
    <glyph glyph-name="uni2088" unicode="&#x2088;" horiz-adv-x="490" 
d="M92 57q9 9 16 15t14 11q-21 11 -34 30q-16 23 -16 70q0 26 11 49.5t37 40.5q18 12 49.5 19.5t76.5 7.5q48 0 78.5 -8t50.5 -22t32 -36.5t12 -48.5q0 -37 -23 -71q-5 -8 -14 -18t-13 -14q11 -6 19.5 -12.5t16.5 -16.5q23 -29 23 -73q0 -31 -12.5 -53t-32.5 -36
q-23 -16 -53 -24t-83 -8q-58 0 -91.5 9t-52.5 23q-41 30 -41 89q0 23 6.5 41.5t23.5 35.5zM195 -41q7 -5 19.5 -8.5t32.5 -3.5q18 0 29.5 4t18.5 10q12 11 12 32q0 24 -19 33q-11 5 -31 8.5t-43 6.5l-12 -10t-11 -12q-6 -8 -7 -15t-1 -14q0 -8 2 -16.5t10 -14.5zM206 132
q10 -5 29 -8.5t42 -6.5q10 11 17 22q9 14 9 29q0 21 -11 31q-14 12 -46 12q-17 0 -28 -3.5t-17 -8.5q-8 -6 -10 -14t-2 -17q0 -17 5 -24.5t12 -11.5z" />
    <glyph glyph-name="uni2089" unicode="&#x2089;" horiz-adv-x="464" 
d="M50 155q0 31 10 57.5t27 43.5q19 19 51.5 31.5t91.5 12.5q50 0 81.5 -12t54.5 -38t33 -67t10 -78q0 -42 -2.5 -80.5t-18.5 -70.5q-12 -24 -28.5 -41t-34.5 -27q-24 -13 -55 -20t-70 -7q-61 0 -128 14v100q30 -6 57.5 -10.5t52.5 -4.5q40 0 59 6q23 7 33 20q12 16 12 40
q-22 -2 -48.5 -4t-54.5 -2q-35 0 -64 7t-44 27q-25 32 -25 103zM172 157q0 -29 9 -40.5t40 -11.5q15 0 33 1t32 3q0 26 -1.5 44.5t-9.5 32.5q-12 21 -45 21q-32 0 -44 -12q-14 -13 -14 -38z" />
    <glyph glyph-name="uni208D" unicode="&#x208d;" horiz-adv-x="290" 
d="M52 134q0 60 7.5 111t39.5 83q35 37 83 54t93 23v-122q-22 -6 -42.5 -15t-33.5 -25q-16 -20 -19 -50t-3 -89v-49q0 -59 3.5 -90.5t18.5 -48.5t34.5 -25.5t41.5 -14.5v-122q-45 6 -93 23t-83 54q-32 32 -39.5 83t-7.5 111v109z" />
    <glyph glyph-name="uni208E" unicode="&#x208e;" horiz-adv-x="290" 
d="M15 -246v122q22 6 41.5 14.5t34.5 25.5q16 17 19 48.5t3 90.5v49q0 59 -3 89t-19 50q-13 16 -33.5 25t-42.5 15v122q45 -6 93 -23t83 -54q32 -32 39.5 -83t7.5 -111v-109q0 -60 -7.5 -111t-39.5 -83q-35 -37 -83 -54t-93 -23z" />
    <glyph glyph-name="uni2093" unicode="&#x2093;" horiz-adv-x="476" 
d="M10 -130l130 161l-126 152h156l66 -84l65 84h154l-123 -149l134 -164h-156l-73 91l-73 -91h-154z" />
    <glyph glyph-name="Euro" unicode="&#x20ac;" horiz-adv-x="710" 
d="M80 366q0 38 2 78t7.5 77.5t14 70t20.5 54.5q17 30 39 53.5t55 39t79 24t109 8.5q31 0 65.5 -3t67.5 -7t62.5 -9t49.5 -8v-141q-50 8 -112.5 17t-116.5 9q-70 0 -109 -9t-57 -37q-8 -13 -11 -27t-4 -27h286v-122h-295v-55h295v-122h-288q1 -17 3 -30.5t8 -27.5
q14 -31 59 -39t117 -8q53 0 113.5 6t111.5 12v-142q-51 -6 -115.5 -12t-130.5 -6t-113 8.5t-80.5 24t-55 37.5t-36.5 48q-11 20 -19 49.5t-12.5 64.5t-6.5 73.5t-2 77.5z" />
    <glyph glyph-name="uni20BA" unicode="&#x20ba;" horiz-adv-x="656" 
d="M240 754v-134l218 67v-124l-218 -67v-59l218 67v-124l-218 -67v-195q54 0 97 11t70 41q15 17 24.5 34.5t14.5 36.5t7.5 41.5t4.5 49.5h151q-3 -70 -15.5 -128.5t-45.5 -102.5q-21 -28 -49 -50t-65 -37.5t-85 -23t-110 -7.5q-54 0 -91.5 1.5t-57.5 3.5v766h150z" />
    <glyph glyph-name="uni20BD" unicode="&#x20bd;" horiz-adv-x="716" 
d="M90 0v754h324q65 0 110.5 -14.5t79.5 -47.5q65 -64 65 -171q0 -58 -16 -100t-54 -76q-35 -32 -81 -44.5t-103 -14.5q-33 -2 -76 -2h-99v-55h313v-122h-313v-107h-150zM240 422h85t75 2t57.5 6.5t36.5 19.5q14 14 18.5 31t4.5 40t-4.5 39.5t-18.5 30.5q-13 13 -34.5 18
t-59.5 5h-160v-192z" />
    <glyph glyph-name="uni2103" unicode="&#x2103;" horiz-adv-x="1119" 
d="M40 577q0 89 54 141.5t147 52.5q91 0 144.5 -52.5t53.5 -141.5q0 -88 -53.5 -137t-144.5 -49q-93 0 -147 49t-54 137zM160 581q0 -35 21.5 -55.5t58.5 -20.5q35 0 57 20t22 56t-22 56t-57 20q-37 0 -58.5 -20.5t-21.5 -55.5zM519 366q0 88 11.5 155.5t43.5 118.5
q15 25 36.5 48.5t53 42t74 29.5t99.5 11q32 0 66 -4.5t66 -10.5q35 -7 61 -12.5t51 -11.5v-144q-26 6 -59.5 13.5t-65.5 13.5q-28 5 -52.5 8t-48.5 3q-65 0 -101 -18.5t-56 -57.5q-16 -32 -21.5 -76.5t-5.5 -104.5q0 -55 5.5 -100.5t23.5 -77.5q20 -35 58.5 -49t101.5 -14
q24 0 53 3.5t59 8.5t58 10.5t51 10.5v-145q-51 -11 -116 -22t-131 -11q-60 0 -103 11.5t-73.5 29.5t-50.5 40.5t-35 44.5q-28 43 -40.5 107.5t-12.5 149.5z" />
    <glyph glyph-name="uni2109" unicode="&#x2109;" horiz-adv-x="1085" 
d="M40 577q0 89 54 141.5t147 52.5q91 0 144.5 -52.5t53.5 -141.5q0 -88 -53.5 -137t-144.5 -49q-93 0 -147 49t-54 137zM160 581q0 -35 21.5 -55.5t58.5 -20.5q35 0 57 20t22 56t-22 56t-57 20q-37 0 -58.5 -20.5t-21.5 -55.5zM1062 754v-141h-376v-167h338v-141h-338v-305
h-150v754h526z" />
    <glyph glyph-name="uni2113" unicode="&#x2113;" horiz-adv-x="513" 
d="M65 203v322q0 35 1.5 61.5t5 47t10 36.5t15.5 30q19 29 57.5 50t115.5 21q56 0 91.5 -12.5t55.5 -31.5q53 -48 53 -142q0 -43 -17.5 -86t-51 -90t-81.5 -99t-109 -113v-11q0 -14 3 -28.5t14 -26.5q12 -13 31.5 -15.5t36.5 -2.5q21 0 45.5 3.5t49 9t46 11.5t36.5 10v-136
q-34 -10 -85 -19.5t-96 -9.5q-46 0 -78.5 5t-55 13.5t-36.5 19t-23 21.5q-20 26 -27 67.5t-7 94.5zM322 572q0 14 -0.5 22.5t-5.5 21.5q-5 15 -18 22t-30 7q-35 0 -48 -31q-7 -17 -8 -36t-1 -61v-145q26 31 47 56t35 48.5t21.5 46.5t7.5 49z" />
    <glyph glyph-name="uni2116" unicode="&#x2116;" horiz-adv-x="1220" 
d="M234 754l301 -504v504h148v-754h-162l-301 504v-504h-148v754h162zM800 701q28 34 69 52t106 18t105.5 -18t66.5 -48q23 -26 33 -63.5t10 -78.5q0 -94 -48 -147q-25 -28 -64 -44.5t-103 -16.5q-66 0 -103 15t-63 43q-21 22 -35 62t-14 88q0 41 10 77t30 61zM889 563
q0 -22 3.5 -35.5t12.5 -27.5q11 -15 29 -20.5t41 -5.5q45 0 67 25q11 14 15 29t4 37t-4 37t-16 28q-21 22 -66 22q-25 0 -42 -6t-28 -21q-10 -13 -13 -26.5t-3 -35.5z" />
    <glyph glyph-name="trademark" unicode="&#x2122;" horiz-adv-x="1066" 
d="M509 754h126l118 -221l122 221h119v-429h-104v261l-97 -176h-84l-96 181v-266h-104v429zM37 754h402v-100h-146v-329h-110v329h-146v100z" />
    <glyph glyph-name="uni2126" unicode="&#x2126;" horiz-adv-x="788" 
d="M158 135q-20 16 -37 38t-28 47q-16 35 -24 86.5t-8 110.5q0 24 2.5 53t9 59t17 59.5t26.5 54.5q19 30 42 54t55.5 40.5t76.5 25t104 8.5q52 0 92 -7t71.5 -21.5t55.5 -35.5t45 -50q20 -27 33 -58t21 -63t11.5 -62.5t3.5 -56.5q0 -59 -8.5 -109.5t-27.5 -87.5
q-13 -25 -28.5 -46t-32.5 -39h139v-135h-334v135q31 21 55.5 42t45.5 54q39 60 39 186q0 13 -1.5 31t-5.5 38t-11 40t-18 37q-23 38 -60 52t-85 14q-47 0 -85 -11t-62 -50q-10 -16 -16.5 -37t-10.5 -41.5t-5.5 -39.5t-1.5 -33q0 -62 8.5 -108t28.5 -78q12 -18 23 -31
t23 -23.5t26 -20.5t31 -21v-135h-334v135h139z" />
    <glyph glyph-name="estimated" unicode="&#x212e;" horiz-adv-x="770" 
d="M144 512q46 44 103 64.5t138 20.5q75 0 129.5 -18t102.5 -57q49 -39 74.5 -101t28.5 -139h-533q-5 0 -9.5 -2t-4.5 -14v-149q0 -12 15.5 -30t43 -35.5t66.5 -30t87 -12.5q63 0 119 27.5t93 69.5h63q-60 -69 -126 -95q-18 -7 -33.5 -12t-32.5 -8t-37 -4.5t-46 -1.5
q-81 0 -138.5 20t-104.5 65q-92 87 -92 221q0 132 94 221zM173 469v-160q0 -8 15 -8h393q10 0 12.5 3.5t2.5 11.5v146q0 18 -19.5 38.5t-50 37t-68 27.5t-73.5 11q-45 0 -83.5 -13t-67 -30.5t-45 -35.5t-16.5 -28z" />
    <glyph glyph-name="onethird" unicode="&#x2153;" horiz-adv-x="973" 
d="M573 4v100q23 -5 58 -10.5t73 -5.5q49 0 64 9q16 9 16 30q0 17 -13 26q-10 7 -23.5 8t-34.5 1h-93v96h138l11 15q10 14 10 27q0 6 -2 12t-9 11q-8 5 -21 6.5t-33 1.5q-40 0 -80.5 -7.5t-57.5 -11.5v98q11 2 29 5.5t39 6.5t43 5.5t40 2.5q55 0 85 -7.5t51 -21.5
q20 -14 30 -35.5t10 -42.5q0 -34 -15 -60q-7 -11 -14.5 -22t-12.5 -17q8 -6 16 -14.5t15 -19.5q18 -28 18 -70q0 -55 -40 -91q-20 -18 -57.5 -29t-94.5 -11q-16 0 -37 1.5t-41 4t-38 5t-29 4.5zM141 0l428 754h153l-428 -754h-153zM134 335v274l-113 -30v118l244 70v-432
h-131z" />
    <glyph glyph-name="twothirds" unicode="&#x2154;" horiz-adv-x="1081" 
d="M681 4v100q23 -5 58 -10.5t73 -5.5q49 0 64 9q16 9 16 30q0 17 -13 26q-10 7 -23.5 8t-34.5 1h-93v96h138l11 15q10 14 10 27q0 6 -2 12t-9 11q-8 5 -21 6.5t-33 1.5q-40 0 -80.5 -7.5t-57.5 -11.5v98q11 2 29 5.5t39 6.5t43 5.5t40 2.5q55 0 85 -7.5t51 -21.5
q20 -14 30 -35.5t10 -42.5q0 -34 -15 -60q-7 -11 -14.5 -22t-12.5 -17q8 -6 16 -14.5t15 -19.5q18 -28 18 -70q0 -55 -40 -91q-20 -18 -57.5 -29t-94.5 -11q-16 0 -37 1.5t-41 4t-38 5t-29 4.5zM249 0l428 754h153l-428 -754h-153zM43 436q38 27 79.5 57.5t66.5 52.5
q29 25 41 40t12 29q0 18 -12 27t-52 9q-16 0 -35 -2.5t-36.5 -6t-32.5 -7t-24 -5.5v114q19 5 61 13t83 8q83 0 126 -32q22 -16 34.5 -42t12.5 -56q0 -35 -11 -58t-34 -49q-22 -24 -45.5 -45.5t-45.5 -39.5h161v-108h-349v101z" />
    <glyph glyph-name="oneeighth" unicode="&#x215b;" horiz-adv-x="1013" 
d="M615 187q9 9 16 15t14 11q-21 11 -34 30q-16 23 -16 70q0 26 11 49.5t37 40.5q18 12 49.5 19.5t76.5 7.5q48 0 78.5 -8t50.5 -22t32 -36.5t12 -48.5q0 -37 -23 -71q-5 -8 -14 -18t-13 -14q11 -6 19.5 -12.5t16.5 -16.5q23 -29 23 -73q0 -31 -12.5 -53t-32.5 -36
q-23 -16 -53 -24t-83 -8q-58 0 -91.5 9t-52.5 23q-41 30 -41 89q0 23 6.5 41.5t23.5 35.5zM718 89q7 -5 19.5 -8.5t32.5 -3.5q18 0 29.5 4t18.5 10q12 11 12 32q0 24 -19 33q-11 5 -31 8.5t-43 6.5l-12 -10t-11 -12q-6 -8 -7 -15t-1 -14q0 -8 2 -16.5t10 -14.5zM729 262
q10 -5 29 -8.5t42 -6.5q10 11 17 22q9 14 9 29q0 21 -11 31q-14 12 -46 12q-17 0 -28 -3.5t-17 -8.5q-8 -6 -10 -14t-2 -17q0 -17 5 -24.5t12 -11.5zM141 0l428 754h153l-428 -754h-153zM134 335v274l-113 -30v118l244 70v-432h-131z" />
    <glyph glyph-name="threeeighths" unicode="&#x215c;" horiz-adv-x="1133" 
d="M735 187q9 9 16 15t14 11q-21 11 -34 30q-16 23 -16 70q0 26 11 49.5t37 40.5q18 12 49.5 19.5t76.5 7.5q48 0 78.5 -8t50.5 -22t32 -36.5t12 -48.5q0 -37 -23 -71q-5 -8 -14 -18t-13 -14q11 -6 19.5 -12.5t16.5 -16.5q23 -29 23 -73q0 -31 -12.5 -53t-32.5 -36
q-23 -16 -53 -24t-83 -8q-58 0 -91.5 9t-52.5 23q-41 30 -41 89q0 23 6.5 41.5t23.5 35.5zM838 89q7 -5 19.5 -8.5t32.5 -3.5q18 0 29.5 4t18.5 10q12 11 12 32q0 24 -19 33q-11 5 -31 8.5t-43 6.5l-12 -10t-11 -12q-6 -8 -7 -15t-1 -14q0 -8 2 -16.5t10 -14.5zM849 262
q10 -5 29 -8.5t42 -6.5q10 11 17 22q9 14 9 29q0 21 -11 31q-14 12 -46 12q-17 0 -28 -3.5t-17 -8.5q-8 -6 -10 -14t-2 -17q0 -17 5 -24.5t12 -11.5zM261 0l428 754h153l-428 -754h-153zM50 339v100q23 -5 58 -10.5t73 -5.5q49 0 64 9q16 9 16 30q0 17 -13 26q-10 7 -23.5 8
t-34.5 1h-93v96h138l11 15q10 14 10 27q0 6 -2 12t-9 11q-8 5 -21 6.5t-33 1.5q-40 0 -80.5 -7.5t-57.5 -11.5v98q11 2 29 5.5t39 6.5t43 5.5t40 2.5q55 0 85 -7.5t51 -21.5q20 -14 30 -35.5t10 -42.5q0 -34 -15 -60q-7 -11 -14.5 -22t-12.5 -17q8 -6 16 -14.5t15 -19.5
q18 -28 18 -70q0 -55 -40 -91q-20 -18 -57.5 -29t-94.5 -11q-16 0 -37 1.5t-41 4t-38 5t-29 4.5z" />
    <glyph glyph-name="fiveeighths" unicode="&#x215d;" horiz-adv-x="1125" 
d="M727 187q9 9 16 15t14 11q-21 11 -34 30q-16 23 -16 70q0 26 11 49.5t37 40.5q18 12 49.5 19.5t76.5 7.5q48 0 78.5 -8t50.5 -22t32 -36.5t12 -48.5q0 -37 -23 -71q-5 -8 -14 -18t-13 -14q11 -6 19.5 -12.5t16.5 -16.5q23 -29 23 -73q0 -31 -12.5 -53t-32.5 -36
q-23 -16 -53 -24t-83 -8q-58 0 -91.5 9t-52.5 23q-41 30 -41 89q0 23 6.5 41.5t23.5 35.5zM830 89q7 -5 19.5 -8.5t32.5 -3.5q18 0 29.5 4t18.5 10q12 11 12 32q0 24 -19 33q-11 5 -31 8.5t-43 6.5l-12 -10t-11 -12q-6 -8 -7 -15t-1 -14q0 -8 2 -16.5t10 -14.5zM841 262
q10 -5 29 -8.5t42 -6.5q10 11 17 22q9 14 9 29q0 21 -11 31q-14 12 -46 12q-17 0 -28 -3.5t-17 -8.5q-8 -6 -10 -14t-2 -17q0 -17 5 -24.5t12 -11.5zM253 0l428 754h153l-428 -754h-153zM61 434q26 -4 57.5 -7.5t67.5 -3.5q27 0 40 2t21 7q13 9 13 29q0 21 -15 29
q-8 5 -29.5 6.5t-79.5 1.5h-71v256h308v-105h-186v-56h39q43 0 67 -5.5t42 -16.5q26 -15 38.5 -43t12.5 -59q0 -33 -9 -59t-32 -46q-21 -18 -56.5 -29t-101.5 -11q-36 0 -70 3.5t-56 6.5v100z" />
    <glyph glyph-name="seveneighths" unicode="&#x215e;" horiz-adv-x="1089" 
d="M691 187q9 9 16 15t14 11q-21 11 -34 30q-16 23 -16 70q0 26 11 49.5t37 40.5q18 12 49.5 19.5t76.5 7.5q48 0 78.5 -8t50.5 -22t32 -36.5t12 -48.5q0 -37 -23 -71q-5 -8 -14 -18t-13 -14q11 -6 19.5 -12.5t16.5 -16.5q23 -29 23 -73q0 -31 -12.5 -53t-32.5 -36
q-23 -16 -53 -24t-83 -8q-58 0 -91.5 9t-52.5 23q-41 30 -41 89q0 23 6.5 41.5t23.5 35.5zM794 89q7 -5 19.5 -8.5t32.5 -3.5q18 0 29.5 4t18.5 10q12 11 12 32q0 24 -19 33q-11 5 -31 8.5t-43 6.5l-12 -10t-11 -12q-6 -8 -7 -15t-1 -14q0 -8 2 -16.5t10 -14.5zM805 262
q10 -5 29 -8.5t42 -6.5q10 11 17 22q9 14 9 29q0 21 -11 31q-14 12 -46 12q-17 0 -28 -3.5t-17 -8.5q-8 -6 -10 -14t-2 -17q0 -17 5 -24.5t12 -11.5zM217 0l428 754h153l-428 -754h-153zM49 335l193 313h-222v106h368v-105l-191 -314h-148z" />
    <glyph glyph-name="uni215F" unicode="&#x215f;" horiz-adv-x="523" 
d="M141 0l428 754h153l-428 -754h-153zM134 335v274l-113 -30v118l244 70v-432h-131z" />
    <glyph glyph-name="arrowleft" unicode="&#x2190;" horiz-adv-x="848" 
d="M25 377l294 245h203l-210 -175h484v-140h-484l210 -175h-203z" />
    <glyph glyph-name="arrowup" unicode="&#x2191;" horiz-adv-x="600" 
d="M230 0v484l-175 -210v203l245 294l245 -294v-203l-175 210v-484h-140z" />
    <glyph glyph-name="arrowright" unicode="&#x2192;" horiz-adv-x="848" 
d="M326 132l210 175h-484v140h484l-210 175h203l294 -245l-294 -245h-203z" />
    <glyph glyph-name="arrowdown" unicode="&#x2193;" horiz-adv-x="600" 
d="M55 277v203l175 -210v484h140v-484l175 210v-203l-245 -294z" />
    <glyph glyph-name="arrowboth" unicode="&#x2194;" horiz-adv-x="1150" 
d="M25 377l294 245h203l-210 -175h526l-210 175h203l294 -245l-294 -245h-203l210 175h-526l210 -175h-203z" />
    <glyph glyph-name="arrowupdn" unicode="&#x2195;" horiz-adv-x="600" 
d="M300 927l245 -294v-203l-175 210v-526l175 210v-203l-245 -294l-245 294v203l175 -210v526l-175 -210v203z" />
    <glyph glyph-name="uni2196" unicode="&#x2196;" horiz-adv-x="648" 
d="M221 433l18 -201h-131l-40 453l453 -40v-131l-200 18l279 -279l-2 -197z" />
    <glyph glyph-name="uni2197" unicode="&#x2197;" horiz-adv-x="648" 
d="M48 253l279 279l-200 -18v131l453 40l-40 -453h-131l18 201l-377 -377z" />
    <glyph glyph-name="uni2198" unicode="&#x2198;" horiz-adv-x="648" 
d="M127 136v131l200 -18l-279 279l2 197l377 -377l-18 201h131l40 -453z" />
    <glyph glyph-name="uni2199" unicode="&#x2199;" horiz-adv-x="648" 
d="M68 96l40 453h131l-18 -201l377 377l2 -197l-279 -279l200 18v-131z" />
    <glyph glyph-name="partialdiff" unicode="&#x2202;" horiz-adv-x="620" 
d="M85 408q25 40 67.5 65t117.5 25q29 0 61 -6.5t57 -13.5q-5 23 -20 56t-50 61q-17 14 -39 23.5t-45.5 16.5t-46 11t-40.5 6v123q87 -8 163 -32.5t136 -83.5q39 -39 63 -88.5t37 -103.5t17.5 -109t4.5 -103q0 -54 -12.5 -99t-32.5 -75q-32 -46 -81.5 -72t-135.5 -26
q-87 0 -137.5 24t-79.5 68q-20 30 -32 71t-12 101q0 97 40 161zM211 159q14 -25 38.5 -33.5t56.5 -8.5q30 0 52.5 7.5t37.5 29.5q14 20 19 43t5 55q0 31 -2 51t-6 39q-7 3 -20.5 6.5t-30 7.5t-34 6.5t-31.5 2.5q-34 0 -55 -8t-32 -30q-11 -20 -13.5 -39t-2.5 -41
q0 -29 3.5 -48.5t14.5 -39.5z" />
    <glyph glyph-name="uni2206" unicode="&#x2206;" horiz-adv-x="812" 
d="M0 0l333 754h146l333 -754h-812zM406 548l-180 -407h360z" />
    <glyph glyph-name="product" unicode="&#x220f;" horiz-adv-x="772" 
d="M692 754v-884h-150v741h-312v-741h-150v884h612z" />
    <glyph glyph-name="summation" unicode="&#x2211;" horiz-adv-x="674" 
d="M40 -130v136l274 310l-262 304v134h571v-141h-367l256 -297l-269 -305h396v-141h-599z" />
    <glyph glyph-name="minus" unicode="&#x2212;" horiz-adv-x="700" 
d="M65 311v132h570v-132h-570z" />
    <glyph glyph-name="radical" unicode="&#x221a;" horiz-adv-x="700" 
d="M189 0l-122 311h-67v132h172l119 -302l291 708h160l-349 -849h-204z" />
    <glyph glyph-name="infinity" unicode="&#x221e;" horiz-adv-x="1011" 
d="M267 543q64 0 123.5 -33.5t116.5 -87.5q59 53 114 87t123 34q54 0 94.5 -15.5t66.5 -43t39 -65.5t13 -82q0 -45 -14 -82.5t-41 -65t-67 -43t-91 -15.5q-67 0 -123 30.5t-117 90.5q-59 -55 -115 -88t-122 -33q-58 0 -98.5 15t-66 42t-37 65t-11.5 84t11.5 84t37 65t66 42
t98.5 15zM744 256q38 0 59.5 23t21.5 58q0 38 -20.5 59.5t-60.5 21.5q-35 0 -70 -17.5t-86 -64.5q29 -26 49.5 -41.5t38 -24t33.5 -11.5t35 -3zM186 337q0 -81 81 -81q17 0 33.5 4t35 13t39.5 24.5t48 38.5q-59 51 -94 66.5t-62 15.5q-42 0 -61.5 -21.5t-19.5 -59.5z" />
    <glyph glyph-name="integral" unicode="&#x222b;" horiz-adv-x="600" 
d="M36 -188v131q17 -5 49 -11t61 -6q31 0 50.5 11t24.5 40q5 23 5.5 55.5t0.5 87.5v457q0 53 14 89.5t38 60t57 34t70 10.5q52 0 97 -8.5t61 -12.5v-129q-6 2 -18.5 4.5t-27.5 5t-31 4.5t-30 2q-38 0 -59.5 -18t-23.5 -78q-1 -18 -1 -60.5v-102.5v-277v-29v-41t-0.5 -44
t-1.5 -38q-3 -72 -50 -115t-118 -43q-66 0 -106.5 8t-60.5 13z" />
    <glyph glyph-name="approxequal" unicode="&#x2248;" horiz-adv-x="700" 
d="M213 591q17 0 33 -1t33.5 -5t39.5 -12.5t51 -23.5q21 -11 36 -18t27.5 -11.5t24 -6.5t26.5 -2q25 0 47.5 8.5t42 21t35 26.5t26.5 24v-141q-23 -23 -62 -46.5t-89 -23.5q-18 0 -32.5 2.5t-30.5 8t-36.5 15t-49.5 23.5q-22 11 -38.5 17t-30 9t-26 4t-27.5 1
q-25 0 -47 -8.5t-41 -21t-34 -26t-26 -23.5v141q23 23 59.5 46t88.5 23zM65 163v141q23 23 59.5 46.5t88.5 23.5q18 0 32.5 -2t30.5 -7.5t37 -15t52 -24.5q23 -10 38.5 -16.5t28.5 -9.5t25 -4t27 -1q25 0 47.5 8.5t42 20.5t35 26t26.5 24v-141q-23 -21 -62 -45t-89 -24
q-17 0 -32.5 1t-33 5.5t-38.5 13t-50 22.5q-22 11 -37.5 18t-28 11.5t-24.5 6.5t-27 2q-25 0 -47.5 -8.5t-41 -21t-33.5 -26t-26 -24.5z" />
    <glyph glyph-name="notequal" unicode="&#x2260;" horiz-adv-x="700" 
d="M250 332l59 90h-244v130h330l96 144h131l-96 -144h109v-130h-195l-59 -90h254v-130h-340l-95 -144h-131l95 144h-99v130h185z" />
    <glyph glyph-name="lessequal" unicode="&#x2264;" horiz-adv-x="700" 
d="M65 332v130l570 198v-129l-389 -134l389 -133v-129zM635 126v-126h-570v126h570z" />
    <glyph glyph-name="greaterequal" unicode="&#x2265;" horiz-adv-x="700" 
d="M65 660l570 -198v-130l-570 -197v129l389 133l-389 134v129zM65 0v126h570v-126h-570z" />
    <glyph glyph-name="lozenge" unicode="&#x25ca;" horiz-adv-x="700" 
d="M42 378l308 397l308 -397l-308 -395zM483 378l-133 171l-133 -171l133 -169z" />
    <glyph glyph-name="fi" unicode="&#xfb01;" horiz-adv-x="637" 
d="M65 0v521q0 21 1.5 49.5t9.5 52.5q15 48 59 78q37 26 94.5 43.5t120.5 30.5v-142q-28 -6 -62 -15.5t-54 -23.5q-11 -8 -15 -16.5t-6 -18.5q-2 -11 -2 -20v-18h140v-134h-140v-387h-146zM426 0v528h146v-528h-146zM572 754v-154h-146v154h146z" />
    <glyph glyph-name="fl" unicode="&#xfb02;" horiz-adv-x="637" 
d="M65 0v521q0 21 1.5 49.5t9.5 52.5q15 48 59 78q37 26 94.5 43.5t120.5 30.5v-142q-28 -6 -62 -15.5t-54 -23.5q-11 -8 -15 -16.5t-6 -18.5q-2 -11 -2 -20v-18h140v-134h-140v-387h-146zM426 0v754h146v-754h-146z" />
    <glyph glyph-name="zero.tf" horiz-adv-x="650" 
d="M112 680q37 49 89.5 70t121.5 21q54 0 103.5 -16t86.5 -51q27 -26 43 -60.5t23.5 -76t9.5 -89.5t2 -102q0 -55 -2 -100t-9 -82.5t-20.5 -69.5t-37.5 -61q-35 -44 -86.5 -62t-112.5 -18t-110 15.5t-86 57.5q-24 28 -38 61t-20.5 72.5t-8 86t-1.5 100.5q0 97 8 175.5
t45 128.5zM209 373q0 -79 3.5 -130t26.5 -83q15 -21 36.5 -29.5t47.5 -8.5q25 0 47 9t37 29q24 32 29 83t5 136q0 78 -4 129t-25 83q-27 41 -89 41q-35 0 -58.5 -12.5t-37.5 -46.5q-14 -32 -16 -84.5t-2 -115.5z" />
    <glyph glyph-name="one.tf" horiz-adv-x="650" 
d="M456 775v-633h147v-142h-472v142h175v438l-221 -67v148z" />
    <glyph glyph-name="two.tf" horiz-adv-x="650" 
d="M52 140q29 28 71 68.5t86 84.5t84.5 87t66.5 75q20 24 32 45.5t12 48.5q0 17 -5 32t-19 27q-17 15 -45 19t-64 4q-23 0 -51 -3t-55.5 -7.5t-53.5 -9t-45 -8.5v140q21 4 48.5 9t57.5 9t59.5 7t54.5 3q80 0 126.5 -14t81.5 -45q32 -27 46.5 -68.5t14.5 -80.5
q0 -38 -7.5 -69.5t-21.5 -59t-35.5 -54.5t-48.5 -56q-45 -48 -89.5 -91t-98.5 -93h327v-140h-529v140z" />
    <glyph glyph-name="three.tf" horiz-adv-x="650" 
d="M60 6v140q47 -8 101 -16t115 -8q82 0 117 26q18 14 24.5 31t6.5 40q0 27 -12 44.5t-38 31.5q-20 10 -46.5 11.5t-56.5 1.5h-135v135h215l24 33q17 23 28.5 44t11.5 41q0 16 -3.5 27t-14.5 22q-14 12 -38.5 17t-68.5 5q-27 0 -58 -3.5t-61.5 -8t-58 -9.5t-46.5 -9v139
q20 4 48.5 9t60 9.5t62.5 8t56 3.5q77 0 127.5 -13.5t84.5 -45.5q29 -27 43.5 -63t14.5 -76q0 -35 -12 -62t-31 -56q-11 -17 -22 -33.5t-17 -24.5q12 -8 23.5 -18t23.5 -24q46 -53 46 -136q0 -45 -14 -86t-42 -70q-38 -41 -95.5 -60.5t-143.5 -19.5q-70 0 -123.5 7.5
t-95.5 15.5z" />
    <glyph glyph-name="four.tf" horiz-adv-x="650" 
d="M378 754h181l-346 -471h204v132h148v-415h-148v142h-385v142z" />
    <glyph glyph-name="five.tf" horiz-adv-x="650" 
d="M83 143q38 -8 93.5 -14.5t103.5 -6.5q41 0 68.5 6.5t44.5 22.5q19 17 24.5 35.5t5.5 44.5q0 23 -6 40t-25 32t-55.5 20t-96.5 5h-147v426h462v-139h-314v-148h67q78 0 126.5 -18t77.5 -47q61 -61 61 -171q0 -55 -15 -97.5t-47 -77.5q-67 -73 -221 -73q-60 0 -111.5 6
t-95.5 14v140z" />
    <glyph glyph-name="six.tf" horiz-adv-x="650" 
d="M62 275q0 77 7.5 135t23 101.5t39 76t54.5 57.5q63 52 151.5 80t209.5 42v-139q-60 -7 -117 -21t-99 -35t-65 -46.5t-32 -61.5q53 3 104 3q78 0 122.5 -16t73.5 -47q61 -64 61 -174q0 -48 -14 -92.5t-46 -79.5q-35 -39 -83.5 -57t-116.5 -18t-116.5 15t-85.5 53
q-71 73 -71 224zM242 150q17 -19 40 -25.5t53 -6.5q26 0 45.5 6t36.5 23q17 18 22.5 38t5.5 45t-4 43.5t-21 35.5q-15 15 -36.5 20t-63.5 5q-30 0 -60.5 -1t-45.5 -2q-2 -16 -2 -32v-42q0 -38 6.5 -62.5t23.5 -44.5z" />
    <glyph glyph-name="seven.tf" horiz-adv-x="650" 
d="M90 0l342 612h-395v142h570v-139l-343 -615h-174z" />
    <glyph glyph-name="eight.tf" horiz-adv-x="650" 
d="M48 208q0 37 11.5 70t33.5 58q15 17 28 29t27 23q-15 9 -26 18.5t-24 25.5q-38 48 -38 124q0 45 14.5 85t46.5 68q72 62 203 62q66 0 114.5 -14t84.5 -45q33 -28 50 -69t17 -87q0 -34 -10.5 -62t-30.5 -52q-11 -14 -23 -27.5t-24 -26.5q18 -11 30.5 -22t25.5 -26
q23 -26 33.5 -60.5t10.5 -71.5q0 -48 -16 -90.5t-51 -71.5q-40 -33 -90 -48.5t-122 -15.5q-66 0 -115.5 12.5t-85.5 40.5q-38 30 -56 74t-18 99zM197 214q0 -24 5 -42.5t22 -32.5t44 -19.5t58 -5.5q30 0 54.5 5.5t41.5 19.5q32 25 32 73q0 28 -9.5 47t-33.5 33
q-17 10 -52.5 19t-99.5 19q-12 -10 -20.5 -18t-18.5 -22q-11 -16 -17 -34t-6 -42zM238 482q17 -12 55 -22t98 -21q9 10 15 17.5t14 18.5q9 14 15.5 30.5t6.5 42.5q0 20 -5 36t-20 29q-17 14 -40 20t-53 6t-54 -5.5t-39 -19.5q-16 -14 -19.5 -29.5t-3.5 -36.5q0 -25 6.5 -40
t23.5 -26z" />
    <glyph glyph-name="nine.tf" horiz-adv-x="650" 
d="M55 510q0 62 12.5 105.5t44.5 80.5q34 40 81.5 57.5t117.5 17.5t119.5 -19t85.5 -62q35 -42 53.5 -110.5t18.5 -176.5q0 -53 -2.5 -102.5t-11.5 -93.5q-9 -45 -27.5 -82.5t-48.5 -67.5q-36 -35 -90.5 -54.5t-135.5 -19.5q-23 0 -49.5 2t-52 5.5t-48.5 7.5t-40 8v139
q38 -8 89.5 -15.5t94.5 -7.5q32 0 59.5 4t48.5 16q22 13 33.5 29t19.5 39q6 19 8.5 35.5t2.5 34.5q-28 -4 -65.5 -7.5t-91.5 -3.5q-57 0 -99 17t-68 46q-29 33 -44 76.5t-15 101.5zM205 510q0 -31 4 -49.5t20 -34.5q14 -14 35.5 -18.5t50.5 -4.5t65.5 3.5t57.5 6.5
q0 73 -8 116t-28 69q-30 38 -87 38q-27 0 -47.5 -7t-36.5 -27t-21 -41.5t-5 -50.5z" />
    <glyph glyph-name="zero.numr" 
d="M101 712q25 28 62.5 40.5t86.5 12.5q45 0 78.5 -10.5t59.5 -33.5q32 -29 44.5 -70.5t12.5 -104.5q0 -60 -12.5 -100t-42.5 -71q-49 -51 -140 -51q-46 0 -81.5 10t-61.5 36q-32 32 -42 73.5t-10 102.5q0 57 10 97t36 69zM181 546q0 -37 3.5 -59.5t17.5 -35.5
q16 -15 48 -15q29 0 46 16q15 14 19 36.5t4 57.5q0 27 -2.5 48.5t-12.5 35.5q-16 23 -54 23q-22 0 -35 -6t-21 -20t-10.5 -34.5t-2.5 -46.5z" />
    <glyph glyph-name="one.numr" horiz-adv-x="330" 
d="M134 335v274l-113 -30v118l244 70v-432h-131z" />
    <glyph glyph-name="two.numr" horiz-adv-x="438" 
d="M43 436q38 27 79.5 57.5t66.5 52.5q29 25 41 40t12 29q0 18 -12 27t-52 9q-16 0 -35 -2.5t-36.5 -6t-32.5 -7t-24 -5.5v114q19 5 61 13t83 8q83 0 126 -32q22 -16 34.5 -42t12.5 -56q0 -35 -11 -58t-34 -49q-22 -24 -45.5 -45.5t-45.5 -39.5h161v-108h-349v101z" />
    <glyph glyph-name="three.numr" horiz-adv-x="450" 
d="M50 339v100q23 -5 58 -10.5t73 -5.5q49 0 64 9q16 9 16 30q0 17 -13 26q-10 7 -23.5 8t-34.5 1h-93v96h138l11 15q10 14 10 27q0 6 -2 12t-9 11q-8 5 -21 6.5t-33 1.5q-40 0 -80.5 -7.5t-57.5 -11.5v98q11 2 29 5.5t39 6.5t43 5.5t40 2.5q55 0 85 -7.5t51 -21.5
q20 -14 30 -35.5t10 -42.5q0 -34 -15 -60q-7 -11 -14.5 -22t-12.5 -17q8 -6 16 -14.5t15 -19.5q18 -28 18 -70q0 -55 -40 -91q-20 -18 -57.5 -29t-94.5 -11q-16 0 -37 1.5t-41 4t-38 5t-29 4.5z" />
    <glyph glyph-name="four.numr" horiz-adv-x="458" 
d="M208 754h155l-185 -248h91v64h125v-235h-125v62h-244v111z" />
    <glyph glyph-name="five.numr" horiz-adv-x="442" 
d="M61 434q26 -4 57.5 -7.5t67.5 -3.5q27 0 40 2t21 7q13 9 13 29q0 21 -15 29q-8 5 -29.5 6.5t-79.5 1.5h-71v256h308v-105h-186v-56h39q43 0 67 -5.5t42 -16.5q26 -15 38.5 -43t12.5 -59q0 -33 -9 -59t-32 -46q-21 -18 -56.5 -29t-101.5 -11q-36 0 -70 3.5t-56 6.5v100z
" />
    <glyph glyph-name="six.numr" horiz-adv-x="464" 
d="M125 693q39 31 105 48t157 25v-100q-54 -5 -88 -10.5t-60 -15.5q-44 -16 -50 -46q16 1 35 1.5t49 0.5q35 0 63 -8.5t47 -27.5q32 -32 32 -94q0 -26 -9.5 -53.5t-29.5 -46.5q-23 -21 -55.5 -31.5t-84.5 -10.5q-47 0 -83.5 10.5t-59.5 33.5q-20 20 -29 52t-9 69
q0 35 2 64.5t9 54t21 45.5t38 40zM179 480q0 -14 1.5 -27.5t7.5 -21.5q8 -10 21 -13.5t27 -3.5q30 0 43 12q14 12 14 39q0 26 -12 37q-11 10 -48 10q-14 0 -28 -0.5t-25 -1.5q-1 -9 -1 -15.5v-14.5z" />
    <glyph glyph-name="seven.numr" horiz-adv-x="406" 
d="M49 335l193 313h-222v106h368v-105l-191 -314h-148z" />
    <glyph glyph-name="eight.numr" horiz-adv-x="490" 
d="M92 522q9 9 16 15t14 11q-21 11 -34 30q-16 23 -16 70q0 26 11 49.5t37 40.5q18 12 49.5 19.5t76.5 7.5q48 0 78.5 -8t50.5 -22t32 -36.5t12 -48.5q0 -37 -23 -71q-5 -8 -14 -18t-13 -14q11 -6 19.5 -12.5t16.5 -16.5q23 -29 23 -73q0 -31 -12.5 -53t-32.5 -36
q-23 -16 -53 -24t-83 -8q-58 0 -91.5 9t-52.5 23q-41 30 -41 89q0 23 6.5 41.5t23.5 35.5zM195 424q7 -5 19.5 -8.5t32.5 -3.5q18 0 29.5 4t18.5 10q12 11 12 32q0 24 -19 33q-11 5 -31 8.5t-43 6.5l-12 -10t-11 -12q-6 -8 -7 -15t-1 -14q0 -8 2 -16.5t10 -14.5zM206 597
q10 -5 29 -8.5t42 -6.5q10 11 17 22q9 14 9 29q0 21 -11 31q-14 12 -46 12q-17 0 -28 -3.5t-17 -8.5q-8 -6 -10 -14t-2 -17q0 -17 5 -24.5t12 -11.5z" />
    <glyph glyph-name="nine.numr" horiz-adv-x="464" 
d="M50 620q0 31 10 57.5t27 43.5q19 19 51.5 31.5t91.5 12.5q50 0 81.5 -12t54.5 -38t33 -67t10 -78q0 -42 -2.5 -80.5t-18.5 -70.5q-12 -24 -28.5 -41t-34.5 -27q-24 -13 -55 -20t-70 -7q-61 0 -128 14v100q30 -6 57.5 -10.5t52.5 -4.5q40 0 59 6q23 7 33 20q12 16 12 40
q-22 -2 -48.5 -4t-54.5 -2q-35 0 -64 7t-44 27q-25 32 -25 103zM172 622q0 -29 9 -40.5t40 -11.5q15 0 33 1t32 3q0 26 -1.5 44.5t-9.5 32.5q-12 21 -45 21q-32 0 -44 -12q-14 -13 -14 -38z" />
    <glyph glyph-name="zero.dnom" 
d="M101 377q25 28 62.5 40.5t86.5 12.5q45 0 78.5 -10.5t59.5 -33.5q32 -29 44.5 -70.5t12.5 -104.5q0 -60 -12.5 -100t-42.5 -71q-49 -51 -140 -51q-46 0 -81.5 10t-61.5 36q-32 32 -42 73.5t-10 102.5q0 57 10 97t36 69zM181 211q0 -37 3.5 -59.5t17.5 -35.5
q16 -15 48 -15q29 0 46 16q15 14 19 36.5t4 57.5q0 27 -2.5 48.5t-12.5 35.5q-16 23 -54 23q-22 0 -35 -6t-21 -20t-10.5 -34.5t-2.5 -46.5z" />
    <glyph glyph-name="one.dnom" horiz-adv-x="330" 
d="M134 0v274l-113 -30v118l244 70v-432h-131z" />
    <glyph glyph-name="two.dnom" horiz-adv-x="438" 
d="M43 101q38 27 79.5 57.5t66.5 52.5q29 25 41 40t12 29q0 18 -12 27t-52 9q-16 0 -35 -2.5t-36.5 -6t-32.5 -7t-24 -5.5v114q19 5 61 13t83 8q83 0 126 -32q22 -16 34.5 -42t12.5 -56q0 -35 -11 -58t-34 -49q-22 -24 -45.5 -45.5t-45.5 -39.5h161v-108h-349v101z" />
    <glyph glyph-name="three.dnom" horiz-adv-x="450" 
d="M50 4v100q23 -5 58 -10.5t73 -5.5q49 0 64 9q16 9 16 30q0 17 -13 26q-10 7 -23.5 8t-34.5 1h-93v96h138l11 15q10 14 10 27q0 6 -2 12t-9 11q-8 5 -21 6.5t-33 1.5q-40 0 -80.5 -7.5t-57.5 -11.5v98q11 2 29 5.5t39 6.5t43 5.5t40 2.5q55 0 85 -7.5t51 -21.5
q20 -14 30 -35.5t10 -42.5q0 -34 -15 -60q-7 -11 -14.5 -22t-12.5 -17q8 -6 16 -14.5t15 -19.5q18 -28 18 -70q0 -55 -40 -91q-20 -18 -57.5 -29t-94.5 -11q-16 0 -37 1.5t-41 4t-38 5t-29 4.5z" />
    <glyph glyph-name="four.dnom" horiz-adv-x="458" 
d="M208 419h155l-185 -248h91v64h125v-235h-125v62h-244v111z" />
    <glyph glyph-name="five.dnom" horiz-adv-x="442" 
d="M61 99q26 -4 57.5 -7.5t67.5 -3.5q27 0 40 2t21 7q13 9 13 29q0 21 -15 29q-8 5 -29.5 6.5t-79.5 1.5h-71v256h308v-105h-186v-56h39q43 0 67 -5.5t42 -16.5q26 -15 38.5 -43t12.5 -59q0 -33 -9 -59t-32 -46q-21 -18 -56.5 -29t-101.5 -11q-36 0 -70 3.5t-56 6.5v100z
" />
    <glyph glyph-name="six.dnom" horiz-adv-x="464" 
d="M125 358q39 31 105 48t157 25v-100q-54 -5 -88 -10.5t-60 -15.5q-44 -16 -50 -46q16 1 35 1.5t49 0.5q35 0 63 -8.5t47 -27.5q32 -32 32 -94q0 -26 -9.5 -53.5t-29.5 -46.5q-23 -21 -55.5 -31.5t-84.5 -10.5q-47 0 -83.5 10.5t-59.5 33.5q-20 20 -29 52t-9 69
q0 35 2 64.5t9 54t21 45.5t38 40zM179 145q0 -14 1.5 -27.5t7.5 -21.5q8 -10 21 -13.5t27 -3.5q30 0 43 12q14 12 14 39q0 26 -12 37q-11 10 -48 10q-14 0 -28 -0.5t-25 -1.5q-1 -9 -1 -15.5v-14.5z" />
    <glyph glyph-name="seven.dnom" horiz-adv-x="406" 
d="M49 0l193 313h-222v106h368v-105l-191 -314h-148z" />
    <glyph glyph-name="eight.dnom" horiz-adv-x="490" 
d="M92 187q9 9 16 15t14 11q-21 11 -34 30q-16 23 -16 70q0 26 11 49.5t37 40.5q18 12 49.5 19.5t76.5 7.5q48 0 78.5 -8t50.5 -22t32 -36.5t12 -48.5q0 -37 -23 -71q-5 -8 -14 -18t-13 -14q11 -6 19.5 -12.5t16.5 -16.5q23 -29 23 -73q0 -31 -12.5 -53t-32.5 -36
q-23 -16 -53 -24t-83 -8q-58 0 -91.5 9t-52.5 23q-41 30 -41 89q0 23 6.5 41.5t23.5 35.5zM195 89q7 -5 19.5 -8.5t32.5 -3.5q18 0 29.5 4t18.5 10q12 11 12 32q0 24 -19 33q-11 5 -31 8.5t-43 6.5l-12 -10t-11 -12q-6 -8 -7 -15t-1 -14q0 -8 2 -16.5t10 -14.5zM206 262
q10 -5 29 -8.5t42 -6.5q10 11 17 22q9 14 9 29q0 21 -11 31q-14 12 -46 12q-17 0 -28 -3.5t-17 -8.5q-8 -6 -10 -14t-2 -17q0 -17 5 -24.5t12 -11.5z" />
    <glyph glyph-name="nine.dnom" horiz-adv-x="464" 
d="M50 285q0 31 10 57.5t27 43.5q19 19 51.5 31.5t91.5 12.5q50 0 81.5 -12t54.5 -38t33 -67t10 -78q0 -42 -2.5 -80.5t-18.5 -70.5q-12 -24 -28.5 -41t-34.5 -27q-24 -13 -55 -20t-70 -7q-61 0 -128 14v100q30 -6 57.5 -10.5t52.5 -4.5q40 0 59 6q23 7 33 20q12 16 12 40
q-22 -2 -48.5 -4t-54.5 -2q-35 0 -64 7t-44 27q-25 32 -25 103zM172 287q0 -29 9 -40.5t40 -11.5q15 0 33 1t32 3q0 26 -1.5 44.5t-9.5 32.5q-12 21 -45 21q-32 0 -44 -12q-14 -13 -14 -38z" />
    <glyph glyph-name="IJacute" horiz-adv-x="694" 
d="M72 0v754h150v-754h-150zM263 25q28 9 72 26t79 39q18 11 30 24t20 34t9 48t1 52v506h150v-517q0 -48 -2.5 -91.5t-16.5 -76.5q-11 -25 -27 -44t-47 -37q-27 -16 -63.5 -32.5t-74 -31.5t-72.5 -27t-58 -19v147zM59 796l141 154h162l-147 -154h-156zM468 796l141 154h162
l-147 -154h-156z" />
    <glyph glyph-name="ijacute" horiz-adv-x="558" 
d="M54 600l141 154h162l-147 -154h-156zM333 600l141 154h162l-147 -154h-156zM65 0v528h146v-528h-146zM216 -80l21 7t25 9t24.5 10.5t19.5 11.5q14 10 21.5 21t11.5 28q5 20 5.5 43.5t0.5 49.5v428h148v-457v-28t-1 -32.5t-3 -32t-5 -26.5q-17 -57 -76 -93
q-40 -25 -94.5 -43.5t-97.5 -29.5v134z" />
    <glyph glyph-name="space.tf" horiz-adv-x="325" 
 />
    <glyph glyph-name="period.tf" horiz-adv-x="325" 
d="M80 0v178h166v-178h-166z" />
    <glyph glyph-name="comma.tf" horiz-adv-x="325" 
d="M72 -188q8 38 15 84t7 107v175h152v-151q0 -35 -6.5 -67t-16 -60t-20.5 -50l-19 -38h-112z" />
    <glyph glyph-name="colon.tf" horiz-adv-x="325" 
d="M80 0v178h166v-178h-166zM246 528v-178h-166v178h166z" />
    <glyph glyph-name="dollar.tf" horiz-adv-x="650" 
d="M47 544q0 63 17.5 105.5t59.5 73.5q28 21 61.5 29.5t69.5 10.5v94h133v-96q52 -7 102 -17t88 -18v-141q-30 7 -64.5 14.5t-69.5 14t-67 10.5t-58 4q-38 0 -59 -2.5t-38 -14.5q-23 -16 -23 -57q0 -19 5.5 -33.5t20.5 -22.5q11 -6 19.5 -10.5t18 -8t21.5 -7.5t28 -10
l98 -34q40 -14 72 -26.5t56 -32.5q31 -26 47.5 -65.5t16.5 -87.5q0 -110 -76 -170q-29 -23 -60.5 -34.5t-77.5 -17.5v-107h-133v105q-52 5 -104 12t-97 15v142q63 -14 130.5 -24.5t133.5 -10.5q31 0 55 3t47 18q16 11 23 27t7 34t-4.5 29.5t-13.5 20.5q-11 10 -33 18.5
t-57 20.5l-118 41q-36 13 -63.5 25.5t-50.5 29.5q-32 26 -47.5 64t-15.5 87z" />
    <glyph glyph-name="Euro.tf" horiz-adv-x="650" 
d="M61 366q0 38 2 77.5t7.5 76.5t14 69.5t20.5 54.5q17 30 38.5 53.5t53 39t75.5 24t105 8.5q30 0 61.5 -3t61.5 -7t56.5 -8.5t45.5 -7.5v-141q-47 8 -102.5 16.5t-106.5 8.5q-66 0 -102 -9t-54 -37q-8 -13 -11 -26t-4 -26h266v-122h-275v-55h275v-122h-268q1 -17 3 -29
t8 -26q14 -31 55.5 -39t110.5 -8q51 0 104 5.5t101 11.5v-142q-50 -6 -105.5 -11.5t-120.5 -5.5q-63 0 -108.5 8.5t-77.5 24t-53 37.5t-36 48q-11 20 -19 49t-12.5 63.5t-6.5 72.5t-2 77z" />
    <glyph glyph-name="sterling.tf" horiz-adv-x="650" 
d="M90 569q0 39 8.5 77t38.5 71q29 32 68 43t107 11q27 0 58 -3t63 -8t63 -11t58 -11v-139l-55 11t-60.5 11t-59 8t-49.5 3q-25 0 -44 -5t-33 -20q-9 -11 -11 -24.5t-2 -23.5v-76h205v-132h-205v-208h355v-143h-505v569z" />
    <glyph glyph-name="yen.tf" horiz-adv-x="650" 
d="M2 754h169l159 -302l159 302h160l-144 -271h109v-132h-176l-37 -69v-282h-150v282l-37 69h-177v132h109z" />
    <glyph glyph-name="uni20BA.tf" horiz-adv-x="650" 
d="M240 754v-134l212 65v-124l-212 -65v-59l212 65v-124l-212 -65v-195q53 0 93.5 11t67.5 41q15 17 24.5 34t14.5 36t7.5 41t4.5 49h151q-3 -70 -15.5 -127.5t-45.5 -101.5q-21 -28 -48 -50t-63 -37.5t-83 -23t-109 -7.5q-54 0 -91.5 1.5t-57.5 3.5v766h150z" />
    <glyph glyph-name="uni20BD.tf" horiz-adv-x="650" 
d="M80 0v754h278q65 0 110.5 -14.5t79.5 -47.5q65 -64 65 -171q0 -58 -16 -99.5t-53 -76.5q-35 -32 -78.5 -44.5t-96.5 -14.5q-33 -2 -70 -2h-69v-61h267v-122h-267v-101h-150zM230 422h57.5t66.5 2q32 2 51.5 7t33.5 19q14 16 18 32.5t4 38.5q0 23 -4.5 39.5t-18.5 30.5
q-13 13 -33.5 18t-57.5 5h-117v-192z" />
    <glyph glyph-name="parenleft.case" horiz-adv-x="346" 
d="M61 599q0 54 10 98.5t42 78.5q42 46 98.5 65.5t106.5 28.5v-130q-23 -7 -47 -17t-40 -31q-15 -20 -18.5 -56t-3.5 -74v-370q0 -40 3.5 -77t18.5 -55q17 -20 40.5 -29.5t46.5 -16.5v-130q-51 9 -106.5 28.5t-98.5 65.5q-32 34 -42 78.5t-10 98.5v444z" />
    <glyph glyph-name="parenright.case" horiz-adv-x="346" 
d="M28 -116v130q23 7 46.5 16.5t40.5 29.5q15 18 18.5 55t3.5 77v370q0 38 -3.5 74t-18.5 56q-16 21 -40 31t-47 17v130q51 -9 106.5 -28.5t98.5 -65.5q32 -34 42 -78.5t10 -98.5v-444q0 -54 -10 -98.5t-42 -78.5q-42 -46 -98.5 -65.5t-106.5 -28.5z" />
    <glyph glyph-name="bracketleft.case" horiz-adv-x="366" 
d="M338 849v-130h-123v-686h123v-130h-271v946h271z" />
    <glyph glyph-name="bracketright.case" horiz-adv-x="366" 
d="M299 849v-946h-271v130h123v686h-123v130h271z" />
    <glyph glyph-name="braceleft.case" horiz-adv-x="426" 
d="M81 453q23 9 33 23.5t10 34.5v193q0 82 47 120q31 25 82 25h145v-130h-61q-35 0 -50 -15t-15 -49v-175q0 -69 -49 -92q-18 -8 -61 -13q52 -6 72 -19q38 -24 38 -85v-174q0 -34 15 -49t50 -15h61v-130h-145q-56 0 -91 33q-38 36 -38 113v190q0 23 -13.5 38.5t-45.5 24.5
q-11 3 -21.5 4t-24.5 2v134q13 1 30.5 3.5t31.5 7.5z" />
    <glyph glyph-name="braceright.case" horiz-adv-x="426" 
d="M28 -97v130h61q35 0 50 15t15 49v174q0 61 38 85q20 13 72 19q-43 5 -61 13q-49 25 -49 92v175q0 34 -15 49t-50 15h-61v130h145q51 0 82 -25q47 -38 47 -120v-193q0 -20 10 -35t33 -23q14 -5 31.5 -7.5t30.5 -3.5v-134q-14 -1 -24.5 -2t-21.5 -4q-32 -8 -45.5 -24
t-13.5 -39v-190q0 -77 -38 -113q-34 -33 -91 -33h-145z" />
    <glyph glyph-name="hyphen.case" horiz-adv-x="458" 
d="M50 306v146h358v-146h-358z" />
    <glyph glyph-name="endash.case" horiz-adv-x="600" 
d="M50 308v142h500v-142h-500z" />
    <glyph glyph-name="emdash.case" horiz-adv-x="1000" 
d="M0 308v142h1000v-142h-1000z" />
    <glyph glyph-name="guillemotleft.case" horiz-adv-x="671" 
d="M494 582h170l-176 -206l176 -206h-170l-176 206zM33 376l176 206h170l-176 -206l176 -206h-170z" />
    <glyph glyph-name="guillemotright.case" horiz-adv-x="671" 
d="M292 170l176 206l-176 206h170l176 -206l-176 -206h-170zM7 582h170l176 -206l-176 -206h-170l176 206z" />
    <glyph glyph-name="guilsinglleft.case" horiz-adv-x="386" 
d="M209 170l-176 206l176 206h170l-176 -206l176 -206h-170z" />
    <glyph glyph-name="guilsinglright.case" horiz-adv-x="386" 
d="M7 170l176 206l-176 206h170l176 -206l-176 -206h-170z" />
    <glyph glyph-name="questiondown.case" horiz-adv-x="559" 
d="M111 351q21 26 44 51.5t49 52.5q17 17 24.5 32t12.5 27h162q-16 -54 -55 -103q-21 -26 -51 -58.5t-54 -57.5q-20 -20 -35.5 -46t-15.5 -55q0 -16 5 -30.5t19 -25.5q15 -12 39 -15.5t59 -3.5q48 0 94.5 8t90.5 17v-133q-35 -8 -89.5 -18t-123.5 -10q-57 0 -99 11.5
t-76 37.5q-32 24 -50.5 63.5t-18.5 79.5q0 26 3.5 47.5t11.5 42t21 41.5t33 45zM241 754h162v-178h-162v178z" />
    <glyph glyph-name="exclamdown.case" horiz-adv-x="318" 
d="M78 514h146q0 -7 0.5 -31t1 -56.5t0.5 -70t0.5 -74t0.5 -67.5v-49v-166h-152v166v49t0.5 67.5t0.5 74t0.5 70t1 56t0.5 31.5zM70 754h162v-178h-162v178z" />
    </font>
</defs>
</svg>
